#TITLE:Passacaglia;
#SUBTITLE:;
#ARTIST:Synthwulf;
#TITLETRANSLIT:;
#SUBTITLETRANSLIT:;
#ARTISTTRANSLIT:;
#GENRE:;
#CREDIT:;
#BANNER:passacaglia_bn.png;
#BACKGROUND:passacaglia_bg.png;
#LYRICSPATH:;
#CDTITLE:cdtitle.png;
#MUSIC:passacaglia.ogg;
#OFFSET:0.000000;
#SAMPLESTART:54.857140;
#SAMPLELENGTH:21.942856;
#SELECTABLE:YES;
#BPMS:0.000000=175.000000
;
#STOPS:
;
#BGCHANGES:;
#KEYSOUNDS:;
#ATTACKS:;

//---------------dance-single - ----------------
#NOTES:
     dance-single:
     :
     Challenge:
     11:
     0.750652,1.196807,0.257058,0.211695,0.336443,695.000000,661.000000,34.000000,28.000000,3.000000,0.000000,0.750652,1.196807,0.257058,0.211695,0.336443,695.000000,661.000000,34.000000,28.000000,3.000000,0.000000:
// measure 0
0000
0000
0000
0000
,  // measure 1
0000
0000
0000
0000
,  // measure 2
0000
0000
0000
0000
,  // measure 3
0000
0000
0000
0000
,  // measure 4
0000
0000
0000
0000
,  // measure 5
0000
0000
0000
0000
,  // measure 6
0000
0000
0000
0000
,  // measure 7
0000
0000
0000
0000
,  // measure 8
0002
0000
0000
0000
0103
0000
0000
0010
0100
0000
0001
0000
0010
0000
0000
0000
,  // measure 9
0100
0000
0000
0000
1100
0000
0000
1000
0100
0000
0010
0000
0100
0000
0000
0000
,  // measure 10
1000
0000
0000
0000
1010
0000
0000
0010
0100
0000
0001
0000
0010
0000
0000
0000
,  // measure 11
0100
0000
0000
0000
1100
0000
0000
0010
0000
0000
0010
0000
0110
0000
0000
0000
,  // measure 12
2000
0000
0000
0000
3100
0000
0000
0100
1000
0000
0010
0000
0100
0000
0000
0000
,  // measure 13
0010
0000
0000
0000
0110
0000
0000
0100
0001
0000
1000
0000
0100
0000
0000
0000
,  // measure 14
0010
0000
0100
0000
0110
0000
0000
0010
0100
0000
1000
0000
0001
0000
0000
0000
,  // measure 15
0100
0000
0000
0100
0010
0000
0000
0100
0000
0000
0001
0000
1001
0000
0000
0000
,  // measure 16
0020
0000
0000
0000
0230
0000
0000
0000
1300
0100
1000
0100
1000
0000
0001
0000
,  // measure 17
0100
0001
0100
0001
0100
0000
0010
0000
0100
0000
0110
0000
0000
0000
0000
0000
,  // measure 18
0010
0000
0100
0000
0110
0000
0000
0100
0001
0000
1000
0000
0100
0000
0000
0000
,  // measure 19
0010
0000
0000
0000
0110
0000
0000
0010
0100
0000
1000
0000
0001
0000
0000
0000
,  // measure 20
0200
0000
0000
0000
0320
0000
0000
0000
1030
0010
1000
0010
1000
0000
0001
0000
,  // measure 21
0010
0001
0010
0001
0010
0000
0100
0000
1000
0000
1001
0000
0000
0000
0000
0000
,  // measure 22
1000
0000
0100
0000
1100
0000
0000
0100
0010
0000
0001
0000
0100
0000
0000
0000
,  // measure 23
0010
0000
0100
0000
0010
0100
0000
0000
0110
0000
0000
0101
0000
0000
1001
0000
,  // measure 24
2000
3200
0302
0023
,  // measure 25
2030
0001
0001
0001
,  // measure 26
3002
0203
2300
3020
,  // measure 27
0032
1000
1000
1000
,  // measure 28
2003
3200
0302
0023
,  // measure 29
2030
0001
0001
0001
,  // measure 30
3002
0000
0203
0000
,  // measure 31
0310
0000
0000
0000
0010
0000
0100
0000
0001
0000
0001
1000
0100
0000
0010
0000
,  // measure 32
0001
0100
0010
0100
0001
0100
0010
1000
,  // measure 33
0010
0000
0100
0000
0001
0000
1000
0000
0001
0000
1000
0001
0100
0000
0001
1000
,  // measure 34
0100
0010
0100
1000
0001
0010
0001
1000
,  // measure 35
0100
0000
0010
0000
0001
0000
1000
0000
0100
0000
1000
0000
0001
1000
0001
0100
,  // measure 36
0001
0100
0010
1000
0010
1000
0100
0010
0100
1000
0001
0010
0100
0010
0001
0100
,  // measure 37
0010
0100
0001
1000
0100
1000
0010
0100
0010
1000
0001
0010
0100
1000
0010
0100
,  // measure 38
0001
0001
0001
1000
1000
1000
0010
0010
0010
0100
0100
0100
,  // measure 39
0010
0000
0000
0000
0010
0000
0000
0000
0100
0000
0000
0000
0100
0000
0000
0000
0010
0000
0100
0000
0010
0000
0100
0000
0010
1000
0001
0100
0010
0000
0000
0000
,  // measure 40
0000
0010
0100
0010
0100
1000
0100
0010
,  // measure 41
0100
0001
0100
0010
0100
1000
0100
0010
,  // measure 42
1000
0100
0010
0001
0010
0100
0010
1000
,  // measure 43
0010
0100
0010
0001
0010
0100
0010
0100
,  // measure 44
1000
1000
0010
0100
0010
0001
0010
0100
,  // measure 45
0010
1000
0010
0100
0010
0001
0010
0100
,  // measure 46
0001
0010
0100
1000
0100
0010
0100
0001
,  // measure 47
0100
0000
0100
0000
0010
0000
0010
0000
0100
1000
0001
0010
0100
1000
0001
0010
,  // measure 48
0100
1000
0001
0010
1000
0001
0100
1000
,  // measure 49
0001
0010
1000
0001
0100
1000
0001
0001
,  // measure 50
1000
0010
0001
1000
0100
0001
1000
0010
,  // measure 51
0001
1000
0100
0001
1000
0010
0001
1000
,  // measure 52
0100
0010
1000
0100
0001
1000
0010
0001
,  // measure 53
0100
1000
0001
0010
1000
0100
0001
0100
,  // measure 54
1000
0000
0010
0000
0001
0000
0010
0000
0100
0000
0001
0000
0010
0100
0000
0000
,  // measure 55
0020
0000
0000
0000
,  // measure 56
0031
0100
0010
0100
0110
0100
0010
0010
,  // measure 57
0100
0100
0010
0010
1010
1000
0001
0001
,  // measure 58
0010
0100
1000
0100
1100
0100
0010
0010
,  // measure 59
0001
0001
1000
1000
1001
0001
0100
0100
,  // measure 60
0010
1000
0010
0100
0110
0100
0001
0001
,  // measure 61
0010
0010
1000
1000
1010
0010
0100
1000
,  // measure 62
0010
0100
0001
0100
0101
0001
1000
0100
,  // measure 63
0020
0100
0100
0130
0210
0010
0010
0310
,  // measure 64
0004
0100
0000
0010
0000
0100
0000
1000
,  // measure 65
0000
0100
0000
0010
0000
0100
0000
1000
,  // measure 66
4003
0100
0000
0010
0000
0100
0000
0001
,  // measure 67
0000
0100
0000
0010
0000
0001
0000
0010
,  // measure 68
3100
0010
0100
1000
1100
0100
0010
0001
,  // measure 69
0100
0000
0010
0100
0010
0000
0100
0000
0110
0000
0000
0100
0001
0000
1000
0000
,  // measure 70
0100
1000
0001
0100
0010
1000
0001
0010
,  // measure 71
0100
1000
0000
0001
0010
0000
0100
1000
0000
0010
0100
0000
0000
1001
0000
0000
,  // measure 72
1000
0100
0001
0100
1000
0100
0010
0001
,  // measure 73
0100
0010
0100
1000
0100
0010
0100
0001
,  // measure 74
0010
0100
0001
0100
1000
0100
0010
0001
,  // measure 75
0100
1000
0100
0001
0100
1000
0100
0010
,  // measure 76
1000
0100
0010
1000
0010
0001
0010
0100
,  // measure 77
1000
0010
0001
0010
1000
0100
1000
0010
,  // measure 78
0100
0001
0010
0100
1000
0100
0010
0001
,  // measure 79
0200
0000
0300
0000
,  // measure 80
0001
0100
0011
0100
0001
0100
0011
0100
,  // measure 81
0001
0010
0100
1000
0010
0100
0001
1000
,  // measure 82
1000
0100
1010
0100
1000
0100
1010
0100
,  // measure 83
1000
0010
0100
0001
0010
0100
1000
0010
,  // measure 84
0100
0001
1100
0001
0010
0010
0101
0010
,  // measure 85
0001
0100
0011
0100
0010
0010
1100
0000
,  // measure 86
0001
0100
1000
0000
0MMM
0000
1000
0100
,  // measure 87
0001
0000
0100
0000
1000
0000
0100
0000
0010
0100
0010
0001
1000
0010
0100
0001
,  // measure 88
1000
0100
1000
0100
1000
0000
0000
0000
1000
0100
0000
0100
1000
0000
1000
0000
,  // measure 89
0010
0000
0010
0000
0100
0000
0100
0010
0100
0000
0100
0001
1000
0000
1000
0000
,  // measure 90
0001
0000
0010
0000
0010
0000
0000
0000
0001
0010
0100
1000
0001
0000
0100
0000
,  // measure 91
0010
0000
0010
0000
0100
0000
0100
0000
0010
0000
0010
0100
0000
0000
0000
0000
,  // measure 92
0100
0000
0000
0000
1000
0000
0000
0000
0001
0100
0000
0100
0001
0000
0100
0000
,  // measure 93
0010
0000
0010
0000
1000
0000
1000
0000
0100
0010
0100
0000
0010
0000
0001
0000
,  // measure 94
0100
0000
0010
0000
0100
0000
0000
0000
0100
0010
0000
0010
0100
0000
0001
0000
,  // measure 95
2000
0000
0000
0000
0000
0000
0000
3001
1000
0000
0000
1000
0001
0000
0000
0010
;
