#TITLE:Marigold;
#SUBTITLE:;
#ARTIST:SHORTCUTS;
#TITLETRANSLIT:;
#SUBTITLETRANSLIT:;
#ARTISTTRANSLIT:;
#GENRE:;
#CREDIT:;
#BANNER:;
#BACKGROUND:;
#LYRICSPATH:;
#CDTITLE:;
#MUSIC:Marigold.mp3;
#OFFSET:-1.179999;
#SAMPLESTART:36.099998;
#SAMPLELENGTH:23.299999;
#SELECTABLE:YES;
#DISPLAYBPM:165.000000;
#BPMS:0.000000=82.500000
,16.000000=165.000000
,208.000000=82.500000
,224.000000=165.000000
;
#STOPS:
;
#BGCHANGES:;
#KEYSOUNDS:;
#ATTACKS:;

//---------------dance-single - ----------------
#NOTES:
     dance-single:
     :
     Challenge:
     10:
     0.703305,0.983402,0.391891,0.065315,0.163288,603.000000,555.000000,48.000000,8.000000,0.000000,0.000000,0.703305,0.983402,0.391891,0.065315,0.163288,603.000000,555.000000,48.000000,8.000000,0.000000,0.000000:
// measure 0
1000
1000
0010
0010
0100
0100
0001
0001
,  // measure 1
0010
0010
0100
0100
1000
1000
0001
0001
,  // measure 2
0100
0001
0100
0001
1000
0001
1000
0001
,  // measure 3
1000
0000
0010
1000
0010
0000
0100
0001
0100
0010
0100
0000
0010
0000
0100
0000
,  // measure 4
0001
0000
0001
0100
1000
0100
0001
0100
,  // measure 5
1000
0000
1000
0100
0001
0100
1000
0100
,  // measure 6
0001
0000
0001
0010
0100
0010
0001
0010
,  // measure 7
0100
0000
0100
0010
0001
0010
0100
0010
,  // measure 8
0001
0000
0001
1000
0010
1000
0001
1000
,  // measure 9
0010
0000
0010
1000
0001
1000
0001
1000
,  // measure 10
0010
0000
0100
0001
0100
0010
0100
0001
,  // measure 11
0100
0000
0010
1000
0010
1001
0000
1010
,  // measure 12
0000
1000
0001
1000
0100
1000
0001
1000
,  // measure 13
0010
0000
0010
0100
0001
0100
0010
0100
,  // measure 14
0001
0000
0001
1000
0010
1000
0100
1000
,  // measure 15
0001
0000
1000
0010
1000
0101
0000
1001
,  // measure 16
0000
1000
0001
0100
0001
1000
0010
1000
,  // measure 17
0001
0000
0001
0100
0010
1010
0000
1001
,  // measure 18
0000
0100
0010
0100
0001
1000
0010
0100
,  // measure 19
0001
0000
0000
0000
0100
0000
0000
0001
0100
0000
0010
0000
1000
0001
1000
0000
,  // measure 20
0001
0001
0100
0010
0010
1000
0100
0100
,  // measure 21
0010
0001
0001
0000
0100
0010
1000
0100
,  // measure 22
0010
0001
1000
0001
0000
1001
0000
0210
,  // measure 23
0000
0001
0301
0100
0010
1000
0001
0000
,  // measure 24
0100
0100
0001
1000
1000
0100
0010
0010
,  // measure 25
0001
1000
1000
0000
0001
0100
0010
1000
,  // measure 26
0100
1000
0001
1000
0000
1010
0000
0102
,  // measure 27
0000
0000
0100
0000
0103
0000
0001
0000
0100
0000
0001
0100
0010
0000
0010
1000
,  // measure 28
0010
0010
0100
0001
0001
1000
0100
0100
,  // measure 29
0010
0001
0001
0000
0100
0010
0100
0001
,  // measure 30
1000
0100
0010
0001
0000
0101
0000
2010
,  // measure 31
0000
0001
3001
1000
0010
0100
0001
0000
,  // measure 32
0100
0100
0001
1000
1000
0010
0100
0100
,  // measure 33
0001
0010
0010
0000
0100
0001
0100
0010
,  // measure 34
1000
0001
0100
0010
0000
0110
0000
1002
,  // measure 35
0000
0000
1000
0000
1003
0000
0001
0000
0100
0000
0010
0000
0100
0010
0100
0000
,  // measure 36
0100
0001
0100
0001
0100
0001
0100
0001
,  // measure 37
0100
0001
0100
0001
0100
0001
1000
0001
,  // measure 38
1000
0010
1000
0010
1000
0010
1000
0010
,  // measure 39
1000
0010
1000
0010
1000
0010
0100
0010
,  // measure 40
0100
0001
0100
0001
0100
0001
0100
0001
,  // measure 41
0100
0001
0100
0001
1000
0001
0100
0010
,  // measure 42
0100
0010
0100
0010
0100
0010
0100
0010
,  // measure 43
1000
0001
1000
0001
1000
0001
0100
0110
,  // measure 44
0000
0010
1000
0100
1000
0010
1000
0100
,  // measure 45
1000
0010
1000
0100
1000
0001
0100
0001
,  // measure 46
0010
0001
0100
0001
0010
0001
0100
0001
,  // measure 47
0010
0001
0100
0001
0010
0100
1000
0001
,  // measure 48
0100
1000
0100
0001
0100
1000
0100
0001
,  // measure 49
0100
1000
0100
0001
0100
0010
1000
0001
,  // measure 50
0010
1000
0010
0001
0010
1000
0001
1000
,  // measure 51
2002
0000
0000
3003
,  // measure 52
1000
0010
0100
0001
0010
0001
1000
0100
0001
1000
0010
0100
0001
0100
0010
1000
,  // measure 53
0100
0001
0010
0100
1000
0001
0100
0010
1000
0001
1000
0100
0001
0010
0100
1000
,  // measure 54
0100
0001
0010
0100
0010
1000
0010
0100
0001
1000
0100
0001
0010
0100
1000
0001
,  // measure 55
0100
0001
0010
1000
0100
1000
0001
0100
0010
0100
1000
0001
0010
0100
1000
0001
,  // measure 56
1000
0010
0100
0110
0000
0100
0001
0101
,  // measure 57
0000
0010
0100
0110
0000
0100
0001
0101
,  // measure 58
0000
0001
0010
0011
0000
1000
0100
1100
,  // measure 59
0000
0001
0010
0011
0000
1000
0100
1100
,  // measure 60
0000
0010
1000
1010
0000
0100
0010
0110
,  // measure 61
0000
0010
1000
1010
0000
0100
0010
0110
,  // measure 62
0000
1000
0001
1001
0000
0100
0010
0110
,  // measure 63
0000
1000
0001
1001
0000
0100
0010
0110
,  // measure 64
0010
1000
0100
1100
1000
0001
0100
0110
,  // measure 65
0010
1000
0100
1100
1000
0001
0100
0110
,  // measure 66
1000
0010
1000
1001
0100
0001
0010
0011
,  // measure 67
1000
0010
1000
1001
0010
0001
0010
0011
,  // measure 68
0100
0001
0010
0101
0100
1000
0001
1001
,  // measure 69
0100
0001
0010
0101
1000
0001
1000
1001
,  // measure 70
0001
0010
0100
0110
0100
0001
1000
1001
,  // measure 71
0001
0010
0100
0110
0100
1000
0001
2002
,  // measure 72
0000
0000
0000
0000
,  // measure 73
3003
0000
0000
0000
;
