#TITLE:MIAMI;
#SUBTITLE:;
#ARTIST:SLICK;
#TITLETRANSLIT:;
#SUBTITLETRANSLIT:;
#ARTISTTRANSLIT:;
#CREDIT:;
#BANNER:MIAMI.png;
#BACKGROUND:MIAMI-bg.png;
#LYRICSPATH:;
#CDTITLE:Dance Mania Summers 2.png;
#MUSIC:MIAMI.ogg;
#OFFSET:-6.883;
#SAMPLESTART:52.669;
#SAMPLELENGTH:12.000;
#SELECTABLE:YES;
#BPMS:0.000=110.040;
#STOPS:;
#BGCHANGES:;

//---------------dance-single - ----------------
#NOTES:
     dance-single:
     :
     Hard:
     8:
     0.462,0.417,0.097,0.000,0.113: // measure 1
0000
0000
0000
0000
,  // measure 2
1001
0001
0100
0000
1000
0100
0001
0000
,  // measure 3
0010
0100
1000
0010
,  // measure 4
1000
1000
0001
0100
0000
0001
1000
0100
,  // measure 5
0000
1000
0001
0100
0101
0000
0101
0001
,  // measure 6
0100
0001
0100
1000
0100
0010
0100
0000
,  // measure 7
0010
1000
0100
1000
0100
0001
0100
0000
,  // measure 8
0010
0001
0100
0001
0010
0001
1000
0010
,  // measure 9
0100
0001
1000
0001
0100
0001
1000
0001
,  // measure 10
0010
0010
0100
0100
1000
1000
0001
0000
,  // measure 11
0100
0100
0010
0010
1000
1000
0001
0001
,  // measure 12
0010
0100
1100
0000
0010
0100
0101
0000
,  // measure 13
0001
1000
1100
0000
1000
0001
0011
0000
,  // measure 14
1001
0000
0000
0001
0010
0000
0100
0000
1000
0000
0100
0000
0001
0000
0100
0000
,  // measure 15
1000
0010
0100
0001
1000
0001
0010
1000
,  // measure 16
0001
1000
0010
0001
0100
1000
0001
1000
,  // measure 17
0000
0100
1001
0000
0001
0010
0100
0000
,  // measure 18
1000
0100
0010
0100
0001
0100
0010
0000
,  // measure 19
0001
0100
0010
0100
1000
0100
0010
0000
,  // measure 20
1000
0010
0100
0010
0001
0010
0100
0001
,  // measure 21
1000
0000
0001
0010
1000
0010
0100
1000
,  // measure 22
0010
1000
0010
1000
0010
0000
0100
0000
0001
0000
1000
0000
0001
0000
0010
0000
,  // measure 23
0100
1000
0010
1000
0100
0010
0001
0000
,  // measure 24
0010
0001
0100
0100
1000
0010
0010
1000
,  // measure 25
0100
0100
0001
0010
1000
0010
0001
0000
,  // measure 26
0010
0001
0010
0001
0010
0000
0100
0000
1000
0000
0001
0000
1000
0000
0010
0000
,  // measure 27
0001
0010
0100
0001
0010
1000
0010
0001
,  // measure 28
0100
1000
0010
0001
1000
0001
0100
0000
,  // measure 29
0001
0010
0010
1000
0100
0100
0001
0000
,  // measure 30
0001
0010
0001
0010
0001
0000
0100
0000
0010
0000
1000
0000
0100
0000
1000
0000
,  // measure 31
0010
0000
0100
0001
1000
0000
0100
1000
0001
0000
0100
0000
0010
0000
0000
0000
,  // measure 32
0100
0001
0010
0010
1000
0100
0100
1000
,  // measure 33
0010
0010
0001
0100
1000
0100
0001
0000
,  // measure 34
1000
0010
1000
0010
1000
0000
0100
0000
0010
0000
0001
0000
1000
0000
0001
0000
,  // measure 35
0010
0000
0001
1000
0010
0000
1000
0001
0010
0000
0001
0000
0100
0000
1000
0000
,  // measure 36
0100
0001
0010
1000
0100
0001
1000
0000
,  // measure 37
0001
0100
0100
1000
0010
0010
0001
0000
,  // measure 38
0010
0100
0010
0100
1000
0001
1000
0001
0100
0000
0010
1000
0000
0000
0001
0000
,  // measure 39
0010
0000
0100
1000
0001
0000
0100
0001
1000
0000
0010
0100
0000
0000
0000
0000
;

//---------------dance-double - ----------------
#NOTES:
     dance-double:
     :
     Hard:
     8:
     0.452,0.376,0.119,0.000,0.011:
00000000
00000000
00000000
00000000
,
00011000
00000100
00001000
00000000
00000001
00000100
00001000
00000000
,
00000100
00000001
00000010
00001000
,
00010000
01000000
10000000
00000000
00001000
00000100
00000001
00000000
,
00000001
00000100
00001000
00000000
00010000
01000000
10000000
00100000
,
10000000
00010000
10000000
01000000
00010000
00001000
00000100
00000100
,
00000001
00001000
00000001
00000010
00001000
00000001
00001000
00000010
,
00000010
00000001
00000100
00001000
00010000
00001000
00000100
00000001
,
00001000
00000100
00000010
00001000
00010000
01000000
00100000
00010000
,
10000000
10000000
00100000
00100000
00010000
00010000
00001000
00000100
,
00000001
00000001
00000010
00000010
00000100
00000100
00010000
00001000
,
01000000
00010000
11000000
00000000
01000000
10000000
01010000
00000000
,
00010000
00100000
10000000
00100000
00010000
10000000
01000000
00010000
,
00011000
00000000
00000000
00001000
00000100
00000000
00000000
00000000
00001000
00000000
00010000
00000000
01000000
00000000
00010000
00000000
,
00001000
00000100
00001000
00010000
01000000
00010000
00001000
00000010
,
00000001
00001000
00000010
00001000
00000001
00001000
00000100
00000010
,
00000000
00000110
00000001
00000000
00001000
00000100
00010000
00001000
,
00010000
00100000
00010000
00001000
00000010
00001000
00010000
00100000
,
00010000
00001000
00000100
00000001
00000010
00001000
00010000
01000000
,
00010000
00001000
00000100
00001000
00010000
01000000
10000000
00100000
,
00010000
00001000
00000100
00000001
00000010
00001000
00011000
00000000
,
00010000
01000000
10000000
01000000
00010000
01000000
10000000
01000000
,
00001000
00000100
00000001
00000100
00000010
00000001
00001000
00000000
,
00000001
00000001
00000100
00000100
00001000
00001000
00000010
00000010
,
00001000
00001000
00000100
00000100
00000001
00000001
00001001
00000000
,
00000001
00000010
00001000
00000010
00000001
00000010
00010000
01000000
,
10000000
01000000
00010000
01000000
10000000
01000000
00001000
00010000
,
00000100
00000100
00000001
00000001
00001000
00001000
00010000
00000000
,
00010000
00010000
01000000
10000000
00100000
00100000
01100000
00010000
,
10000000
00100000
00010000
00100000
10000000
00100000
00001000
00000100
,
00000001
00000100
00010000
01000000
10000000
00100000
01000000
00000000
,
00010000
00010000
00100000
00100000
10000000
10000000
01000000
01000000
,
10000000
10000000
00100000
00100000
00010000
01000000
00011000
00000000
,
00000001
00000100
00001000
00000100
00000001
00000100
00010000
01000000
,
10000000
01000000
00001000
00100000
10000000
00100000
00010000
01000000
,
10000000
10000000
01000000
01000000
00010000
00010000
10010000
00000000
,
00010000
00010000
00100000
01000000
10000000
10000000
10010000
00010000
,
10000000
00100000
00010000
00001000
00000010
00000001
00001000
00000001
,
00000010
00000000
00001000
00000000
00010000
00000000
01000000
00000000
00010000
00000000
00001000
00010000
00000000
00000000
00000000
00000000
;

//---------------dance-double - ----------------
#NOTES:
     dance-double:
     :
     Challenge:
     8:
     0.492,0.480,0.140,0.000,0.259:
00000000
00000000
00000000
00000000
,
00011000
00010000
01000000
10000000
,
00100000
00010000
00001000
00000100
,
00001001
00000000
00000001
00000010
00000010
00000000
00001000
00001000
,
00010000
00000000
01000000
00010000
01000000
00000000
00000000
00000000
11000000
00000000
00000000
00000000
10100000
00000000
00000000
00000000
,
01100000
00000000
10000000
00000000
00010000
00000000
00000000
00000000
01000000
00000000
00010000
00000000
10000000
00000000
01000000
10000000
,
01000000
00000000
00000000
00000000
00010000
00000000
00001000
00000000
00000100
00000000
00000001
00000000
00001000
00000000
00000001
00001000
,
00000001
00000000
00001000
00000001
00001000
00000000
00000000
00000000
00000100
00000000
00010000
00001000
00010000
00000000
00000000
00000000
,
00001000
00000000
00010000
01000000
10000000
00010000
00010000
00000000
,
10000000
00100000
10000000
00000000
00010000
00000000
01000000
00000000
00001000
00000000
00010000
00000000
00011000
00000000
00000000
00000000
,
00010000
00001000
00010000
00000000
00000100
00000000
00001000
00000000
00000010
00000000
00000100
00000000
00000101
00000000
00000000
00000000
,
00000001
00000100
00000000
00000100
00000010
00000000
00000000
00000000
00010000
00001000
00000000
00001000
00100000
00000000
00000000
00000000
,
00100000
00010000
00100000
00000000
01000000
00000000
10000000
00000000
00100000
00000000
10000000
00000000
01000000
00000000
00010000
00000000
,
00011000
00000000
00000000
00001000
00000000
00000000
00010000
00000000
00000100
00000000
00000010
00000000
00000001
00000000
00000000
00000000
,
00000010
00000000
00000001
00000000
00000100
00000000
00000001
00000000
00000010
00000100
00010000
00000000
00001000
00000000
01000000
00000000
,
01010000
10000000
11000000
00010000
00110000
10000000
10100000
00010000
,
00000000
00000000
10000000
00000000
01000000
00000000
00000000
00000000
00010000
00000000
00001000
00000000
00010000
00001000
00010000
00000000
,
00011000
00000000
00001000
00000000
00010000
00000100
00001000
00000000
00000100
00000000
00001000
00000100
00000000
00001000
00000100
00000000
,
00000000
00000000
00000010
00000000
00000001
00000100
00000010
00000000
00001000
00000000
00000100
00001000
00000000
00000100
00001000
00000000
,
00000000
00000000
00000100
00000000
00010000
00001000
01000000
00000000
00010000
00000000
01000000
00010000
00000000
01000000
00010000
00000000
,
00000000
00000000
10000000
00000000
01000000
00100000
00010000
00000000
10000000
00000000
00010000
01000000
00000000
00010000
01000000
00000000
,
00010000
10000000
01000000
10000000
00010000
00000000
01000000
00000000
00001000
00000000
00010000
00000000
00000100
00000000
00001000
00000000
,
00000001
00000010
00000001
00000100
00001000
00000100
00000010
00000000
,
00010000
00001000
00010000
00001000
01000000
00100000
01000000
00100000
,
10000000
01000000
10000000
01000000
00010000
00001000
00010000
00000000
,
00010000
00001000
00010000
00000100
00010000
00000000
00001000
00000000
00010000
00000000
00000100
00000000
00001000
00000000
00000010
00000000
,
00000100
00000001
00000010
00000001
00000100
00000010
00001000
00000001
,
00000010
00000100
00000010
00001000
00010000
00001000
01000000
00000000
,
00100000
00000000
10000000
00000000
00100000
00000000
10000000
00000000
01000000
00000000
00010000
00000000
01000000
00100000
01000000
00000000
,
10000000
01000000
10000000
00010000
10000000
00000000
01000000
00100000
01000000
00000000
10000000
00000000
00100000
00000000
01000000
00000000
,
00001000
00010000
00000100
00000010
00000001
00001000
00000001
00000000
,
00000010
00000001
00000010
00000001
00000100
00000010
00000100
00000010
,
00001000
00000100
00001000
00000100
00010000
00001000
00010000
00000000
,
00010000
00001000
01000000
00001000
00010000
00000000
00001000
00010000
00001000
00000000
01000000
00000000
00010000
00000000
00100000
00000000
,
01000000
10000000
00100000
10000000
01000000
00100000
00001000
00010000
,
00000010
00001000
00000100
00000001
00000100
00000010
00000001
00000000
,
00000010
00000000
00000100
00000000
00000010
00000000
00000100
00000000
00001000
00000000
00000001
00000000
00000100
00000001
00000100
00000000
,
00000001
00001000
00000100
00001000
00000001
00001000
00000010
00001000
00000001
00000000
00000100
00000010
00000000
00000010
00010000
00000000
,
00001000
00000000
01000000
00010000
10000000
00000000
01000000
10000000
00010000
00000000
00010000
00100000
00000000
00000000
00000000
00000000
;

//---------------dance-single - ----------------
#NOTES:
     dance-single:
     :
     Medium:
     5:
     0.294,0.292,0.108,0.022,0.005:
0000
0000
0000
0000
,
1001
0010
0100
1000
,
0010
1000
0100
0010
,
0001
0010
0100
1000
,
0010
1000
1001
1001
,
1001
0000
0001
0000
0100
0001
0100
0000
,
1000
0000
0100
0000
0010
1000
0010
0000
,
1000
0000
0100
0100
0010
0000
0001
0001
,
1000
0010
0100
0001
,
1000
0100
1000
0100
1000
0000
1000
0000
,
0001
0100
0001
0100
0001
0000
0001
0000
,
1000
1100
0001
0101
,
1000
0001
1001
1001
,
0110
0000
0001
1000
,
0100
1000
0001
0100
,
0001
1000
0001
0000
1000
0001
1000
0000
,
0000
0010
0100
0000
0001
1000
0100
1000
,
0001
0100
1000
0100
,
0001
0100
1000
0100
,
0001
0100
1000
0100
,
0001
0000
0001
0000
2000
3000
2000
3000
,
1001
0000
0001
1000
0100
1000
0010
0000
,
1000
0000
0100
0000
0001
0100
1000
0000
,
1000
0010
0001
0100
,
1000
0100
0001
0010
,
1000
0000
0001
1000
0010
1000
0100
0000
,
0001
0000
0100
0000
1000
0010
0001
0000
,
0010
1000
0100
0001
,
0010
0001
0100
1000
,
0001
0000
1000
0001
1000
0100
0010
0000
,
0001
0000
0100
0000
1000
0100
0001
0000
,
0010
0001
0100
1000
,
0010
1000
0100
0001
,
1000
0000
0001
0010
1000
0010
0100
0000
,
1000
0000
0010
0000
0001
0010
1000
0000
,
0100
0001
0010
0001
,
0100
1000
0010
0100
,
0001
0100
1000
0100
0001
0100
1000
0100
,
0001
0000
0000
0000
1000
0000
0000
0000
0001
0000
0000
0001
0000
0000
0000
0000
;

//---------------dance-single - ----------------
#NOTES:
     dance-single:
     :
     Easy:
     3:
     0.200,0.188,0.032,0.000,0.000:
0000
0000
0000
0000
,
1000
0100
0001
0000
,
0000
0000
0000
0000
,
0100
1000
0001
0000
,
0100
0000
0010
0010
,
1000
0000
0001
0000
,
0010
0000
0001
0000
,
0100
0100
1000
1000
,
0100
0010
1000
0000
,
0001
0001
0010
0010
,
0100
0100
1000
1000
,
0001
0000
1000
0000
,
0010
0000
0100
0100
,
1001
0000
0001
1000
,
0001
0000
1000
0001
,
1000
0010
0100
0001
,
0000
1000
1000
0000
0100
0000
0001
0000
,
0000
0100
0010
0100
,
0000
1000
0001
1000
,
0000
0010
0100
0010
,
0000
1000
0001
0001
,
1001
1000
0010
0100
,
0001
0010
1000
0010
,
0001
0001
0100
0100
,
1000
1000
0100
0100
,
0001
0010
0100
1000
,
0010
0001
0010
1000
,
0001
0010
0100
0000
,
1000
0010
0100
0000
,
0101
0001
0010
1000
,
0001
1000
0010
0001
,
1000
1000
0010
0010
,
0001
0001
0010
0010
,
1000
0100
0001
1000
,
0001
0100
1000
0010
,
0100
0001
1000
0000
,
0001
0010
0100
0000
,
1000
0100
0001
0100
,
1000
0010
0100
0001
;

//---------------dance-double - ----------------
#NOTES:
     dance-double:
     :
     Medium:
     6:
     0.304,0.292,0.173,0.000,0.005:
00000000
00000000
00000000
00000000
,
00011000
00100000
01000000
10000000
,
00100000
00010000
00001000
00000100
,
00000001
00000010
00000100
00001000
,
00010000
00000000
00000000
01000000
10000000
00000000
01100000
00000000
,
00010000
00000000
00100000
00000000
01000000
10000000
01000000
00000000
,
00100000
00000000
00010000
00000000
01000000
00010000
01000000
00000000
,
00001000
00000000
00010000
00010000
00001000
00000000
00000100
00000000
,
00000010
00001000
00000100
00000001
,
00000100
00010000
01000000
11000000
,
10000000
00100000
00001000
00001010
,
00000010
00000101
00000010
00001100
,
00010000
00011000
01010000
11000000
,
10010000
00000000
00010000
10000000
01000000
00000000
00010000
00000000
,
00001000
00000010
00010000
00100000
,
01000000
10000000
00100000
00010000
,
00000000
00001000
00010000
00000000
00000100
00000000
00001000
00000000
,
00001100
00000100
00000001
00000100
,
00010000
01000000
10000000
01000000
,
00001000
00000010
00000001
00000010
,
00010000
00100000
10000000
10000000
,
10010000
00000000
00010000
10000000
01000000
00000000
00010000
00000000
,
00001000
00000000
00000010
00000000
00000001
00000100
00000010
00000000
,
00001000
00000000
00000100
00010000
00001000
00000000
01000000
00010000
,
10000000
00000000
01000000
10000000
00010000
00000000
10010000
00000000
,
10100000
00000000
00100000
10000000
00010000
00000000
00010000
00100000
,
00001000
00000000
00001000
00010000
00000100
00000000
00000010
00000000
,
00000001
00000100
00001000
00010000
,
00100000
10000000
01000000
00010000
,
00011000
00000000
00001000
00010000
00000010
00010000
00000100
00000000
,
00001000
00000000
00000010
00000000
00000100
00000001
00001000
00000000
,
00000001
00000000
00000010
00000100
00010000
00000000
00001000
01000000
,
00100000
00000000
10000000
00010000
01000000
00000000
01100000
00000000
,
00100000
10000000
01000000
10000000
00010000
00000000
10000000
00000000
,
01000000
00000000
00010000
00000000
00001000
00000100
00000001
00000000
,
00000010
00000000
00000100
00001000
00000001
00000000
00000100
00000000
,
00000010
00000000
00010000
00001000
00010000
00000000
00001000
00000000
,
00010000
01000000
10000000
01000000
00010000
00001000
00010000
00000000
,
00001000
00000000
00000100
00000000
00000001
00000000
00000100
00000000
00001000
00000000
00010000
00001000
00000000
00000000
00000000
00000000
;

//---------------dance-double - ----------------
#NOTES:
     dance-double:
     :
     Easy:
     4:
     0.203,0.188,0.043,0.000,0.005:
00000000
00000000
00000000
00000000
,
00001000
00010000
01000000
00000000
,
00010000
00000000
00001000
00000000
,
00010000
00001000
00000100
00000000
,
00000001
00000000
00000000
00001000
00000100
00000000
00000100
00000000
,
00000100
00010000
01000000
00000000
,
10000000
00000000
00010000
00000000
,
01000000
00010000
00000100
00000000
,
00000001
00000000
00000000
00000010
00000000
00000000
00000001
00000000
,
00001000
00010000
01000000
00000000
,
10000000
01000000
00010000
00000000
,
10000000
01000000
00010000
00000000
,
00001000
00000000
00000000
00000100
00000001
00000000
00000001
00000000
,
00001001
00001000
00000100
00000000
,
00010000
00001000
01000000
00010000
,
10000000
01000000
00010000
00000000
,
00001000
00000000
00000000
00000100
00000000
00000000
00000000
00000000
,
00001001
00000001
00000010
00000100
,
00000000
00010000
00001000
01000000
,
00000000
00100000
10000000
00010000
,
00000000
10000000
01000000
01000000
,
01100000
00010000
10000000
00100000
,
00010000
00001000
00000100
00000001
,
00000010
00000010
00000100
00000100
,
00010000
00010000
00001000
00000000
,
00010000
01000000
10000000
00100000
,
00010000
00001000
00000100
00000001
,
00000010
00001000
00010000
00000000
,
01000000
10000000
00010000
00000000
,
10010000
00010000
01000000
10000000
,
01000000
00001000
00000100
00000001
,
00000010
00000100
00010000
00001000
,
00100000
01000000
10000000
00000000
,
10000000
00100000
00010000
00001000
,
00000010
00000001
00000100
00001000
,
00010000
01000000
00010000
00000000
,
00010000
00000100
00001000
00000001
,
00000100
00001000
00010000
01000000
,
00010000
00000000
00000000
00000000
00001000
00000000
00000000
00000000
00000100
00000000
00000000
00001000
00000000
00000000
00000000
00000000
;
