#TITLE:M.S.S.Planet;
#SUBTITLE:;
#ARTIST:M.S.S Project feat. 初音ミク & GUMI;
#TITLETRANSLIT:;
#SUBTITLETRANSLIT:;
#ARTISTTRANSLIT:M.S.S Project feat. Hatsune Miku & GUMI;
#GENRE:Chiptune Rock;
#CREDIT:;
#BANNER:[Tech Savvy] - M.S.S.Planet.png;
#BACKGROUND:[Tech Savvy] - M.S.S.Planet-bg.png;
#LYRICSPATH:;
#CDTITLE:;
#MUSIC:[Tech Savvy] - M.S.S.Planet.ogg;
#OFFSET:-0.219218;
#SAMPLESTART:87.728668;
#SAMPLELENGTH:15.000000;
#SELECTABLE:YES;
#BPMS:0.000000=145.000000
;
#STOPS:
;
#BGCHANGES:-0.500=[Tech Savvy] - M.S.S.Planet.avi=1.000=0=0=0=StretchNoLoop==CrossFade_Fastest==,
99999=-nosongbg-=1.000=0=0=0 // don't automatically add -songbackground-
;
#KEYSOUNDS:;
#ATTACKS:;

//---------------dance-single - ----------------
#NOTES:
     dance-single:
     :
     Hard:
     7:
     0.484603,0.528419,0.195856,0.321203,0.215441,433.000000,408.000000,25.000000,41.000000,0.000000,0.000000,0.484603,0.528419,0.195856,0.321203,0.215441,433.000000,408.000000,25.000000,41.000000,0.000000,0.000000:
// measure 0
0000
0000
0000
0000
,  // measure 1
0000
0000
0000
0000
,  // measure 2
0000
0000
0000
0000
,  // measure 3
0000
0000
0000
0000
,  // measure 4
0000
0000
0000
0000
,  // measure 5
0010
0000
0000
1000
0000
0000
0100
0000
0010
0000
0000
0001
0000
0000
0100
0000
,  // measure 6
0010
0000
0000
0100
0000
0000
0001
0000
0010
0000
0000
0100
0000
0000
1000
0000
,  // measure 7
0010
0000
0000
1000
0000
0000
0001
0000
0010
0000
0000
0001
0000
0000
1000
0000
,  // measure 8
0010
0000
0000
0100
0000
0000
0001
0000
0010
0000
1000
0000
0100
0000
0001
0000
,  // measure 9
0010
0000
0000
0100
0000
0000
1000
0000
0010
0000
0000
0100
0001
0000
1000
0000
,  // measure 10
0010
0000
0000
0100
0000
0000
0001
0000
0010
0000
0000
0100
1000
0000
0001
0000
,  // measure 11
0010
0000
0000
0001
0000
0000
0100
0000
0010
0000
0000
1000
0001
0000
0100
0000
,  // measure 12
0010
0000
0000
1000
0000
0000
0001
0000
0100
0000
0010
0000
1000
0000
0100
0000
,  // measure 13
0020
0032
0203
0320
,  // measure 14
1030
0000
0000
0100
0000
0000
0001
0000
0100
0000
1000
0000
0001
0000
0100
0000
,  // measure 15
0020
2030
3200
0320
,  // measure 16
0031
0000
0000
0100
0000
0000
0010
0000
1000
0000
0100
0000
0010
0000
0001
0000
,  // measure 17
2000
3020
0230
0302
,  // measure 18
1003
0000
0000
0100
0000
0000
0010
0000
0001
0000
0100
0000
1000
0000
0100
0000
,  // measure 19
0002
0023
0230
2300
,  // measure 20
3001
0000
0000
0100
0000
0000
0010
0000
1000
0000
0001
0000
1000
0000
0100
0000
,  // measure 21
1000
0000
0010
0000
0000
1000
0000
0000
0100
0000
0000
0010
0000
0000
0001
0000
,  // measure 22
1000
0000
0001
0000
0000
0010
0000
0000
0100
0000
1000
0000
0010
0000
0100
0000
,  // measure 23
0001
0000
0010
0000
0000
0001
0000
0000
0100
0000
0000
0010
0000
0000
1000
0000
,  // measure 24
0001
0000
1000
0000
0000
0010
0000
0000
0100
0000
0001
0000
0010
0000
0100
0000
,  // measure 25
1000
0000
0001
0000
0000
0100
0000
0000
0010
0000
0000
1000
0000
0000
0001
0000
,  // measure 26
0010
0000
0100
0000
0000
1000
0000
0000
0001
0000
0100
0000
0010
0000
1000
0000
,  // measure 27
0002
0023
0230
2300
,  // measure 28
3001
0000
0000
0100
0000
0000
0010
0000
1000
0000
0100
0000
0010
0000
0001
0000
,  // measure 29
1000
0000
0010
0000
0100
0000
0000
0001
0000
0000
1000
0000
0100
0000
0010
0000
,  // measure 30
0001
0000
0010
0000
0100
0000
0000
1000
0000
0000
0001
0000
0100
0000
0010
0000
,  // measure 31
1000
0000
0010
0000
0100
0000
0000
0001
0000
0000
1000
0000
0001
0000
0000
0000
,  // measure 32
1000
0000
0100
0000
0010
0000
0000
0001
0000
0000
1000
0000
0001
0000
0000
0000
,  // measure 33
1000
0000
0010
0000
0100
0000
0000
0001
0000
0000
0010
0000
0100
0000
1000
0000
,  // measure 34
0001
0000
0010
0000
0100
0000
0000
1000
0000
0000
0010
0000
0100
0000
0001
0000
,  // measure 35
1000
0000
0100
0000
0001
0000
0000
0100
0000
0000
1000
0000
0010
0000
0000
0000
,  // measure 36
0100
0000
0001
0000
0010
0000
0000
0001
0000
0000
0100
0000
0010
0000
1000
0000
,  // measure 37
0001
0000
0010
0000
0100
0000
0000
1000
0000
0001
1000
0000
0100
0000
0010
0000
,  // measure 38
0001
0000
0100
0000
0010
0000
0000
1000
0000
0001
1000
0000
0010
0000
0100
0000
,  // measure 39
0001
0000
0010
0000
0100
0000
0000
1000
0000
0000
0001
0000
1000
0000
0000
0000
,  // measure 40
0001
0000
0100
0000
0010
0000
0000
1000
0000
0000
0001
0000
0010
0000
0001
0000
,  // measure 41
1000
0000
0010
0000
0100
0000
0000
0001
0000
1000
0001
0000
0100
0000
0010
0000
,  // measure 42
1000
0000
0100
0000
0010
0000
0000
0001
0000
1000
0001
0000
0010
0000
0100
0000
,  // measure 43
1000
0000
0010
0000
0100
0000
0000
0001
0000
0000
1000
0000
0001
0000
0000
0000
,  // measure 44
2000
0000
3020
0000
0230
0000
0301
1000
,  // measure 45
0002
0000
0203
0000
0310
1000
0001
0000
,  // measure 46
0010
0100
1000
0010
0200
0000
0302
0000
,  // measure 47
2003
0000
3200
0000
0310
0001
1000
0000
,  // measure 48
0010
0100
0001
0010
0200
0000
1300
0000
,  // measure 49
1002
0000
0023
0000
0130
1000
0001
0000
,  // measure 50
0100
0001
1000
0100
0020
0000
0032
0000
,  // measure 51
2003
0000
3020
0000
0130
0001
1000
0000
,  // measure 52
0100
1000
0001
0100
0020
0000
1030
0001
,  // measure 53
1001
0000
0000
1000
0100
0000
1000
0000
0010
0000
0001
0000
0010
0000
1000
0000
,  // measure 54
0100
0010
0001
0100
0010
0000
1010
0000
,  // measure 55
1001
0000
0000
0001
0100
0000
0001
0000
0010
0000
1000
0000
0010
0000
0001
0000
,  // measure 56
0100
0010
1000
0100
0010
0000
0011
0000
,  // measure 57
1001
0000
0000
1000
0010
0000
1000
0000
0001
0000
0010
0000
1000
0000
0010
0000
,  // measure 58
0001
1000
0010
0100
0001
0000
1001
0000
,  // measure 59
1100
0000
0000
0100
0010
0000
0100
0000
1000
0000
0010
0000
0001
0000
0100
0000
,  // measure 60
1000
0010
0100
0001
2000
0000
3001
0000
,  // measure 61
1001
0000
0000
0001
0010
0000
0001
0000
0100
0000
0010
0000
1000
0000
0001
0000
,  // measure 62
0011
0110
1100
1010
,  // measure 63
1001
0000
0000
1000
0010
0000
1000
0000
0100
0000
0001
0000
0100
0000
1000
0000
,  // measure 64
1010
0011
1010
1100
,  // measure 65
1001
0000
0000
0001
0100
0000
0010
0000
1000
0000
0001
0000
0010
0000
0100
0000
,  // measure 66
1100
0011
0101
1010
,  // measure 67
1001
0000
0000
1000
0100
0000
0010
0000
0001
0000
0100
0000
0010
0000
1000
0000
,  // measure 68
0001
0010
0100
1000
2002
0000
0000
0000
,  // measure 69
3000
0100
0200
0000
,  // measure 70
0000
0000
0000
0000
,  // measure 71
0303
0000
0000
0000
;

//---------------dance-single - ----------------
#NOTES:
     dance-single:
     :
     Challenge:
     9:
     0.603236,0.611853,0.148850,0.156685,0.489639,539.000000,520.000000,19.000000,20.000000,0.000000,0.000000,0.603236,0.611853,0.148850,0.156685,0.489639,539.000000,520.000000,19.000000,20.000000,0.000000,0.000000:
// measure 0
0000
0000
0000
0000
,  // measure 1
0000
0000
0000
0000
,  // measure 2
0000
0000
0000
0000
,  // measure 3
0000
0000
0000
0000
,  // measure 4
0000
0000
0000
0000
,  // measure 5
1000
0000
0000
0010
0100
0000
0001
0000
1000
0000
0000
0100
0010
0000
0001
0000
,  // measure 6
1000
0000
0000
0001
0010
0000
0100
0000
1000
0000
0000
0001
0100
0000
0010
0000
,  // measure 7
1000
0000
0000
0100
0010
0000
0001
0000
1000
0000
0000
0010
0100
0000
0001
0000
,  // measure 8
1000
0000
0000
0100
0010
0000
0001
0000
0100
0000
1000
0000
0010
0000
0001
0000
,  // measure 9
0100
0000
0000
0010
1000
0000
0100
0000
0010
0000
0001
0100
0000
0100
0010
0000
,  // measure 10
1000
0000
0000
0001
0010
0000
0100
0000
1000
0000
0010
0100
0000
0100
0001
0000
,  // measure 11
0100
0000
0000
0010
1000
0000
0100
0000
0010
0000
0001
0100
0000
0100
0010
0000
,  // measure 12
1000
0000
0000
0001
0010
0000
0100
0000
1000
0000
0001
0000
0100
0000
0010
0000
,  // measure 13
1000
0000
0000
1000
0100
0000
0000
0100
0001
0000
0000
0001
0010
0000
0000
0010
,  // measure 14
1000
0000
0000
0100
0000
0000
0010
0000
0001
0000
1000
0000
0010
0000
0100
0000
,  // measure 15
0001
0000
0000
0001
0100
0000
0000
0100
1000
0000
0000
1000
0010
0000
0000
0010
,  // measure 16
0001
0000
0000
0100
0000
0000
0001
0000
0010
0000
1000
0000
0010
0000
0001
0000
,  // measure 17
1000
0000
0000
1000
0100
0000
0000
0100
0010
0000
0000
0010
0001
0000
0000
0001
,  // measure 18
1000
0000
0000
0100
0000
0000
0010
0000
0001
0000
1000
0000
0010
0000
0100
0000
,  // measure 19
0001
0000
0000
0001
0100
0000
0000
0100
0010
0000
0000
0010
1000
0000
0000
1000
,  // measure 20
0001
0000
0000
0100
0000
0000
0010
0000
1000
0000
0100
0000
0001
0000
0100
0000
,  // measure 21
1000
0000
0001
0000
0100
0001
0000
0000
1000
0000
0100
1000
0000
0000
0001
0000
,  // measure 22
1000
0000
0010
1000
0000
0010
0100
0000
0001
0000
1000
0000
0100
0000
0010
0000
,  // measure 23
0001
0000
1000
0000
0100
1000
0000
0000
0001
0000
0100
0001
0000
0000
1000
0000
,  // measure 24
0001
0000
0010
0001
0000
0010
0100
0000
1000
0000
0001
0000
0100
0000
0010
0000
,  // measure 25
1000
0000
0010
0000
0100
0001
0000
0000
0010
0000
0100
1000
0000
0000
0010
0000
,  // measure 26
0100
0000
0001
0100
0000
0010
0100
0000
0001
0000
0010
0000
0100
0000
1000
0000
,  // measure 27
0001
0100
1000
0001
1000
0100
0001
1000
,  // measure 28
0001
0010
0000
0001
0010
0000
0001
0100
0000
0001
0000
0100
0010
0100
0010
0000
,  // measure 29
1000
0000
0100
0000
0001
0100
0000
1000
0000
0000
0010
0000
0100
0000
0001
0000
,  // measure 30
1000
0000
0100
0000
0001
0100
0000
0010
0000
0000
0001
0000
1000
0000
0010
0000
,  // measure 31
0100
0000
0001
0000
1000
0100
0000
2000
0000
0000
0010
0000
3020
0000
0000
0000
,  // measure 32
0130
0000
0001
0000
1000
0010
0000
2000
0000
0000
0100
0000
3100
0000
0010
0000
,  // measure 33
0001
0000
0100
0000
1000
0100
0000
0001
0000
0000
0010
0000
0100
0000
1000
0000
,  // measure 34
0001
0000
0100
0000
1000
0100
0000
0010
0000
0000
1000
0000
0001
0000
0010
0000
,  // measure 35
0100
0000
1000
0000
0001
0100
0000
0002
0000
0000
0010
0000
0023
0000
0000
0000
,  // measure 36
0130
0000
1000
0000
0001
0010
0000
0002
0000
0000
0103
0000
0010
0000
1000
0000
,  // measure 37
0001
0000
0100
0000
0010
1000
0000
1000
0001
0000
0100
0000
1000
0000
0100
0000
,  // measure 38
0001
0000
0010
0000
0100
1000
0000
1000
0010
0000
0100
0000
0001
0000
0010
0000
,  // measure 39
0100
0000
1000
0000
0010
0100
0000
0020
0000
0000
1000
0000
1030
0000
0100
0000
,  // measure 40
0010
0000
0001
0000
0100
0010
0000
0200
0000
0000
0001
0000
0301
0000
0010
0000
,  // measure 41
0100
0000
1000
0000
0001
0010
0000
0010
0100
0000
1000
0000
0010
0000
0001
0000
,  // measure 42
0010
0000
1000
0000
0001
0100
0000
0100
0010
0000
1000
0000
0100
0000
0001
0000
,  // measure 43
0100
0000
1000
0000
0010
0100
0000
0020
0000
0000
1000
0000
1030
0000
0100
0000
,  // measure 44
0010
0000
0000
0010
0001
0000
0000
0001
1000
0000
0000
1000
0010
0000
0100
0000
,  // measure 45
0101
0000
0000
0001
0020
0000
0000
0000
0130
0000
1000
0000
0010
0000
0001
0000
,  // measure 46
0010
1000
0100
0010
0002
0000
1003
0000
,  // measure 47
1100
0000
0000
1000
0020
0000
0000
0000
0130
0000
0001
0000
0010
0000
1000
0000
,  // measure 48
0010
0001
0100
0010
2000
0000
3001
0000
,  // measure 49
0110
0000
0000
0100
2000
0000
0000
0000
3010
1000
0010
0000
0100
0000
0001
0000
,  // measure 50
0010
0000
1000
0000
0100
0000
0001
0000
0020
0000
0000
0130
0010
0000
0000
0000
,  // measure 51
1001
0000
0000
1000
0020
0000
0000
0000
0130
0010
0100
0000
0001
0000
1000
0000
,  // measure 52
0100
0001
0100
1000
0020
0000
0130
0001
,  // measure 53
1001
0000
0000
1000
0010
0000
0100
0000
0001
0010
0001
0000
0100
0000
0010
0000
,  // measure 54
1000
0001
0010
0100
1100
0000
1010
0000
,  // measure 55
1001
0000
0000
0001
0010
0000
0100
0000
1000
0010
1000
0000
0100
0000
0010
0000
,  // measure 56
0001
1000
0010
0001
0010
1000
1100
0000
,  // measure 57
1001
0000
0000
0001
0100
0000
0010
0000
1000
0001
1000
0000
0100
0000
0010
0000
,  // measure 58
0001
0100
0100
1000
0010
0010
0001
1000
,  // measure 59
1010
0000
0000
0010
0100
0000
0001
0000
1000
0010
1000
0000
0001
0000
0010
0000
,  // measure 60
0001
0000
0100
0000
1000
0000
0010
0000
0001
0000
1000
0010
1000
0000
0001
0000
,  // measure 61
1001
0000
0000
1000
0010
0000
0100
0000
0001
0010
0001
0010
0001
0000
0100
0000
,  // measure 62
0110
0000
0000
0010
1000
0000
0000
1000
0100
0000
0000
0100
0010
0000
0001
0000
,  // measure 63
0101
0000
0000
0100
0010
0000
1000
0000
0100
0010
0100
0010
0100
0000
1000
0000
,  // measure 64
1010
0000
0000
0010
0001
0000
0000
0001
0100
0000
0000
0100
1000
0000
0010
0000
,  // measure 65
0110
0000
0000
0100
0001
0000
1000
0000
0001
0010
0001
0010
0001
0000
0100
0000
,  // measure 66
0110
0000
0000
0010
1000
0000
0000
1000
0001
0000
0000
0001
0010
0000
0100
0000
,  // measure 67
1100
0000
0000
1000
0001
0000
0100
0000
0010
1000
0010
1000
0010
0000
0100
0000
,  // measure 68
0001
0010
0100
1000
2002
0000
0000
0000
,  // measure 69
3000
0100
0200
0000
,  // measure 70
0000
0000
0000
0000
,  // measure 71
0303
0000
0000
0000
;

//---------------dance-single - ----------------
#NOTES:
     dance-single:
     :
     Medium:
     5:
     0.353659,0.444984,0.172353,0.383877,0.031337,316.000000,294.000000,22.000000,49.000000,0.000000,0.000000,0.353659,0.444984,0.172353,0.383877,0.031337,316.000000,294.000000,22.000000,49.000000,0.000000,0.000000:
// measure 0
0000
0000
0000
0000
,  // measure 1
0000
0000
0000
0000
,  // measure 2
0000
0000
0000
0000
,  // measure 3
0000
0000
0000
0000
,  // measure 4
0000
0000
0000
0000
,  // measure 5
0010
1000
0010
1000
,  // measure 6
0010
0100
0010
0100
,  // measure 7
0010
0001
0010
0001
,  // measure 8
0010
0000
0100
0000
0010
0100
0001
0000
,  // measure 9
0010
0001
0010
0001
,  // measure 10
0010
0100
0010
0100
,  // measure 11
0010
1000
0010
1000
,  // measure 12
0010
0000
0100
0000
0010
0001
0100
0000
,  // measure 13
0002
0023
0230
2300
,  // measure 14
3001
0100
0010
1000
,  // measure 15
0002
0203
0320
2030
,  // measure 16
3001
0010
0100
1000
,  // measure 17
0002
0203
2300
3020
,  // measure 18
0031
0100
0010
1000
,  // measure 19
0200
0320
0032
2003
,  // measure 20
3010
0000
0100
0000
0001
1000
0001
0000
,  // measure 21
2000
3020
0230
0302
,  // measure 22
1003
0100
0010
0001
,  // measure 23
2000
3200
0320
0032
,  // measure 24
1003
0010
0100
0001
,  // measure 25
2000
3200
0302
0023
,  // measure 26
1030
0100
0010
0001
,  // measure 27
1000
1000
0001
0001
,  // measure 28
0010
0000
0100
0000
1000
0001
1000
0000
,  // measure 29
0001
0000
0000
0000
0010
0000
0000
0100
0000
0000
0010
0000
0100
0000
0000
0000
,  // measure 30
1000
0000
0000
0000
0010
0000
0000
0100
0000
0000
0010
0000
0100
0000
0000
0000
,  // measure 31
0001
0100
0010
1000
,  // measure 32
0001
0000
0100
0000
0010
1000
0010
0000
,  // measure 33
1000
0000
0000
0000
0010
0000
0000
0100
0000
0000
0010
0000
0100
0000
0000
0000
,  // measure 34
0001
0000
0000
0000
0010
0000
0000
0100
0000
0000
0010
0000
0100
0000
0000
0000
,  // measure 35
1000
0100
0010
0001
,  // measure 36
1000
0000
0010
0000
0100
0001
0100
0000
,  // measure 37
0001
0000
0100
0000
0001
0000
0000
0100
0000
0000
0010
0000
0100
0000
0000
0000
,  // measure 38
0001
0000
0010
0000
0001
0000
0000
0010
0000
0000
0100
0000
0010
0000
0000
0000
,  // measure 39
0001
0100
1000
0100
,  // measure 40
0001
0000
0010
0000
0100
1000
0100
0000
,  // measure 41
1000
0000
0100
0000
1000
0000
0000
0100
0000
0000
0010
0000
0100
0000
0000
0000
,  // measure 42
1000
0000
0010
0000
1000
0000
0000
0010
0000
0000
0100
0000
0010
0000
0000
0000
,  // measure 43
1000
0100
0001
0100
,  // measure 44
2000
3010
0200
0301
,  // measure 45
2000
3200
0310
0001
,  // measure 46
1000
0010
1000
0000
0200
0000
0320
0000
,  // measure 47
0032
0203
0310
1000
,  // measure 48
0001
0010
0001
0000
0200
0000
0320
0000
,  // measure 49
1030
1001
0001
1000
,  // measure 50
0010
0100
0010
0000
2000
0000
3002
0000
,  // measure 51
0103
0110
0010
1000
,  // measure 52
0001
0100
0001
0000
0200
0000
0320
0000
,  // measure 53
1030
0000
1001
0000
0001
0100
0001
0000
,  // measure 54
0100
0010
0100
0000
0020
0000
2030
0000
,  // measure 55
3001
0000
1001
0000
1000
0100
1000
0000
,  // measure 56
0100
0010
0100
0010
0200
0000
2300
0000
,  // measure 57
3001
0000
0101
0000
0100
0010
0100
0000
,  // measure 58
0010
0000
1000
0001
1000
0000
0100
0000
,  // measure 59
1000
0000
1100
0000
0100
0010
0100
0000
,  // measure 60
0010
0001
0010
0001
0020
0000
0130
0000
,  // measure 61
1000
0000
1001
0000
0001
0100
0001
0000
,  // measure 62
0101
0101
1010
1010
,  // measure 63
1000
0000
1001
0000
0001
0010
0001
0000
,  // measure 64
0101
0101
1001
1001
,  // measure 65
1000
0100
1000
0000
0100
0010
0100
0000
,  // measure 66
0110
0110
1001
1001
,  // measure 67
0001
0000
0101
0000
0100
0010
0100
0000
,  // measure 68
0010
1000
0010
0000
2002
0000
0000
0000
,  // measure 69
0000
0000
0000
0000
,  // measure 70
0000
0000
0000
0000
,  // measure 71
3003
0000
0000
0000
;

//---------------dance-single - ----------------
#NOTES:
     dance-single:
     :
     Easy:
     3:
     0.200332,0.278115,0.086177,0.258530,0.000000,179.000000,168.000000,11.000000,33.000000,0.000000,0.000000,0.200332,0.278115,0.086177,0.258530,0.000000,179.000000,168.000000,11.000000,33.000000,0.000000,0.000000:
// measure 0
0000
0000
0000
0000
,  // measure 1
0000
0000
0000
0000
,  // measure 2
0000
0000
0000
0000
,  // measure 3
0000
0000
0000
0000
,  // measure 4
0000
0000
0000
0000
,  // measure 5
0010
0000
0010
1000
,  // measure 6
0010
0000
0010
0100
,  // measure 7
0010
0000
0010
1000
,  // measure 8
0010
0000
1000
0100
,  // measure 9
0010
0000
0010
0001
,  // measure 10
0010
0000
0010
0100
,  // measure 11
0010
0000
0010
0001
,  // measure 12
0010
0000
0001
0100
,  // measure 13
0002
0000
0003
0000
,  // measure 14
1000
1000
0001
0000
,  // measure 15
2000
0000
3000
0000
,  // measure 16
0001
0001
0100
0000
,  // measure 17
0020
0000
0030
0000
,  // measure 18
0100
0100
0010
0000
,  // measure 19
0200
0000
0300
0000
,  // measure 20
0010
0010
1000
1000
,  // measure 21
0002
0000
0003
0000
,  // measure 22
1000
0001
1000
0000
,  // measure 23
2000
0000
3000
0000
,  // measure 24
0001
0010
0001
0000
,  // measure 25
0020
0000
0030
0000
,  // measure 26
0100
0010
0100
0000
,  // measure 27
0010
0000
0001
0000
,  // measure 28
1000
1000
0001
0001
,  // measure 29
1000
0010
1000
0000
,  // measure 30
0001
0010
0001
0000
,  // measure 31
2002
0000
3003
0000
,  // measure 32
0220
0000
0330
0000
,  // measure 33
0001
0010
0001
0000
,  // measure 34
1000
0010
1000
0000
,  // measure 35
2002
0000
3003
0000
,  // measure 36
0100
0010
0100
0000
,  // measure 37
1000
0010
0001
0000
,  // measure 38
0001
0010
1000
0000
,  // measure 39
0220
0000
0330
0000
,  // measure 40
2002
0000
3003
0000
,  // measure 41
0001
0010
1000
0000
,  // measure 42
1000
0010
0001
0000
,  // measure 43
0220
0000
0330
0000
,  // measure 44
2000
3000
0002
0003
,  // measure 45
1000
0010
1000
0000
,  // measure 46
0001
0000
0010
0000
,  // measure 47
0001
0001
1000
0000
,  // measure 48
0010
0000
0100
0000
,  // measure 49
0001
0010
1000
0000
,  // measure 50
0010
0000
0001
0000
,  // measure 51
1000
0010
0001
0000
,  // measure 52
0010
0000
1000
0000
,  // measure 53
0001
0001
1000
1000
,  // measure 54
0001
1000
0002
0003
,  // measure 55
1000
0010
0001
0000
,  // measure 56
0001
0010
0100
0000
,  // measure 57
0010
0010
0100
0100
,  // measure 58
0010
0100
0020
0030
,  // measure 59
0100
0001
0010
0000
,  // measure 60
0010
0001
2002
3003
,  // measure 61
1000
1000
0001
0001
,  // measure 62
1000
0001
2002
3003
,  // measure 63
0010
0010
0100
0100
,  // measure 64
0010
0100
0220
0330
,  // measure 65
0001
0001
1000
1000
,  // measure 66
0001
1000
2002
3003
,  // measure 67
0100
0100
0010
0010
,  // measure 68
0100
0010
2002
0000
,  // measure 69
0000
0000
0000
0000
,  // measure 70
0000
0000
0000
0000
,  // measure 71
3003
0000
0000
0000
;

//---------------dance-single - ----------------
#NOTES:
     dance-single:
     :
     Beginner:
     1:
     0.110798,0.166869,0.007834,0.078342,0.000000,99.000000,98.000000,1.000000,10.000000,0.000000,0.000000,0.110798,0.166869,0.007834,0.078342,0.000000,99.000000,98.000000,1.000000,10.000000,0.000000,0.000000:
// measure 0
0000
0000
0000
0000
,  // measure 1
0000
0000
0000
0000
,  // measure 2
0000
0000
0000
0000
,  // measure 3
0000
0000
0000
0000
,  // measure 4
0000
0000
0000
0000
,  // measure 5
0010
0000
0000
0000
,  // measure 6
0010
0000
0000
0000
,  // measure 7
0010
0000
0000
0000
,  // measure 8
0010
0000
0000
0000
,  // measure 9
0010
0000
0000
0000
,  // measure 10
0010
0000
0000
0000
,  // measure 11
0010
0000
0000
0000
,  // measure 12
0010
0000
0000
0000
,  // measure 13
1000
0000
0000
0000
,  // measure 14
0000
0000
0010
0000
,  // measure 15
0010
0000
0000
0000
,  // measure 16
0000
0000
0100
0000
,  // measure 17
0100
0000
0000
0000
,  // measure 18
0000
0000
0001
0000
,  // measure 19
0001
0000
0000
0000
,  // measure 20
1000
0000
1000
0000
,  // measure 21
1000
0000
0000
0000
,  // measure 22
0000
0000
0100
0000
,  // measure 23
0100
0000
0000
0000
,  // measure 24
0000
0000
0010
0000
,  // measure 25
0010
0000
0000
0000
,  // measure 26
0000
0000
0001
0000
,  // measure 27
0001
0000
0000
0000
,  // measure 28
1000
0000
0000
0000
,  // measure 29
0001
0000
0001
0000
,  // measure 30
0001
0000
0001
0000
,  // measure 31
0002
0000
0003
0000
,  // measure 32
0002
0000
0003
0000
,  // measure 33
1000
0000
1000
0000
,  // measure 34
1000
0000
1000
0000
,  // measure 35
2000
0000
3000
0000
,  // measure 36
2000
0000
3000
0000
,  // measure 37
0010
0000
0010
0000
,  // measure 38
0010
0000
0010
0000
,  // measure 39
0020
0000
0030
0000
,  // measure 40
0020
0000
0030
0000
,  // measure 41
0100
0000
0100
0000
,  // measure 42
0100
0000
0100
0000
,  // measure 43
0200
0000
0300
0000
,  // measure 44
0200
0000
0300
0000
,  // measure 45
0001
0000
0000
0000
,  // measure 46
0001
0000
0000
0000
,  // measure 47
1000
0000
0000
0000
,  // measure 48
1000
0000
0000
0000
,  // measure 49
0001
0000
0001
0000
,  // measure 50
0001
0000
0000
0000
,  // measure 51
1000
0000
1000
0000
,  // measure 52
1000
0000
0000
0000
,  // measure 53
0001
0000
0010
0000
,  // measure 54
0001
0001
0001
0000
,  // measure 55
1000
0000
0010
0000
,  // measure 56
1000
1000
1000
0000
,  // measure 57
0001
0000
0100
0000
,  // measure 58
0001
0001
0001
0000
,  // measure 59
1000
0000
0100
0000
,  // measure 60
1000
1000
1000
0000
,  // measure 61
0001
0000
0001
0000
,  // measure 62
1000
1000
1000
0000
,  // measure 63
1000
0000
1000
0000
,  // measure 64
0001
0001
0001
0000
,  // measure 65
0010
0000
0010
0000
,  // measure 66
0100
0100
0100
0000
,  // measure 67
0100
0000
0100
0000
,  // measure 68
1000
0000
2002
0000
,  // measure 69
0000
0000
0000
0000
,  // measure 70
0000
0000
0000
0000
,  // measure 71
3003
0000
0000
0000
;
