#VERSION:0.83;
#TITLE:Lush Life;
#SUBTITLE:;
#ARTIST:Zara Larsson;
#TITLETRANSLIT:;
#SUBTITLETRANSLIT:;
#ARTISTTRANSLIT:;
#GENRE:;
#ORIGIN:;
#CREDIT:;
#BANNER:banner.png;
#BACKGROUND:lush life-bg.png;
#PREVIEWVID:;
#JACKET:jacket.png;
#CDIMAGE:;
#DISCIMAGE:;
#LYRICSPATH:;
#CDTITLE:;
#MUSIC:Lush Life.ogg;
#OFFSET:-0.423579;
#SAMPLESTART:48.300041;
#SAMPLELENGTH:12.000000;
#SELECTABLE:YES;
#BPMS:0.000=98.000;
#STOPS:;
#DELAYS:;
#WARPS:;
#TIMESIGNATURES:0.000=4=4;
#TICKCOUNTS:0.000=4;
#COMBOS:0.000=1;
#SPEEDS:0.000=1.000=0.000=0;
#SCROLLS:0.000=1.000;
#FAKES:;
#LABELS:0.000=Song Start;
#BGCHANGES:;
#KEYSOUNDS:;
#ATTACKS:
;

//---------------dance-single - ----------------
#NOTEDATA:;
#CHARTNAME:;
#STEPSTYPE:dance-single;
#DESCRIPTION:;
#CHARTSTYLE:;
#DIFFICULTY:Beginner;
#METER:1;
#RADARVALUES:0.064512,0.087720,0.000000,0.000000,0.000000,100.000000,100.000000,0.000000,0.000000,0.000000,0.000000,0.000000,0.000000,0.000000,0.064512,0.087720,0.000000,0.000000,0.000000,100.000000,100.000000,0.000000,0.000000,0.000000,0.000000,0.000000,0.000000,0.000000;
#CREDIT:;
#NOTES:
0000
0000
0000
0000
,
0000
0000
0000
0000
,
0000
0000
0000
0000
,
0000
0000
0000
0000
,
1000
0000
0000
0000
,
0001
0000
0000
0000
,
0100
0100
0000
0000
,
0010
0010
0000
0000
,
1000
0000
0000
0000
,
0100
0000
0000
0000
,
0010
0010
0000
0000
,
0001
0001
0000
0000
,
1000
0000
1000
0000
,
1000
0000
0000
0000
,
0001
0000
0001
0000
,
0001
0000
0000
0000
,
0100
0000
0100
0000
,
0100
0000
0000
0000
,
0010
0000
0010
0000
,
0010
0000
0000
0000
,
1000
0000
0000
0000
,
0100
0000
0000
0000
,
0010
0010
0000
0000
,
0001
0001
0000
0000
,
0100
0000
0000
0000
,
0010
0000
0000
0000
,
1000
1000
0000
0000
,
0001
0001
0000
0000
,
1000
1000
1000
0000
,
0001
0001
0001
0000
,
0100
0100
0100
0000
,
0010
0010
0010
0000
,
1000
1000
1000
0000
,
0100
0100
0100
0000
,
0010
0010
0010
0000
,
0001
0001
0001
0000
,
1000
0000
0000
0000
,
0010
0000
0000
0000
,
0100
0000
0000
0000
,
0001
0000
0000
0000
,
1000
0000
0000
0000
,
0001
0000
0000
0000
,
0100
0100
0000
0000
,
0010
0010
0000
0000
,
1000
0000
0000
0000
,
0100
0000
0000
0000
,
0010
0010
0000
0000
,
0001
0001
0000
0000
,
1000
1000
1000
0000
,
0001
0001
0001
0000
,
0100
0100
0100
0000
,
0010
0010
0010
0000
,
1000
1000
1000
0000
,
0100
0100
0100
0000
,
0010
0010
0010
0000
,
0001
0001
0001
0000
;

//---------------dance-single - ----------------
#NOTEDATA:;
#CHARTNAME:;
#STEPSTYPE:dance-single;
#DESCRIPTION:;
#CHARTSTYLE:;
#DIFFICULTY:Easy;
#METER:2;
#RADARVALUES:0.097413,0.113799,0.000000,0.063221,0.000000,151.000000,151.000000,0.000000,14.000000,0.000000,0.000000,0.000000,0.000000,0.000000,0.097413,0.113799,0.000000,0.063221,0.000000,151.000000,151.000000,0.000000,14.000000,0.000000,0.000000,0.000000,0.000000,0.000000;
#CREDIT:;
#NOTES:
0000
0000
0000
0000
,
0000
0000
0000
0000
,
0000
0000
0000
0000
,
0000
0000
0000
0000
,
1000
0100
1000
0000
,
0001
0100
0001
0000
,
1000
1000
0000
0001
,
0010
0001
0000
0001
,
1000
0010
1000
0000
,
0001
0010
0001
0000
,
0100
0100
0000
0010
,
0100
0100
0000
0001
,
1000
1000
0100
0000
,
1000
1000
0010
0000
,
0100
0100
0001
0000
,
0010
0001
0000
0000
,
0100
0100
0001
0000
,
0010
0010
0100
0000
,
1000
1000
0010
0000
,
0200
0000
0000
0000
,
0310
1000
0100
0000
,
0010
0001
0100
0000
,
0010
0010
0000
1000
,
0100
0100
0000
1000
,
0001
1000
0100
0000
,
1000
0001
0100
0000
,
0010
0010
0000
1000
,
0001
0001
1000
0000
,
0002
0100
1003
0000
,
2000
0100
3001
0000
,
0002
0010
1003
0000
,
2000
0010
3100
0000
,
0002
0100
1003
0000
,
2000
0010
3001
0000
,
0002
0010
1003
0000
,
2000
0100
3010
0000
,
2000
0000
0000
3000
,
0200
0000
0000
0300
,
0020
0000
0000
0030
,
0002
0000
0000
0003
,
1000
1000
1000
0000
,
0001
0001
0001
0000
,
0100
0100
0000
0100
,
0010
0010
0000
0010
,
1000
1000
1000
0000
,
0100
0100
0100
0000
,
0010
0010
0000
0010
,
0001
0001
0001
0000
,
1000
0010
0100
0100
,
0001
0010
0100
0100
,
1000
0100
0010
0010
,
0001
0100
0010
0000
,
1000
0001
0100
0100
,
0001
1000
0100
0100
,
1000
0001
0010
0010
,
0001
1000
0020
0000
,
0030
0000
0000
0000
;

//---------------dance-single - ----------------
#NOTEDATA:;
#CHARTNAME:;
#STEPSTYPE:dance-single;
#DESCRIPTION:;
#CHARTSTYLE:;
#DIFFICULTY:Medium;
#METER:5;
#RADARVALUES:0.152893,0.177020,0.031611,0.040642,0.000000,237.000000,230.000000,7.000000,9.000000,0.000000,0.000000,0.000000,0.000000,0.000000,0.152893,0.177020,0.031611,0.040642,0.000000,237.000000,230.000000,7.000000,9.000000,0.000000,0.000000,0.000000,0.000000,0.000000;
#CREDIT:;
#NOTES:
0000
0000
0000
0000
,
0000
0000
0000
0000
,
0000
0000
0000
0000
,
0000
0000
0000
0000
,
1000
0100
0010
0000
0100
0000
1000
0000
,
0001
0100
0010
0000
0100
0000
0001
0000
,
1000
1000
1000
0000
0000
0000
0100
0000
,
0010
0010
0010
0000
0000
0000
0001
0000
,
1000
0010
0100
0000
0010
0000
1000
0000
,
0001
0010
0100
0000
0010
0000
0001
0000
,
0100
0100
0100
0000
0000
0000
0010
0000
,
0100
0100
0100
0000
0001
0000
0000
0000
,
1000
0100
1000
1000
,
0001
0001
0001
0000
0100
0000
0000
0000
,
0001
0010
0001
0100
,
0010
0010
0010
0000
0000
0000
1000
0000
,
0100
1000
0010
0100
,
0001
0001
0001
0000
1000
0000
0000
0000
,
0100
1000
0010
0100
,
0020
0000
0000
0000
,
1030
0100
0010
0000
0100
0000
1000
0000
,
0001
0100
0010
0000
0100
0000
0001
0000
,
1000
0001
1000
0000
0001
0000
0100
0000
,
0010
0100
0001
0000
1000
0000
0001
0010
,
0100
0000
0010
0000
0001
0000
1000
0010
,
0100
0000
0010
0000
1000
0000
0001
1000
,
0100
0000
0100
0000
1000
0000
1000
0001
,
0100
0100
0002
0000
,
1003
0100
0010
0000
0100
0000
1001
0000
,
0001
0100
0010
0000
0100
0000
1001
0000
,
0001
0010
0100
0000
0010
0000
1001
0000
,
1000
1000
1000
0000
0020
0000
0030
0000
,
1000
0010
0100
0000
0010
0000
1001
0000
,
0001
0010
0100
0000
0010
0000
1001
0000
,
0001
0100
0010
0000
0100
0000
1001
0000
,
1000
1000
1000
0000
0110
0000
0010
0000
,
2000
0000
0000
0100
0000
0000
0100
0000
,
3020
0000
0000
0001
0000
0000
0001
0000
,
0230
0000
0000
1000
0000
0000
1000
0000
,
0302
0000
0000
0010
0000
0000
0010
0000
,
1003
0100
0000
1000
0000
0000
0001
0000
,
0100
0001
0000
0010
0000
0000
0001
0000
,
0100
0010
0000
0100
0000
0000
0010
0000
,
1000
0001
0000
1000
0000
0001
0001
0000
,
0010
0100
0000
0010
0000
0000
0100
0000
,
1000
0001
0000
0100
0000
0000
0001
0000
,
1000
0010
0000
1000
0000
0000
0001
0000
,
0010
0001
0001
0000
0010
0000
0000
0000
,
1000
0100
1000
0000
0010
0000
0100
0000
,
0001
0100
0001
0000
0010
0000
0100
0000
,
1000
0001
1000
0000
0100
0000
0010
0000
,
0001
0100
0010
0100
0001
0000
0000
0000
,
1000
0100
0010
0000
0100
0000
1000
0000
,
0001
0100
0010
0000
0100
0000
0001
0000
,
1000
0100
0010
0000
0100
0000
1000
0000
,
0001
1000
0010
1000
0002
0000
0100
0200
,
0303
0000
0000
0000
;

//---------------dance-single - ----------------
#NOTEDATA:;
#CHARTNAME:;
#STEPSTYPE:dance-single;
#DESCRIPTION:;
#CHARTSTYLE:;
#DIFFICULTY:Hard;
#METER:6;
#RADARVALUES:0.205147,0.227597,0.094832,0.103864,0.027095,318.000000,297.000000,21.000000,23.000000,0.000000,0.000000,0.000000,0.000000,0.000000,0.205147,0.227597,0.094832,0.103864,0.027095,318.000000,297.000000,21.000000,23.000000,0.000000,0.000000,0.000000,0.000000,0.000000;
#CREDIT:;
#NOTES:
// measure 0
0000
0000
0000
0000
,  // measure 1
0000
0000
0000
0000
,  // measure 2
0000
0000
0000
0000
,  // measure 3
0000
0000
0000
0000
,  // measure 4
2000
0001
0000
0001
0000
0001
0000
3001
,  // measure 5
0200
0010
0000
0010
0000
0010
0000
0310
,  // measure 6
2000
0100
0000
0100
0000
0100
0000
3100
,  // measure 7
0020
0001
0000
0001
0000
0001
0031
0000
,  // measure 8
0002
0100
0000
0100
0000
0100
0000
0103
,  // measure 9
0020
1000
0000
1000
0000
1000
0000
1030
,  // measure 10
0200
0010
0000
0010
0000
0010
0000
0310
,  // measure 11
0002
1000
1003
0000
0001
0000
1000
1000
,  // measure 12
1000
0010
0001
0010
1000
0000
0001
0010
,  // measure 13
1000
0010
0001
1000
0001
0000
1001
0000
,  // measure 14
1000
0100
0001
0100
1000
0000
0001
0100
,  // measure 15
0020
0001
1030
0000
,  // measure 16
1000
0100
0001
0100
1000
0000
0001
0100
,  // measure 17
1000
1000
0100
0001
1000
0000
1001
0000
,  // measure 18
1000
0010
0001
0010
1000
0000
0001
0010
,  // measure 19
0002
0000
0000
0000
,  // measure 20
1003
0100
0001
0100
0010
0000
1001
0000
,  // measure 21
0001
0100
1000
0100
0010
0000
1001
0000
,  // measure 22
2000
0100
3001
0000
0001
0100
1000
0100
,  // measure 23
0002
0010
1003
0000
1000
0010
0001
0010
,  // measure 24
0100
0000
0010
0000
1001
0000
0001
0010
,  // measure 25
0100
0000
0010
0000
1001
0000
1000
0100
,  // measure 26
2000
0010
3001
0000
0001
0010
1000
0010
,  // measure 27
0002
0100
1003
0000
2002
0000
3003
0000
,  // measure 28
1000
0010
0001
0100
1000
1000
1001
0000
,  // measure 29
0001
0010
1000
0100
0001
0001
1001
0000
,  // measure 30
1000
0010
0001
0100
1000
1000
1001
0000
,  // measure 31
0001
0010
1000
0100
0010
0000
0000
0000
,  // measure 32
1000
0100
0001
0010
1000
1000
1001
0000
,  // measure 33
0001
0100
1000
0010
0001
0001
1001
0000
,  // measure 34
1000
0100
0001
0010
1000
1000
1001
0000
,  // measure 35
0001
0100
1000
0010
0100
0000
0010
0000
,  // measure 36
2100
0000
0000
0001
0000
0000
0010
0000
,  // measure 37
3002
0000
0000
0100
0000
0000
1000
0000
,  // measure 38
0023
0000
0000
1000
0000
0000
0001
0000
,  // measure 39
0230
0000
0000
0001
0000
0000
1300
0000
,  // measure 40
1000
0000
0000
0010
0000
0000
0010
0000
0000
0001
0000
0000
0100
0000
0100
0000
,  // measure 41
1000
0000
0000
0100
0000
0000
0100
0000
0000
0000
0001
0000
0010
0000
0010
0000
,  // measure 42
1000
0000
0000
0010
0000
0000
0010
0000
0000
0001
0000
0000
0100
0000
0100
0000
,  // measure 43
1000
0000
0000
0000
0100
0000
0000
0100
0000
0000
0001
0000
0010
0000
0010
0000
,  // measure 44
0100
0000
0000
0001
0000
0000
0010
0000
0000
0010
0000
0000
1000
0000
0100
0000
,  // measure 45
1000
0000
0000
0010
0000
0000
0010
0000
0000
0000
0001
0000
0100
0000
1000
0000
,  // measure 46
0100
0000
0000
0001
0000
0000
0010
0000
0000
0010
0000
0000
1000
0000
0010
0000
,  // measure 47
0100
0000
0000
0000
0010
0000
0000
0200
0000
0000
0000
0000
0300
0000
0000
0000
,  // measure 48
1000
0100
0001
0100
0010
0010
1001
0000
,  // measure 49
0001
0100
1000
0100
0010
0010
1001
0000
,  // measure 50
1000
0010
0001
0010
0100
0100
1001
0000
,  // measure 51
0001
0010
1000
0010
0100
0000
1100
0000
,  // measure 52
0001
0010
1000
0010
0100
0100
1001
0000
,  // measure 53
1000
0010
0001
0010
0100
0100
1001
0000
,  // measure 54
0001
0100
1000
0100
0010
0010
1001
0000
,  // measure 55
1000
0100
0001
0100
0010
0000
0200
2000
,  // measure 56
3300
0000
0000
0000
;
