#TITLE:L9;
#SUBTITLE:;
#ARTIST:paraoka;
#TITLETRANSLIT:;
#SUBTITLETRANSLIT:;
#ARTISTTRANSLIT:;
#GENRE:;
#CREDIT:;
#BANNER:[Tech Savvy] - L9.png;
#BACKGROUND:[Tech Savvy] - L9-bg.png;
#LYRICSPATH:;
#CDTITLE:cdtitle.png;
#MUSIC:[Tech Savvy] - L9.ogg;
#OFFSET:0.000000;
#SAMPLESTART:44.543503;
#SAMPLELENGTH:15.238094;
#SELECTABLE:YES;
#DISPLAYBPM:252.000000:256.000000;
#BPMS:0.000000=256.000000
,156.000000=233.000000
,157.000000=196.000000
,158.000000=179.000000
,159.000000=158.000000
,160.000000=136.000000
,161.000000=105.000000
,162.000000=251.999985
;
#STOPS:
;
#BGCHANGES:;
#KEYSOUNDS:;
#ATTACKS:;

//---------------dance-single - ----------------
#NOTES:
     dance-single:
     C 02 X 04:
     Beginner:
     2:
     0.103571,0.203602,0.008055,0.144999,0.000000,90.000000,89.000000,1.000000,18.000000,0.000000,0.000000,0.103571,0.203602,0.008055,0.144999,0.000000,90.000000,89.000000,1.000000,18.000000,0.000000,0.000000:
0000
0000
0000
0000
,
0000
0000
0000
0000
,
0000
0000
0000
0000
,
0000
0000
0000
0000
,
0000
0000
0000
0000
,
0000
0000
0000
0000
,
0000
0000
0000
0000
,
0000
0000
0000
0000
,
0000
0000
0000
0000
,
0000
0000
0000
0000
,
0000
0000
0000
0000
,
0000
0000
0000
0000
,
0000
0000
0000
0000
,
0000
0000
1000
0000
,
0000
0000
0000
0000
,
1000
0000
0000
0000
,
0000
0000
1000
0000
,
0000
0000
0000
0000
,
2000
0000
0000
3000
,
0000
0000
0001
0000
,
0000
0000
0000
0000
,
0001
0000
0000
0000
,
0000
0000
0001
0000
,
0000
0000
0000
0000
,
0002
0000
0000
0000
,
0000
0000
0003
0000
,
0000
0000
0000
0000
,
0010
0000
0000
0000
,
0000
0000
0100
0000
,
0000
0000
0000
0000
,
1000
0000
0000
0000
,
0000
0000
0001
0000
,
0000
0000
0000
0000
,
1000
0000
0000
0000
,
0000
0000
0002
0000
,
0000
0000
0000
0000
,
0003
0000
0000
0000
,
0000
0000
2000
0000
,
0000
0000
0000
0000
,
3000
0000
0000
0000
,
0000
0000
0001
0000
,
0000
0000
0000
0000
,
1000
0000
0000
0000
,
0000
0000
0010
0000
,
0000
0010
0000
0000
,
0020
0000
0000
0030
,
0000
0000
0100
0000
,
0000
0000
0100
0000
,
0000
0000
0001
0000
,
0000
0000
0001
0000
,
0000
0000
1000
0000
,
0000
0000
1000
0000
,
0000
0000
0020
0000
,
0000
0000
0030
0000
,
0000
0000
1000
0000
,
0000
0000
1000
0000
,
0000
0000
0100
0000
,
0000
0000
0100
0000
,
0000
0000
0010
0000
,
0000
0000
0010
0000
,
0000
0000
0002
0000
,
0000
0000
0003
0000
,
0000
0000
1000
0000
,
0000
0000
1000
0000
,
0000
0000
0001
0000
,
0000
0000
0001
0000
,
0000
0000
1000
0000
,
0000
0000
0001
0000
,
0000
0000
2000
0000
,
0000
0000
0000
0000
,
3000
0000
0010
0000
,
0000
0000
0000
0000
,
0000
0010
0000
0000
,
0000
0000
0000
0000
,
0100
0000
0000
0000
,
0000
0000
0100
0000
,
0000
0000
0000
0000
,
0001
0000
0000
0000
,
0001
0000
0000
0000
,
1000
0000
0000
0000
,
1000
0000
0000
0000
,
0001
0000
0000
0000
,
1000
0000
0000
0000
,
0002
0000
0000
0000
,
0000
0000
0003
0000
,
0010
0000
0000
0000
,
0000
0000
0000
0100
,
0000
0000
0000
0000
,
0000
0000
0010
0000
,
0000
0000
0010
0000
,
0000
0000
0010
0000
,
0000
0000
0200
0000
,
0000
0000
0300
0000
,
0000
0000
0200
0000
,
0000
0000
0300
0000
,
0000
0000
2000
0000
,
0000
0000
3000
0000
,
0000
0000
0002
0000
,
0000
0000
0003
0000
,
0000
0000
1000
0000
,
0000
0000
0001
0000
,
0000
0000
1000
0000
,
0000
0000
0001
0000
,
0000
0000
0200
0000
,
0000
0000
0300
0000
,
0000
0000
0020
0000
,
0000
0000
0030
0000
,
0000
0000
0100
0000
,
0000
0000
0010
0000
,
0000
0000
0100
0000
,
0000
0000
0010
0000
,
0000
0000
1000
0000
,
0000
0000
0001
0000
,
0000
0000
1000
0000
,
0000
0000
0001
0000
,
0000
0000
1000
0000
,
0000
0001
0000
0000
,
1000
0000
0000
0001
,
0000
0000
1000
0000
,
0000
1000
0000
0000
,
0010
0000
0000
0010
,
0000
0000
0100
0000
,
0000
0100
0000
0000
,
0002
0000
0000
0003
,
0000
0000
0100
0000
,
0000
0010
0000
0000
,
0220
0000
0000
0330
0000
0000
0000
0000
;

//---------------dance-single - ----------------
#NOTES:
     dance-single:
     C 04 X 06:
     Easy:
     4:
     0.207141,0.305404,0.048333,0.491385,0.000000,180.000000,174.000000,6.000000,61.000000,0.000000,0.000000,0.207141,0.305404,0.048333,0.491385,0.000000,180.000000,174.000000,6.000000,61.000000,0.000000,0.000000:
0000
0000
0000
0000
,
0000
0000
0000
0000
,
0000
0000
0000
0000
,
0000
0000
0000
0000
,
0000
0000
0000
0000
,
0000
0000
0000
0000
,
0000
0000
0000
0000
,
0000
0000
0000
0000
,
0000
0000
0000
0000
,
0000
0000
0000
0000
,
0000
0000
0000
0000
,
0000
0000
0000
0000
,
0000
0000
0000
0000
,
0000
0000
1001
0000
,
0000
0000
0000
0000
,
1001
0000
0000
0000
,
0000
0000
1001
0000
,
0000
0000
0000
0000
,
2000
0000
0000
3010
,
0000
0000
0110
0000
,
0000
0000
0000
0000
,
0110
0000
0000
0000
,
0000
0000
0110
0000
,
0000
0000
0000
0000
,
0020
0000
0000
0230
,
0000
0000
0302
0000
,
0000
1000
0000
0000
,
1000
0000
0000
1003
,
0000
0000
2000
0000
,
0000
0010
0000
0000
,
3010
0000
0000
1000
,
0000
0000
0001
0000
,
0000
0100
0000
0000
,
0002
0000
0000
0003
0000
0000
2000
0000
,
0000
3000
0000
0000
0200
0000
0000
0000
,
0000
0010
0000
0000
,
0020
0000
0000
0330
,
0000
0000
0002
0000
,
0000
1000
0000
0000
,
2000
0000
0000
0000
,
0000
3003
1000
0000
,
0000
1000
0000
0000
,
0010
0000
0000
0010
,
0000
0000
0200
0300
,
0000
0200
0300
0000
,
0002
0000
0000
2003
,
0000
0000
3010
0000
,
1000
0000
0020
0000
,
0030
0000
0010
0000
,
1000
0000
0020
0000
,
0030
0000
1000
0000
,
0010
0000
2000
0000
,
3000
0000
1000
0000
,
0010
0000
1000
0000
,
0001
0000
0100
0000
,
0001
0000
0200
0000
,
0300
0000
0100
0000
,
0001
0000
0200
0000
,
0300
0000
0001
0000
,
0100
0000
0002
0000
,
0003
0000
0001
0000
,
0100
0000
0001
0000
,
1000
0000
0200
0000
,
0310
0000
0020
0000
,
0031
0000
0002
0000
,
1003
0000
2000
0000
,
0001
3000
0002
0000
,
0013
0000
0020
0000
,
0130
0000
0200
0000
,
0000
0000
0000
0000
,
0000
0300
0000
0000
1000
0000
0000
0000
,
0100
0000
2000
0000
,
3000
0001
0000
0010
,
0000
0002
0000
0003
,
2000
0000
0000
3000
0000
0000
0020
0000
,
0000
0030
0000
0000
0200
0000
0000
0300
,
0000
0000
0002
0000
0000
0003
0000
0000
,
2000
0000
3001
0000
,
0002
0000
0013
0000
,
0020
0000
0130
0000
,
0200
0000
0010
0300
,
0020
0000
0031
0000
,
0002
0000
1003
0000
,
2000
0000
0000
0000
,
0000
0000
0000
0000
0000
3000
0000
0000
,
0001
0000
1000
0000
,
0002
0000
0000
1003
,
0000
0000
0001
0000
0000
0000
0000
2000
,
0000
0000
3001
0000
,
0001
0000
0010
0000
,
0010
0000
0100
0000
,
0100
0000
2000
0000
,
0000
0000
3020
0000
,
0000
0000
0230
0000
,
0000
0000
0302
0000
,
0000
0000
2003
0000
,
0010
0000
0002
0000
,
3003
0000
0002
0000
,
0010
0000
2000
0000
,
3003
0000
1000
0000
,
0100
0000
0010
0000
,
0001
0000
1000
0000
,
0010
0000
0100
0000
,
0001
0000
2000
0000
,
0100
0000
0002
0000
,
3003
0000
0002
0000
,
0100
0000
2000
0000
,
3003
0000
0001
0000
,
0010
0000
0100
0000
,
1000
0000
0001
0000
,
0100
0000
0010
0000
,
1000
0000
0001
0000
,
1000
0000
0010
0000
,
0100
0000
0001
0000
,
1000
0000
0100
0000
,
0010
0000
0001
0001
,
0000
1000
1000
0000
,
0010
0010
0000
0100
,
0100
0000
0002
0000
,
0000
0023
0000
0000
,
2030
0000
0000
3020
,
0000
0000
0031
0001
,
0000
1000
1000
0000
,
0002
0000
0000
2000
,
0000
3003
0000
0010
,
0010
0000
0100
0100
,
0000
0010
0000
0100
0000
0000
0000
0000
;

//---------------dance-single - ----------------
#NOTES:
     dance-single:
     C 06 X 09:
     Medium:
     6:
     0.345235,0.509006,0.201387,0.394719,0.000000,300.000000,275.000000,25.000000,49.000000,0.000000,0.000000,0.345235,0.509006,0.201387,0.394719,0.000000,300.000000,275.000000,25.000000,49.000000,0.000000,0.000000:
0000
0000
0000
0000
,
0000
0000
0000
0000
,
0000
0000
0000
0000
,
0000
0000
0000
0000
,
0000
0000
0000
0000
,
0000
0000
0000
0000
,
0000
0000
0000
0000
,
0000
0000
1100
0000
,
0000
0000
0000
0000
,
1010
0000
0000
0000
,
0000
0000
0101
0000
,
0000
0000
0000
0000
,
0011
0000
0000
0000
,
0000
0000
1000
1000
,
0000
0000
0000
0000
,
0010
0010
0000
0000
,
0000
0000
0100
0100
,
0000
0000
0000
0000
,
0001
0001
0000
0000
,
0000
0000
1000
1000
,
0000
0000
0200
0000
0000
0300
0000
0000
,
0010
0010
0000
0002
,
0000
0003
0000
0000
0100
0000
0100
0000
,
0000
0000
0020
0000
0000
0030
0000
0000
,
0002
0000
0000
0023
,
0000
0000
2030
0000
,
0000
0100
0000
0000
,
0001
0000
0000
0010
,
0000
0000
3002
0000
,
0000
0010
0000
0000
,
1003
0000
0000
1000
0000
0000
1000
0000
,
0000
0000
0000
0000
0001
0000
0000
0001
,
0000
0001
0000
0000
,
1000
0000
0000
0100
0000
0000
0001
0000
,
0000
0100
0000
0000
2000
0000
0000
0000
,
0000
0010
0000
0000
,
0002
0000
0000
3003
,
0000
0000
0002
0000
,
0000
0010
0000
0000
,
2000
0000
0000
0000
,
0000
3003
1001
0000
,
0000
0110
0000
0000
,
1010
0000
0000
0000
,
0101
0000
0000
0001
,
0001
0000
1000
1000
,
0020
0000
0000
0200
,
0000
0330
0000
0100
,
0001
0000
0000
0010
0000
0001
0000
0000
,
0100
0100
0000
0010
,
1000
0000
0000
0100
0000
1000
0000
0000
,
0010
0010
0000
1000
,
0001
0000
0000
0100
0000
0001
0000
0000
,
1000
1000
0000
0001
,
1000
0000
0011
0000
,
1100
0000
0000
1000
,
0010
0000
0000
1000
0000
0100
0000
0000
,
0010
0010
0000
0001
,
0010
0000
0000
0001
0000
0100
0000
0000
,
0010
0010
0000
1000
,
0100
0000
0000
0010
0000
0001
0000
0000
,
0100
0100
0000
0010
,
1000
0000
0110
0000
,
1001
0000
0002
0000
,
0013
0100
2000
0000
,
3100
0010
0002
0000
,
0013
0000
0100
0000
1000
0000
0000
0001
,
0000
1000
0002
0000
,
0103
0010
2000
0000
,
3010
0000
0100
0000
0000
0001
0000
0000
,
1000
0000
0000
0001
0000
0000
1000
0000
,
0000
0001
0000
0000
1000
0000
0100
0000
,
0010
0100
2000
0000
,
3000
0001
0010
0100
,
0010
0002
0000
0003
,
1000
0000
0000
1010
0000
0000
0001
0000
,
0000
0101
0000
0000
1000
0000
0000
1100
,
0000
0000
0011
0000
0000
1100
0000
0000
,
0200
0000
1300
0001
,
0200
0000
0301
1000
,
0200
0000
1300
0001
,
0100
0000
0000
0100
0000
0000
0100
0000
,
0020
0000
1030
0001
,
0020
0000
0031
1000
,
0000
0100
0000
0000
0010
0000
0000
0100
,
0000
0000
0010
0000
0000
0100
0000
0000
,
0110
0000
0000
0000
,
0001
1000
0001
1000
,
0000
0000
0000
0000
0000
0000
0000
0010
,
0000
0100
0000
0010
0200
0000
0000
0000
,
0302
0000
0023
0000
,
2030
0000
3200
0000
,
0302
0000
0000
0000
1003
0000
0010
1000
,
0000
0001
0200
0000
,
0301
0000
0000
0000
1000
0000
0100
1000
,
0000
0001
0020
0000
,
0031
0000
2000
0000
,
3020
0000
0032
0000
,
0023
0000
2030
0000
,
3200
0000
0320
0000
,
0030
0000
0001
0010
,
1000
0000
1000
0010
,
0001
0000
0001
0010
,
1000
0010
0001
0000
,
1001
0000
2000
0000
,
3200
0000
0302
0000
,
0203
0000
2300
0000
,
3020
0000
0230
0000
,
0300
0000
0001
0100
,
1000
0000
1000
0100
,
0001
0000
0001
0100
,
1000
0100
0001
0000
,
1001
0000
1000
0010
,
1000
0000
0001
0010
,
0001
0000
1000
0100
,
1000
0000
0001
0100
,
0001
0000
1000
0010
,
1000
0001
0010
0001
,
1000
0100
1000
0001
,
0001
0000
0000
0000
1010
0000
0000
0100
,
0000
0000
0011
0000
0000
0100
0000
0000
,
0101
0000
0000
0010
0000
0000
1000
0000
,
1100
0000
0001
0010
,
1000
0001
0100
1000
,
0200
0000
0000
0020
,
0000
0330
0001
0010
,
0100
1000
0010
0100
,
0001
1000
0000
1001
0000
0000
0000
0000
;

//---------------dance-single - ----------------
#NOTES:
     dance-single:
     C 09 X 13:
     Hard:
     9:
     0.586900,0.814410,0.265831,0.330275,0.000000,510.000000,477.000000,33.000000,41.000000,0.000000,2.000000,0.586900,0.814410,0.265831,0.330275,0.000000,510.000000,477.000000,33.000000,41.000000,0.000000,2.000000:
0000
0000
0000
0000
,
0000
0000
0000
0000
,
0000
0000
0000
0000
,
0000
0000
0000
0000
,
0000
0000
0000
0000
,
0000
0000
0000
0000
,
0000
0000
0000
0000
,
0000
0000
1000
1000
,
0000
0000
0000
0000
,
0100
0100
0000
0000
,
0000
0000
0010
0010
,
0000
0000
0000
0000
,
0001
0001
0000
0000
,
0000
0000
1000
1000
,
0000
0000
0020
0000
0000
0030
0000
0000
,
0100
0100
0000
0002
,
0000
0003
0000
0000
0010
0000
0010
0000
,
0000
0000
0200
0000
0000
0300
0000
0000
,
0001
0001
0000
0200
,
0000
0300
0000
0000
1000
0000
1000
0000
,
0001
0000
0020
0000
0000
0030
0000
0000
,
0100
0100
1000
0002
,
0000
0003
0000
0000
0010
0000
0010
0000
,
0001
0000
0200
0000
0000
0300
0000
0000
,
0001
0100
1000
0001
,
0010
1000
2001
0000
,
0000
3100
0010
0001
,
0100
0001
0010
0002
,
0000
0000
2003
0000
,
0000
3010
0100
0001
,
0101
0000
0000
0100
0000
0000
0110
0000
,
0000
0010
0000
0000
1010
0000
0000
1000
,
0000
0000
1001
0000
0000
0001
0000
0000
,
0200
0000
0000
2300
0000
0000
3020
0000
,
0000
0032
0000
0000
0103
0000
0001
0000
,
0010
0100
1000
0010
,
0002
0000
0000
0000
0000
0000
0003
0010
,
0000
0010
0000
0010
1000
0000
0100
0000
,
0001
1000
0010
0001
,
0200
0300
0000
0000
0000
0000
0200
0000
0300
0000
0000
0000
0200
0000
0000
0300
0000
0000
1200
0000
0000
0000
0300
0000
,
0210
0000
0000
0000
0000
0000
0000
0000
0000
0000
0000
0000
0000
0000
0000
0000
0000
0000
0000
0000
0000
0000
0000
0000
0000
0000
0000
0000
0000
0000
0000
0000
0000
0000
0000
0000
0000
0000
0000
0000
0300
0000
0000
0000
0000
0000
0000
0000
0201
0000
0000
0000
0000
0000
0000
0000
0000
0000
0000
0000
0000
0000
0000
0000
0000
0000
0000
0000
0000
0000
0000
0000
0000
0000
0000
0000
0000
0000
0000
0000
0000
0000
0000
0000
0000
0000
0000
0000
0000
0000
0000
0000
0000
0000
0000
0300
0101
0000
0000
0000
0000
0000
0000
0000
0000
0000
0000
0000
0000
0000
0000
0000
0000
0000
0000
0000
0000
0000
0000
0000
0000
0000
0000
0000
0000
0000
0000
0000
0000
0000
0000
0000
0000
0000
0000
0000
0000
0000
0000
0000
0000
0000
0000
0000
0000
0000
0000
0000
0000
0000
0000
0000
0000
0000
0000
0000
0000
0000
0000
0000
0000
0000
0000
0000
0000
0000
0000
0000
0010
0000
0000
0000
0000
0000
0000
0000
0000
0000
0000
0000
0000
0000
0000
0000
0000
0000
0000
0000
0000
0000
0000
0000
,
0000
0000
1100
0000
0000
0010
0000
0000
,
1010
0000
0000
0100
0000
0000
0001
0000
,
0011
0000
0010
0001
,
1000
0100
0001
1000
,
0020
0000
0000
0200
,
0000
0330
1000
0010
,
0000
1000
0000
0010
0100
0000
0001
0000
,
0000
0100
0000
0001
1000
0000
0100
0000
,
0000
1000
0000
0100
0010
0000
0001
0000
,
0000
0010
0000
0001
1000
0000
0001
0000
,
0000
1000
0000
0001
0100
0000
0010
0000
,
0000
0100
0000
0010
1000
0000
0001
0000
,
0000
1000
0000
0001
0010
0000
0100
0000
,
0110
0000
0010
0001
,
0100
0001
0000
0010
0000
0100
0000
0000
,
1000
0001
1000
0001
1000
0000
0010
0000
,
0001
0010
0000
1000
0000
0001
0000
0000
,
0100
0010
0100
0010
0100
0000
0001
0000
,
0010
0001
0000
0100
0000
0010
0000
0000
,
1000
0001
1000
0001
1000
0000
0100
0000
,
0001
0000
0100
1000
0100
0000
0010
0001
,
0010
0000
0001
0100
0010
0000
1000
0000
,
0100
1000
0100
0000
0010
0000
0001
0000
,
0100
0001
0100
0000
0001
0010
0001
0000
,
1000
0010
1000
0000
0001
0000
0001
1000
,
0000
1000
0001
0000
1000
0000
0100
0000
,
1000
0010
1000
0000
0001
0000
0100
0000
,
0001
0010
0001
0010
0000
0011
0000
0000
,
1001
0000
0000
1010
0000
0000
0110
0000
,
0000
0101
0000
0000
1000
0000
0010
0000
,
1000
0100
0010
0000
1000
0000
0010
0100
,
1000
0000
0001
0000
0010
0000
0001
0100
,
0010
0000
0001
0000
0010
0100
0001
0000
,
1000
0010
0100
0001
0000
0001
1000
0100
,
0010
0001
0000
0001
0010
0001
1000
0001
,
0100
0000
0010
1000
0001
1000
0100
0000
,
1000
0000
0010
0000
0100
0010
1000
0000
,
0001
0000
0010
0000
0100
0010
0001
0000
,
1000
0010
0100
0000
0001
0010
0100
0000
,
1000
0000
1000
0001
0000
0001
1000
0000
,
0001
0000
0100
0000
1000
0100
0001
0000
,
1000
0000
0100
0000
0001
0100
1000
0100
,
0000
1100
0000
0000
1001
0000
0000
0101
,
0000
0000
0011
0000
0000
0110
0000
0000
,
0001
0000
1000
0010
0100
0010
1000
0100
,
0000
0000
0000
1000
,
0001
0010
0100
0010
0001
0100
0000
0000
,
0000
0000
0000
0000
0001
0000
0000
0001
,
0100
0000
0000
0100
1000
0000
0000
1000
,
0010
0000
0000
0010
0001
0000
0000
0001
,
0100
0000
0000
0100
0001
0000
0010
0100
,
0000
0010
1000
0000
0020
0000
0100
0000
,
0100
0000
0000
0000
0031
0000
0100
0010
,
0000
0100
1000
0000
0200
0000
0010
0000
,
0010
0000
0302
0010
,
2003
0000
3002
0100
,
2003
0000
3002
0010
,
2003
0100
0002
0000
,
3003
0000
0000
0000
0001
1000
0010
0000
,
0010
1000
0001
0000
0010
0001
1000
0000
,
1000
0001
0010
0000
0100
1000
0001
0000
,
0001
1000
0100
0000
1000
0001
0100
0000
,
0100
0001
1000
0000
2000
0000
0010
0000
,
3002
0000
2003
0100
,
3002
0000
2003
0010
,
3002
0100
2000
0000
,
3003
0000
0000
0000
1000
0010
0100
0000
,
1000
0100
0010
0000
1000
0001
0100
0000
,
0001
0010
0100
0000
0001
0100
0010
0000
,
0001
1000
0100
0000
1000
0010
0100
0001
,
0010
0001
0100
0010
1000
0000
0100
0000
,
0010
0100
1000
0000
0001
0000
0100
0000
,
0010
0100
0001
0000
1000
0000
0010
0000
,
0100
0010
0001
0000
1000
0000
0100
0000
,
0010
0100
0001
0000
0010
0000
0011
0000
,
0100
0010
0110
1000
,
0010
1010
1000
1001
,
1001
0000
0000
0000
0001
0100
0010
1000
,
0100
0000
1000
0010
0100
0001
0010
0000
,
0001
0010
0100
1000
0010
0000
1000
0100
,
0010
0001
0100
0000
0002
0000
0010
0000
,
1103
2000
0010
3101
,
0001
1000
0010
0100
1000
0001
0010
0100
,
0001
1000
0100
0000
1000
0010
1000
0000
,
1010
0000
0001
0010
0001
0000
0011
0000
,
1000
0001
0000
1001
0000
0000
0000
0000
;

//---------------dance-single - ----------------
#NOTES:
     dance-single:
     C 12 X 17:
     Challenge:
     12:
     0.932135,1.221614,0.571940,0.225554,0.008055,810.000000,725.000000,71.000000,28.000000,0.000000,18.000000,0.932135,1.221614,0.571940,0.225554,0.008055,810.000000,725.000000,71.000000,28.000000,0.000000,18.000000:
0000
0000
0000
0000
,
0000
0000
0000
0000
,
0000
0000
0000
0000
,
0000
0000
0000
0000
,
0000
0000
0000
0000
,
0000
0000
0000
0000
,
0000
0000
0000
0000
,
0000
0000
1000
0010
,
0000
0000
2020
0000
0000
3030
0000
0000
,
0001
0000
0000
0000
0010
0000
0000
0000
0000
0000
0000
0000
0004
0040
0000
0000
,
0000
0000
0000
0030
0003
0000
0000
0000
1000
0000
0000
0000
0100
0000
0000
0000
,
0000
0000
2200
0000
0000
3300
0000
0000
,
0001
0000
0100
0000
0000
0000
0001
0100
,
0010
1000
0100
0000
1000
0000
0010
0000
,
0001
0000
0020
0000
0000
1030
0000
0000
,
0001
0010
1000
0020
,
0000
0031
0000
0000
1000
0000
0100
0000
,
0001
0000
0200
0000
0000
1300
0000
0000
,
0001
0100
0010
1000
,
0001
0010
0001
0000
1000
0000
0010
0000
,
0001
0000
0010
0100
0001
2000
0000
0000
,
3001
0000
0010
0000
1000
0000
0010
0100
,
1000
0002
0000
0000
1003
0000
0100
0000
,
0001
0000
0100
0010
0001
2000
0000
0000
,
3002
2013
3102
2003
,
3012
0000
2103
0000
3001
0000
1000
0100
,
0010
0100
1000
0000
0001
0100
0010
0100
,
0001
0000
1000
0001
0100
0001
1000
0100
,
0010
0100
1000
0001
0100
0000
0001
0010
,
0100
0010
0001
0000
1000
0010
0100
0010
,
1000
0000
0100
0100
0001
0010
0010
0000
,
1000
0100
0010
0001
0010
0000
0100
0100
,
0001
1000
0010
0000
0100
0100
1000
0001
,
0010
0100
0010
0001
1000
0001
0100
0010
,
0100
0001
1000
0001
1000
0100
0010
0100
,
0001
0100
2000
3100
0020
0130
0002
0103
,
2000
3100
0010
0100
0001
0100
0000
1010
,
0000
1010
0000
1010
0001
0010
0100
0010
,
1000
0010
0002
0013
0200
0310
2000
3010
,
0101
1010
1001
1100
,
0011
0000
0110
0000
1000
0010
0100
0001
,
0010
0000
0001
0100
0010
1000
0100
0000
,
1000
0100
0010
0001
0100
0000
0001
0010
,
0100
1000
0010
0000
2000
0000
0100
0000
,
3011
0002
0100
1013
,
1000
0001
0100
0010
0001
1000
0100
0010
,
1000
0001
0010
0000
0001
0100
0010
0000
,
1010
0000
1000
0100
0000
0020
0000
0000
,
0031
0010
0001
0010
0100
1000
0010
0000
,
0101
0000
0001
0100
0000
0020
0000
0000
,
1030
0010
1000
0010
0100
0001
0010
0000
,
1100
0000
1000
0001
0000
2000
0000
0000
,
3001
0100
0001
0100
0010
1000
0001
0000
,
1001
0000
1000
0010
1100
0010
0100
0001
,
1010
0100
0010
0001
0100
0100
1000
0000
,
0010
1000
0001
0100
0000
0110
0000
0010
,
0100
0001
0100
0001
0010
0010
1000
0000
,
0001
0010
0100
1000
0000
1100
0000
0100
,
0010
0001
0010
0001
0100
0100
1000
0000
,
0001
1000
0010
0100
0000
1010
0000
0010
,
1000
0001
1000
0001
0010
0010
1000
0000
,
1010
0000
0010
0100
0011
0100
0010
1000
,
0101
0010
0100
1000
0001
0010
0100
0010
,
0001
1000
0010
1000
0001
0100
0010
0100
,
0001
1000
0100
1000
0001
0100
0010
1000
,
0100
0010
0001
1000
0010
0000
0010
0010
,
0000
0010
0010
0000
1000
0100
0010
0100
,
1000
0001
0100
0001
1000
0010
0100
0010
,
1000
0001
0010
0001
0000
1001
0000
0000
,
0101
0000
0000
0110
0000
0000
1010
0000
,
0000
1001
0000
0000
0001
0100
0010
0100
,
1000
0100
0001
0100
1000
0100
0010
0100
,
0001
0000
1000
0100
0010
0100
0001
0100
,
1000
0100
0001
0100
0010
0100
1000
0000
,
0001
0100
0010
1000
0010
0100
0001
0010
,
0100
1000
0100
0010
0001
0100
1000
0001
,
0010
1000
0001
0001
0001
1000
1000
1000
,
0001
0100
0010
1000
0001
0010
0100
1000
,
0010
0100
0001
1000
0100
0010
0001
1000
,
0010
0100
0001
0100
0010
1000
0001
1000
,
0100
0000
0100
0100
0000
0100
0100
0000
,
1000
0010
0100
0001
1000
0100
0010
0001
,
0100
0010
1000
0001
0010
0100
1000
0001
,
0000
1101
0000
0000
0111
0000
0000
1011
,
0000
0000
1110
0000
0000
1001
0000
0000
,
0110
0000
0001
0000
,
1100
0011
1010
0101
,
1000
0000
1000
0000
1000
0000
0000
0101
,
0000
1010
0000
0001
0010
0000
0001
0100
,
0010
0100
0001
0010
0100
1000
0001
0100
,
0100
1000
0010
0100
0001
1000
0001
0010
,
0010
1000
0001
0010
1000
0010
0001
1000
,
0010
0001
0010
1000
0010
0100
0001
1000
,
0100
0010
0001
0100
1000
0100
0001
1000
,
0100
0001
0100
1000
0010
0100
0010
0100
,
0010
0000
0100
0010
1000
0000
0100
1000
,
0100
0000
0010
0100
0010
0000
0001
0010
,
0001
0000
1000
0001
1000
0000
0010
1000
,
0010
0000
0100
0010
0100
0001
0000
0010
,
0001
1000
0100
0010
0001
1000
0100
1000
,
0001
1000
0010
1000
0001
0100
0010
0100
,
1000
0100
0010
0100
0001
0010
0100
0010
,
1000
0010
0100
0010
0001
0010
0100
1000
,
0001
0100
0010
1000
0001
0000
0100
0001
,
0100
0000
0010
0100
0010
0000
1000
0010
,
1000
0000
0001
1000
0001
0000
0010
0001
,
0010
0000
0100
0010
0100
1000
0000
0010
,
1000
0001
0100
0010
1000
0100
0010
0100
,
0001
0100
0010
0010
1000
0010
0100
0010
,
0001
0010
0100
0100
1000
0001
0010
0001
,
1000
0000
0001
0000
0100
0000
0001
0000
0001
0000
0010
0100
0010
0000
1000
0000
,
0001
0010
0100
1000
1100
0000
0001
0100
,
0010
1000
0100
0010
0011
0000
0001
0010
,
0100
1000
0010
0100
0101
0000
1000
0100
,
0010
0001
0100
0010
1010
0000
1000
0100
,
0010
0001
1000
0000
0011
0000
0110
0000
,
1100
1010
1001
0101
,
1101
1110
1011
0111
,
1111
0000
0000
0000
1000
0100
0010
0001
,
0010
0100
1000
0010
0100
0001
0100
0010
,
1000
0100
0001
1000
0010
0001
0100
1000
,
0001
0010
1000
0000
0001
0000
0011
0000
,
0111
1000
1100
1110
,
0001
1000
0100
0010
1000
0001
0100
0010
,
0001
1000
0010
0000
0100
0010
1100
0000
,
0011
0000
1000
0001
1010
0000
0101
0000
,
1000
1001
0000
1111
0000
0000
0000
0000
;

//---------------dance-single - Annotated----------------
#NOTES:
     dance-single:
     C 12 X 17 (A):
     Edit:
     12:
     0.932135,1.221564,0.571940,0.225554,0.245692,810.000000,735.000000,71.000000,28.000000,0.000000,8.000000,0.932135,1.221564,0.571940,0.225554,0.245692,810.000000,735.000000,71.000000,28.000000,0.000000,8.000000:
// measure 0
0000
0000
0000
0000
,  // measure 1
0000
0000
0000
0000
,  // measure 2
0000
0000
0000
0000
,  // measure 3
0000
0000
0000
0000
,  // measure 4
0000
0000
0000
0000
,  // measure 5
0000
0000
0000
0000
,  // measure 6
0000
0000
0000
0000
,  // measure 7
0000
0000
1000
0010
,  // measure 8
0000
0000
2020
0000
0000
3030
0000
0000
,  // measure 9
0001
0000
0000
0000
0010
0000
0000
0000
0000
0000
0000
0000
0004
0040
0000
0000
,  // measure 10
0000
0000
0000
0030
0003
0000
0000
0000
1000
0000
0000
0000
0100
0000
0000
0000
,  // measure 11
0000
0000
2200
0000
0000
3300
0000
0000
,  // measure 12
0001
0000
0100
0000
0000
0000
0001
0100
,  // measure 13
0010
1000
0100
0000
1000
0000
0010
0000
,  // measure 14
0001
0000
0020
0000
0000
1030
0000
0000
,  // measure 15
0001
0010
1000
0020
,  // measure 16
0000
0031
0000
0000
1000
0000
0100
0000
,  // measure 17
0001
0000
0200
0000
0000
1300
0000
0000
,  // measure 18
0001
0100
0010
1000
,  // measure 19
0001
0010
0001
0000
1000
0000
0010
0000
,  // measure 20
0001
0000
0010
0100
0001
2000
0000
0000
,  // measure 21
3001
0000
0010
0000
1000
0000
0010
0100
,  // measure 22
1000
0002
0000
0000
1003
0000
0100
0000
,  // measure 23
0001
0000
0100
0010
0001
2000
0000
0000
,  // measure 24
3002
0000
0000
0000
0000
0000
0000
0000
0000
0000
0000
0000
0000
0000
0000
0000
0000
0000
0000
0000
0000
0000
0000
0000
0000
0000
0000
0000
0000
0000
0000
0000
0000
0000
0000
0000
0000
0000
0000
0000
0000
0000
0000
0000
0000
0000
0000
2013
0000
0000
0000
0000
0000
0000
0000
0000
0000
0000
0000
0000
0000
0000
0000
0000
0000
0000
0000
0000
0000
0000
0000
0000
0000
0000
0000
0000
0000
0000
0000
0000
0000
0000
0000
0000
0000
0000
0000
0000
0000
0000
0000
0000
0000
0000
0000
3102
0000
0000
0000
0000
0000
0000
0000
0000
0000
0000
0000
0000
0000
0000
0000
0000
0000
0000
0000
0000
0000
0000
0000
0000
0000
0000
0000
0000
0000
0000
0000
0000
0000
0000
0000
0000
0000
0000
0000
0000
0000
0000
0000
0000
0000
0000
0000
0003
2000
0000
0000
0000
0000
0000
0000
0000
0000
0000
0000
0000
0000
0000
0000
0000
0000
0000
0000
0000
0000
0000
0000
0000
0000
0000
0000
0000
0000
0000
0000
0000
0000
0000
0000
0000
0000
0000
0000
0000
0000
0000
0000
0000
0000
0000
0000
0012
,  // measure 25
3000
0000
0000
0000
0000
0000
0000
0000
0000
0000
0000
0000
0000
0000
0000
0000
0000
0000
0000
0000
0000
0000
0000
0000
0000
0000
0000
0000
0000
0000
0000
0000
0000
0000
0000
0000
0000
0000
0000
0000
0000
0000
0000
0000
0000
0000
0000
2103
0000
0000
0000
0000
0000
0000
0000
0000
0000
0000
0000
0000
0000
0000
0000
0000
0000
0000
0000
0000
0000
0000
0000
0000
0000
0000
0000
0000
0000
0000
0000
0000
0000
0000
0000
0000
0000
0000
0000
0000
0000
0000
0000
0000
0000
0000
0000
0000
3001
0000
0000
0000
0000
0000
0000
0000
0000
0000
0000
0000
0000
0000
0000
0000
0000
0000
0000
0000
0000
0000
0000
0000
0000
0000
0000
0000
0000
0000
0000
0000
0000
0000
0000
0000
0000
0000
0000
0000
0000
0000
0000
0000
0000
0000
0000
0000
1000
0000
0000
0000
0000
0000
0000
0000
0000
0000
0000
0000
0000
0000
0000
0000
0000
0000
0000
0000
0000
0000
0000
0000
0100
0000
0000
0000
0000
0000
0000
0000
0000
0000
0000
0000
0000
0000
0000
0000
0000
0000
0000
0000
0000
0000
0000
0000
,  // measure 26
0010
0100
1000
0000
0001
0100
0010
0100
,  // measure 27
0001
0000
1000
0001
0100
0001
1000
0100
,  // measure 28
0010
0100
1000
0001
0100
0000
0001
0010
,  // measure 29
0100
0010
0001
0000
1000
0010
0100
0010
,  // measure 30
1000
0000
0000
0000
0000
0000
0000
0000
0000
0000
0000
0000
0000
0000
0000
0000
0000
0000
0000
0000
0000
0000
0000
0000
0000
0000
0000
0000
0000
0000
0000
0000
0000
0000
0000
0000
0000
0000
0000
0000
0000
0000
0000
0000
0000
0000
0000
0100
0000
0000
0000
0000
0000
0000
0000
0000
0000
0000
0000
0000
0000
0000
0000
0000
0000
0000
0000
0000
0000
0000
0000
0100
0000
0000
0000
0000
0000
0000
0000
0000
0000
0000
0000
0000
0000
0000
0000
0000
0000
0000
0000
0000
0000
0000
0000
0000
0001
0000
0000
0000
0000
0000
0000
0000
0000
0000
0000
0000
0000
0000
0000
0000
0000
0000
0000
0000
0000
0000
0000
0010
0000
0000
0000
0000
0000
0000
0000
0000
0000
0000
0000
0000
0000
0000
0000
0000
0000
0000
0000
0000
0000
0000
0000
0010
0000
0000
0000
0000
0000
0000
0000
0000
0000
0000
0000
0000
0000
0000
0000
0000
0000
0000
0000
0000
0000
0000
0000
0000
0000
0000
0000
0000
0000
0000
0000
0000
0000
0000
0000
0000
0000
0000
0000
0000
0000
0000
0000
0000
0000
0000
0000
0000
,  // measure 31
1000
0000
0000
0000
0000
0000
0000
0000
0000
0000
0000
0000
0000
0000
0000
0000
0000
0000
0000
0000
0000
0000
0000
0000
0100
0000
0000
0000
0000
0000
0000
0000
0000
0000
0000
0000
0000
0000
0000
0000
0000
0000
0000
0000
0000
0000
0000
0000
0010
0000
0000
0000
0000
0000
0000
0000
0000
0000
0000
0000
0000
0000
0000
0000
0000
0000
0000
0000
0000
0000
0000
0000
0001
0000
0000
0000
0000
0000
0000
0000
0000
0000
0000
0000
0000
0000
0000
0000
0000
0000
0000
0000
0000
0000
0000
0000
0010
0000
0000
0000
0000
0000
0000
0000
0000
0000
0000
0000
0000
0000
0000
0000
0000
0000
0000
0000
0000
0000
0000
0000
0000
0000
0000
0000
0000
0000
0000
0000
0000
0000
0000
0000
0000
0000
0000
0000
0000
0000
0000
0000
0000
0000
0000
0100
0000
0000
0000
0000
0000
0000
0000
0000
0000
0000
0000
0000
0000
0000
0000
0000
0000
0000
0000
0000
0000
0000
0000
0100
0000
0000
0000
0000
0000
0000
0000
0000
0000
0000
0000
0000
0000
0000
0000
0000
0000
0000
0000
0000
0000
0000
0000
0000
,  // measure 32
0001
0000
0000
0000
0000
0000
0000
0000
0000
0000
0000
0000
0000
0000
0000
0000
0000
0000
0000
0000
0000
0000
0000
0000
1000
0000
0000
0000
0000
0000
0000
0000
0000
0000
0000
0000
0000
0000
0000
0000
0000
0000
0000
0000
0000
0000
0000
0000
0010
0000
0000
0000
0000
0000
0000
0000
0000
0000
0000
0000
0000
0000
0000
0000
0000
0000
0000
0000
0000
0000
0000
0000
0000
0000
0000
0000
0000
0000
0000
0000
0000
0000
0000
0000
0000
0000
0000
0000
0000
0000
0000
0000
0000
0000
0000
0100
0000
0000
0000
0000
0000
0000
0000
0000
0000
0000
0000
0000
0000
0000
0000
0000
0000
0000
0000
0000
0000
0000
0000
0100
0000
0000
0000
0000
0000
0000
0000
0000
0000
0000
0000
0000
0000
0000
0000
0000
0000
0000
0000
0000
0000
0000
0000
0000
1000
0000
0000
0000
0000
0000
0000
0000
0000
0000
0000
0000
0000
0000
0000
0000
0000
0000
0000
0000
0000
0000
0000
0000
0001
0000
0000
0000
0000
0000
0000
0000
0000
0000
0000
0000
0000
0000
0000
0000
0000
0000
0000
0000
0000
0000
0000
0000
,  // measure 33
0010
0100
0010
0001
1000
0001
0100
0010
,  // measure 34
0100
0001
1000
0001
1000
0100
0010
0100
,  // measure 35
0001
0100
2000
3100
0020
0130
0002
0103
,  // measure 36
2000
0000
0000
0000
0000
0000
0000
0000
0000
0000
0000
0000
0000
0000
0000
0000
0000
0000
0000
0000
0000
0000
0000
0000
3100
0000
0000
0000
0000
0000
0000
0000
0000
0000
0000
0000
0000
0000
0000
0000
0000
0000
0000
0000
0000
0000
0000
0000
0010
0000
0000
0000
0000
0000
0000
0000
0000
0000
0000
0000
0000
0000
0000
0000
0000
0000
0000
0000
0000
0000
0000
0000
0100
0000
0000
0000
0000
0000
0000
0000
0000
0000
0000
0000
0000
0000
0000
0000
0000
0000
0000
0000
0000
0000
0000
0000
0001
0000
0000
0000
0000
0000
0000
0000
0000
0000
0000
0000
0000
0000
0000
0000
0000
0000
0000
0000
0000
0000
0000
0000
0100
0000
0000
0000
0000
0000
0000
0000
0000
0000
0000
0000
0000
0000
0000
0000
0000
0000
0000
0000
0000
0000
0000
0000
0000
0000
0000
0000
0000
0000
0000
0000
0000
0000
0000
0000
0000
0000
0000
0000
0000
0000
0000
0000
0000
0000
0000
1010
0000
0000
0000
0000
0000
0000
0000
0000
0000
0000
0000
0000
0000
0000
0000
0000
0000
0000
0000
0000
0000
0000
0000
0000
,  // measure 37
0000
0000
0000
0000
0000
0000
0000
0000
0000
0000
0000
0000
0000
0000
0000
0000
0000
0000
0000
0000
0000
0000
0000
1010
0000
0000
0000
0000
0000
0000
0000
0000
0000
0000
0000
0000
0000
0000
0000
0000
0000
0000
0000
0000
0000
0000
0000
0000
0000
0000
0000
0000
0000
0000
0000
0000
0000
0000
0000
0000
0000
0000
0000
0000
0000
0000
0000
0000
0000
0000
0000
1010
0000
0000
0000
0000
0000
0000
0000
0000
0000
0000
0000
0000
0000
0000
0000
0000
0000
0000
0000
0000
0000
0000
0000
0000
0001
0000
0000
0000
0000
0000
0000
0000
0000
0000
0000
0000
0000
0000
0000
0000
0000
0000
0000
0000
0000
0000
0000
0000
0010
0000
0000
0000
0000
0000
0000
0000
0000
0000
0000
0000
0000
0000
0000
0000
0000
0000
0000
0000
0000
0000
0000
0000
0100
0000
0000
0000
0000
0000
0000
0000
0000
0000
0000
0000
0000
0000
0000
0000
0000
0000
0000
0000
0000
0000
0000
0000
0010
0000
0000
0000
0000
0000
0000
0000
0000
0000
0000
0000
0000
0000
0000
0000
0000
0000
0000
0000
0000
0000
0000
0000
,  // measure 38
1000
0000
0000
0000
0000
0000
0000
0000
0000
0000
0000
0000
0000
0000
0000
0000
0000
0000
0000
0000
0000
0000
0000
0000
0010
0000
0000
0000
0000
0000
0000
0000
0000
0000
0000
0000
0000
0000
0000
0000
0000
0000
0000
0000
0000
0000
0000
0000
0002
0000
0000
0000
0000
0000
0000
0000
0000
0000
0000
0000
0000
0000
0000
0000
0000
0000
0000
0000
0000
0000
0000
0000
0013
0000
0000
0000
0000
0000
0000
0000
0000
0000
0000
0000
0000
0000
0000
0000
0000
0000
0000
0000
0000
0000
0000
0000
0200
0000
0000
0000
0000
0000
0000
0000
0000
0000
0000
0000
0000
0000
0000
0000
0000
0000
0000
0000
0000
0000
0000
0000
0310
0000
0000
0000
0000
0000
0000
0000
0000
0000
0000
0000
0000
0000
0000
0000
0000
0000
0000
0000
0000
0000
0000
0000
2000
0000
0000
0000
0000
0000
0000
0000
0000
0000
0000
0000
0000
0000
0000
0000
0000
0000
0000
0000
0000
0000
0000
0000
3010
0000
0000
0000
0000
0000
0000
0000
0000
0000
0000
0000
0000
0000
0000
0000
0000
0000
0000
0000
0000
0000
0000
0101
,  // measure 39
0000
0000
0000
0000
0000
0000
0000
0000
0000
0000
0000
0000
0000
0000
0000
0000
0000
0000
0000
0000
0000
0000
0000
0000
0000
0000
0000
0000
0000
0000
0000
0000
0000
0000
0000
0000
0000
0000
0000
0000
0000
0000
0000
0000
0000
0000
0000
1010
0000
0000
0000
0000
0000
0000
0000
0000
0000
0000
0000
0000
0000
0000
0000
0000
0000
0000
0000
0000
0000
0000
0000
0000
0000
0000
0000
0000
0000
0000
0000
0000
0000
0000
0000
0000
0000
0000
0000
0000
0000
0000
0000
0000
0000
0000
0000
0000
1001
0000
0000
0000
0000
0000
0000
0000
0000
0000
0000
0000
0000
0000
0000
0000
0000
0000
0000
0000
0000
0000
0000
0000
0000
0000
0000
0000
0000
0000
0000
0000
0000
0000
0000
0000
0000
0000
0000
0000
0000
0000
0000
0000
0000
0000
0000
1100
0000
0000
0000
0000
0000
0000
0000
0000
0000
0000
0000
0000
0000
0000
0000
0000
0000
0000
0000
0000
0000
0000
0000
0000
0000
0000
0000
0000
0000
0000
0000
0000
0000
0000
0000
0000
0000
0000
0000
0000
0000
0000
0000
0000
0000
0000
0000
0011
,  // measure 40
0000
0000
0110
0000
1000
0010
0100
0001
,  // measure 41
0010
0000
0001
0100
0010
1000
0100
0000
,  // measure 42
1000
0100
0010
0001
0100
0000
0001
0010
,  // measure 43
0100
0000
0000
0000
0000
0000
0000
0000
0000
0000
0000
0000
0000
0000
0000
0000
0000
0000
0000
0000
0000
0000
0000
0000
1000
0000
0000
0000
0000
0000
0000
0000
0000
0000
0000
0000
0000
0000
0000
0000
0000
0000
0000
0000
0000
0000
0000
0000
0010
0000
0000
0000
0000
0000
0000
0000
0000
0000
0000
0000
0000
0000
0000
0000
0000
0000
0000
0000
0000
0000
0000
0000
0000
0000
0000
0000
0000
0000
0000
0000
0000
0000
0000
0000
0000
0000
0000
0000
0000
0000
0000
0000
0000
0000
0000
0000
2000
0000
0000
0000
0000
0000
0000
0000
0000
0000
0000
0000
0000
0000
0000
0000
0000
0000
0000
0000
0000
0000
0000
0000
0000
0000
0000
0000
0000
0000
0000
0000
0000
0000
0000
0000
0000
0000
0000
0000
0000
0000
0000
0000
0000
0000
0000
0000
0100
0000
0000
0000
0000
0000
0000
0000
0000
0000
0000
0000
0000
0000
0000
0000
0000
0000
0000
0000
0000
0000
0000
0000
0000
0000
0000
0000
0000
0000
0000
0000
0000
0000
0000
0000
0000
0000
0000
0000
0000
0000
0000
0000
0000
0000
0000
0011
,  // measure 44
3000
0000
0000
0000
0000
0000
0000
0000
0000
0000
0000
0000
0000
0000
0000
0000
0000
0000
0000
0000
0000
0000
0000
0000
0000
0000
0000
0000
0000
0000
0000
0000
0000
0000
0000
0000
0000
0000
0000
0000
0000
0000
0000
0000
0000
0000
0000
0000
0002
0000
0000
0000
0000
0000
0000
0000
0000
0000
0000
0000
0000
0000
0000
0000
0000
0000
0000
0000
0000
0000
0000
0000
0000
0000
0000
0000
0000
0000
0000
0000
0000
0000
0000
0000
0000
0000
0000
0000
0000
0000
0000
0000
0000
0000
0000
0000
0100
0000
0000
0000
0000
0000
0000
0000
0000
0000
0000
0000
0000
0000
0000
0000
0000
0000
0000
0000
0000
0000
0000
0000
0000
0000
0000
0000
0000
0000
0000
0000
0000
0000
0000
0000
0000
0000
0000
0000
0000
0000
0000
0000
0000
0000
0000
1010
0003
0000
0000
0000
0000
0000
0000
0000
0000
0000
0000
0000
0000
0000
0000
0000
0000
0000
0000
0000
0000
0000
0000
0000
0000
0000
0000
0000
0000
0000
0000
0000
0000
0000
0000
0000
0000
0000
0000
0000
0000
0000
0000
0000
0000
0000
0000
0000
,  // measure 45
1000
0001
0100
0010
0001
1000
0100
0010
,  // measure 46
1000
0001
0010
0000
0001
0100
0010
0000
,  // measure 47
1010
0000
1000
0100
0000
0020
0000
0000
,  // measure 48
0031
0010
0001
0010
0100
1000
0010
0000
,  // measure 49
0101
0000
0001
0100
0000
0020
0000
0000
,  // measure 50
1030
0010
1000
0010
0100
0001
0010
0000
,  // measure 51
1100
0000
1000
0001
0000
2000
0000
0000
,  // measure 52
3001
0100
0001
0100
0010
1000
0001
0000
,  // measure 53
1001
0000
0000
0000
0000
0000
0000
0000
0000
0000
0000
0000
0000
0000
0000
0000
0000
0000
0000
0000
0000
0000
0000
0000
0000
0000
0000
0000
0000
0000
0000
0000
0000
0000
0000
0000
0000
0000
0000
0000
0000
0000
0000
0000
0000
0000
0000
0000
1000
0000
0000
0000
0000
0000
0000
0000
0000
0000
0000
0000
0000
0000
0000
0000
0000
0000
0000
0000
0000
0000
0000
0000
0010
0000
0000
0000
0000
0000
0000
0000
0000
0000
0000
0000
0000
0000
0000
0000
0000
0000
0000
0000
0000
0000
0000
1100
0000
0000
0000
0000
0000
0000
0000
0000
0000
0000
0000
0000
0000
0000
0000
0000
0000
0000
0000
0000
0000
0000
0000
0000
0010
0000
0000
0000
0000
0000
0000
0000
0000
0000
0000
0000
0000
0000
0000
0000
0000
0000
0000
0000
0000
0000
0000
0000
0100
0000
0000
0000
0000
0000
0000
0000
0000
0000
0000
0000
0000
0000
0000
0000
0000
0000
0000
0000
0000
0000
0000
0000
0001
0000
0000
0000
0000
0000
0000
0000
0000
0000
0000
0000
0000
0000
0000
0000
0000
0000
0000
0000
0000
0000
0000
1010
,  // measure 54
0000
0000
0000
0000
0000
0000
0000
0000
0000
0000
0000
0000
0000
0000
0000
0000
0000
0000
0000
0000
0000
0000
0000
0000
0100
0000
0000
0000
0000
0000
0000
0000
0000
0000
0000
0000
0000
0000
0000
0000
0000
0000
0000
0000
0000
0000
0000
0000
0010
0000
0000
0000
0000
0000
0000
0000
0000
0000
0000
0000
0000
0000
0000
0000
0000
0000
0000
0000
0000
0000
0000
0000
0001
0000
0000
0000
0000
0000
0000
0000
0000
0000
0000
0000
0000
0000
0000
0000
0000
0000
0000
0000
0000
0000
0000
0100
0000
0000
0000
0000
0000
0000
0000
0000
0000
0000
0000
0000
0000
0000
0000
0000
0000
0000
0000
0000
0000
0000
0000
0100
0000
0000
0000
0000
0000
0000
0000
0000
0000
0000
0000
0000
0000
0000
0000
0000
0000
0000
0000
0000
0000
0000
0000
0000
1000
0000
0000
0000
0000
0000
0000
0000
0000
0000
0000
0000
0000
0000
0000
0000
0000
0000
0000
0000
0000
0000
0000
0000
0000
0000
0000
0000
0000
0000
0000
0000
0000
0000
0000
0000
0000
0000
0000
0000
0000
0000
0000
0000
0000
0000
0000
0000
,  // measure 55
0010
1000
0001
0100
0000
0110
0000
0010
,  // measure 56
0100
0000
0000
0000
0000
0000
0000
0000
0000
0000
0000
0000
0000
0000
0000
0000
0000
0000
0000
0000
0000
0000
0000
0000
0001
0000
0000
0000
0000
0000
0000
0000
0000
0000
0000
0000
0000
0000
0000
0000
0000
0000
0000
0000
0000
0000
0000
0000
0100
0000
0000
0000
0000
0000
0000
0000
0000
0000
0000
0000
0000
0000
0000
0000
0000
0000
0000
0000
0000
0000
0000
0000
0001
0000
0000
0000
0000
0000
0000
0000
0000
0000
0000
0000
0000
0000
0000
0000
0000
0000
0000
0000
0000
0000
0000
0010
0000
0000
0000
0000
0000
0000
0000
0000
0000
0000
0000
0000
0000
0000
0000
0000
0000
0000
0000
0000
0000
0000
0000
0010
0000
0000
0000
0000
0000
0000
0000
0000
0000
0000
0000
0000
0000
0000
0000
0000
0000
0000
0000
0000
0000
0000
0000
0000
1000
0000
0000
0000
0000
0000
0000
0000
0000
0000
0000
0000
0000
0000
0000
0000
0000
0000
0000
0000
0000
0000
0000
0000
0000
0000
0000
0000
0000
0000
0000
0000
0000
0000
0000
0000
0000
0000
0000
0000
0000
0000
0000
0000
0000
0000
0000
0000
,  // measure 57
0001
0010
0100
1000
0000
1100
0000
0100
,  // measure 58
0010
0000
0000
0000
0000
0000
0000
0000
0000
0000
0000
0000
0000
0000
0000
0000
0000
0000
0000
0000
0000
0000
0000
0000
0001
0000
0000
0000
0000
0000
0000
0000
0000
0000
0000
0000
0000
0000
0000
0000
0000
0000
0000
0000
0000
0000
0000
0000
0010
0000
0000
0000
0000
0000
0000
0000
0000
0000
0000
0000
0000
0000
0000
0000
0000
0000
0000
0000
0000
0000
0000
0000
0001
0000
0000
0000
0000
0000
0000
0000
0000
0000
0000
0000
0000
0000
0000
0000
0000
0000
0000
0000
0000
0000
0000
0100
0000
0000
0000
0000
0000
0000
0000
0000
0000
0000
0000
0000
0000
0000
0000
0000
0000
0000
0000
0000
0000
0000
0000
0100
0000
0000
0000
0000
0000
0000
0000
0000
0000
0000
0000
0000
0000
0000
0000
0000
0000
0000
0000
0000
0000
0000
0000
0000
1000
0000
0000
0000
0000
0000
0000
0000
0000
0000
0000
0000
0000
0000
0000
0000
0000
0000
0000
0000
0000
0000
0000
0000
0000
0000
0000
0000
0000
0000
0000
0000
0000
0000
0000
0000
0000
0000
0000
0000
0000
0000
0000
0000
0000
0000
0000
0000
,  // measure 59
0001
1000
0010
0100
0000
1010
0000
0010
,  // measure 60
1000
0000
0000
0000
0000
0000
0000
0000
0000
0000
0000
0000
0000
0000
0000
0000
0000
0000
0000
0000
0000
0000
0000
0000
0001
0000
0000
0000
0000
0000
0000
0000
0000
0000
0000
0000
0000
0000
0000
0000
0000
0000
0000
0000
0000
0000
0000
0000
1000
0000
0000
0000
0000
0000
0000
0000
0000
0000
0000
0000
0000
0000
0000
0000
0000
0000
0000
0000
0000
0000
0000
0000
0001
0000
0000
0000
0000
0000
0000
0000
0000
0000
0000
0000
0000
0000
0000
0000
0000
0000
0000
0000
0000
0000
0000
0010
0000
0000
0000
0000
0000
0000
0000
0000
0000
0000
0000
0000
0000
0000
0000
0000
0000
0000
0000
0000
0000
0000
0000
0010
0000
0000
0000
0000
0000
0000
0000
0000
0000
0000
0000
0000
0000
0000
0000
0000
0000
0000
0000
0000
0000
0000
0000
0000
1000
0000
0000
0000
0000
0000
0000
0000
0000
0000
0000
0000
0000
0000
0000
0000
0000
0000
0000
0000
0000
0000
0000
0000
0000
0000
0000
0000
0000
0000
0000
0000
0000
0000
0000
0000
0000
0000
0000
0000
0000
0000
0000
0000
0000
0000
0000
0000
,  // measure 61
1010
0000
0000
0000
0000
0000
0000
0000
0000
0000
0000
0000
0000
0000
0000
0000
0000
0000
0000
0000
0000
0000
0000
0000
0000
0000
0000
0000
0000
0000
0000
0000
0000
0000
0000
0000
0000
0000
0000
0000
0000
0000
0000
0000
0000
0000
0000
0000
0010
0000
0000
0000
0000
0000
0000
0000
0000
0000
0000
0000
0000
0000
0000
0000
0000
0000
0000
0000
0000
0000
0000
0000
0100
0000
0000
0000
0000
0000
0000
0000
0000
0000
0000
0000
0000
0000
0000
0000
0000
0000
0000
0000
0000
0000
0000
0011
0000
0000
0000
0000
0000
0000
0000
0000
0000
0000
0000
0000
0000
0000
0000
0000
0000
0000
0000
0000
0000
0000
0000
0000
0100
0000
0000
0000
0000
0000
0000
0000
0000
0000
0000
0000
0000
0000
0000
0000
0000
0000
0000
0000
0000
0000
0000
0000
0010
0000
0000
0000
0000
0000
0000
0000
0000
0000
0000
0000
0000
0000
0000
0000
0000
0000
0000
0000
0000
0000
0000
0000
1000
0000
0000
0000
0000
0000
0000
0000
0000
0000
0000
0000
0000
0000
0000
0000
0000
0000
0000
0000
0000
0000
0000
0101
,  // measure 62
0000
0010
0100
1000
0001
0010
0100
0010
,  // measure 63
0001
1000
0010
1000
0001
0100
0010
0100
,  // measure 64
0001
1000
0100
1000
0001
0100
0010
1000
,  // measure 65
0100
0010
0001
1000
0010
0000
0010
0010
,  // measure 66
0000
0010
0010
0000
1000
0100
0010
0100
,  // measure 67
1000
0001
0100
0001
1000
0010
0100
0010
,  // measure 68
1000
0001
0010
0001
0000
1001
0000
0000
,  // measure 69
0101
0000
0000
0110
0000
0000
1010
0000
,  // measure 70
0000
1001
0000
0000
0001
0100
0010
0100
,  // measure 71
1000
0100
0001
0100
1000
0100
0010
0100
,  // measure 72
0001
0000
1000
0100
0010
0100
0001
0100
,  // measure 73
1000
0100
0001
0100
0010
0100
1000
0000
,  // measure 74
0001
0100
0010
1000
0010
0100
0001
0010
,  // measure 75
0100
1000
0100
0010
0001
0100
1000
0001
,  // measure 76
0010
1000
0001
0001
0001
1000
1000
1000
,  // measure 77
0001
0100
0010
1000
0001
0010
0100
1000
,  // measure 78
0010
0100
0001
1000
0100
0010
0001
1000
,  // measure 79
0010
0100
0001
0100
0010
1000
0001
1000
,  // measure 80
0100
0000
0100
0100
0000
0100
0100
0000
,  // measure 81
1000
0010
0100
0001
1000
0100
0010
0001
,  // measure 82
0100
0010
1000
0001
0010
0100
1000
0001
,  // measure 83
0000
0000
0000
0000
0000
0000
0000
0000
0000
0000
0000
0000
0000
0000
0000
0000
0000
0000
0000
0000
0000
0000
0000
0101
1000
0000
0000
0000
0000
0000
0000
0000
0000
0000
0000
0000
0000
0000
0000
0000
0000
0000
0000
0000
0000
0000
0000
0000
0000
0000
0000
0000
0000
0000
0000
0000
0000
0000
0000
0000
0000
0000
0000
0000
0000
0000
0000
0000
0000
0000
0000
0000
0000
0000
0000
0000
0000
0000
0000
0000
0000
0000
0000
0000
0000
0000
0000
0000
0000
0000
0000
0000
0000
0000
0000
0101
0010
0000
0000
0000
0000
0000
0000
0000
0000
0000
0000
0000
0000
0000
0000
0000
0000
0000
0000
0000
0000
0000
0000
0000
0000
0000
0000
0000
0000
0000
0000
0000
0000
0000
0000
0000
0000
0000
0000
0000
0000
0000
0000
0000
0000
0000
0000
0000
0000
0000
0000
0000
0000
0000
0000
0000
0000
0000
0000
0000
0000
0000
0000
0000
0000
0000
0000
0000
0000
0000
0000
1010
0001
0000
0000
0000
0000
0000
0000
0000
0000
0000
0000
0000
0000
0000
0000
0000
0000
0000
0000
0000
0000
0000
0000
0000
,  // measure 84
0000
0000
0000
0000
0000
0000
0000
0000
0000
0000
0000
0000
0000
0000
0000
0000
0000
0000
0000
0000
0000
0000
0000
0000
0000
0000
0000
0000
0000
0000
0000
0000
0000
0000
0000
0000
0000
0000
0000
0000
0000
0000
0000
0000
0000
0000
0000
1010
0100
0000
0000
0000
0000
0000
0000
0000
0000
0000
0000
0000
0000
0000
0000
0000
0000
0000
0000
0000
0000
0000
0000
0000
0000
0000
0000
0000
0000
0000
0000
0000
0000
0000
0000
0000
0000
0000
0000
0000
0000
0000
0000
0000
0000
0000
0000
0000
0000
0000
0000
0000
0000
0000
0000
0000
0000
0000
0000
0000
0000
0000
0000
0000
0000
0000
0000
0000
0000
0000
0000
0000
1001
0000
0000
0000
0000
0000
0000
0000
0000
0000
0000
0000
0000
0000
0000
0000
0000
0000
0000
0000
0000
0000
0000
0000
0000
0000
0000
0000
0000
0000
0000
0000
0000
0000
0000
0000
0000
0000
0000
0000
0000
0000
0000
0000
0000
0000
0000
0000
0000
0000
0000
0000
0000
0000
0000
0000
0000
0000
0000
0000
0000
0000
0000
0000
0000
0000
0000
0000
0000
0000
0000
0000
,  // measure 85
0110
0000
0001
0000
,  // measure 86
1100
0011
1010
0101
,  // measure 87
1000
0000
1000
0000
1000
0000
0000
0101
,  // measure 88
0000
1010
0000
0001
0010
0000
0001
0100
,  // measure 89
0010
0000
0000
0000
0000
0000
0000
0000
0000
0000
0000
0000
0000
0000
0000
0000
0000
0000
0000
0000
0000
0000
0000
0000
0100
0000
0000
0000
0000
0000
0000
0000
0000
0000
0000
0000
0000
0000
0000
0000
0000
0000
0000
0000
0000
0000
0000
0000
0001
0000
0000
0000
0000
0000
0000
0000
0000
0000
0000
0000
0000
0000
0000
0000
0000
0000
0000
0000
0000
0000
0000
0000
0010
0000
0000
0000
0000
0000
0000
0000
0000
0000
0000
0000
0000
0000
0000
0000
0000
0000
0000
0000
0000
0000
0000
0000
0100
0000
0000
0000
0000
0000
0000
0000
0000
0000
0000
0000
0000
0000
0000
0000
0000
0000
0000
0000
0000
0000
0000
0000
1000
0000
0000
0000
0000
0000
0000
0000
0000
0000
0000
0000
0000
0000
0000
0000
0000
0000
0000
0000
0000
0000
0000
0000
0001
0000
0000
0000
0000
0000
0000
0000
0000
0000
0000
0000
0000
0000
0000
0000
0000
0000
0000
0000
0000
0000
0000
0100
0000
0000
0000
0000
0000
0000
0000
0000
0000
0000
0000
0000
0000
0000
0000
0000
0000
0000
0000
0000
0000
0000
0000
0100
,  // measure 90
0000
0000
0000
0000
0000
0000
0000
0000
0000
0000
0000
0000
0000
0000
0000
0000
0000
0000
0000
0000
0000
0000
0000
0000
1000
0000
0000
0000
0000
0000
0000
0000
0000
0000
0000
0000
0000
0000
0000
0000
0000
0000
0000
0000
0000
0000
0000
0000
0010
0000
0000
0000
0000
0000
0000
0000
0000
0000
0000
0000
0000
0000
0000
0000
0000
0000
0000
0000
0000
0000
0000
0000
0100
0000
0000
0000
0000
0000
0000
0000
0000
0000
0000
0000
0000
0000
0000
0000
0000
0000
0000
0000
0000
0000
0000
0000
0001
0000
0000
0000
0000
0000
0000
0000
0000
0000
0000
0000
0000
0000
0000
0000
0000
0000
0000
0000
0000
0000
0000
0000
1000
0000
0000
0000
0000
0000
0000
0000
0000
0000
0000
0000
0000
0000
0000
0000
0000
0000
0000
0000
0000
0000
0000
0000
0001
0000
0000
0000
0000
0000
0000
0000
0000
0000
0000
0000
0000
0000
0000
0000
0000
0000
0000
0000
0000
0000
0000
0010
0000
0000
0000
0000
0000
0000
0000
0000
0000
0000
0000
0000
0000
0000
0000
0000
0000
0000
0000
0000
0000
0000
0000
0010
,  // measure 91
0000
1000
0001
0010
1000
0010
0001
1000
,  // measure 92
0010
0001
0010
1000
0010
0100
0001
1000
,  // measure 93
0100
0010
0001
0100
1000
0100
0001
1000
,  // measure 94
0100
0001
0100
1000
0010
0100
0010
0100
,  // measure 95
0010
0000
0100
0010
1000
0000
0100
1000
,  // measure 96
0100
0000
0010
0100
0010
0000
0001
0010
,  // measure 97
0001
0000
1000
0001
1000
0000
0010
1000
,  // measure 98
0010
0000
0100
0010
0100
0001
0000
0010
,  // measure 99
0001
1000
0100
0010
0001
1000
0100
1000
,  // measure 100
0001
1000
0010
1000
0001
0100
0010
0100
,  // measure 101
1000
0100
0010
0100
0001
0010
0100
0010
,  // measure 102
1000
0010
0100
0010
0001
0010
0100
1000
,  // measure 103
0001
0100
0010
1000
0001
0000
0100
0001
,  // measure 104
0100
0000
0010
0100
0010
0000
1000
0010
,  // measure 105
1000
0000
0001
1000
0001
0000
0010
0001
,  // measure 106
0010
0000
0100
0010
0100
1000
0000
0010
,  // measure 107
1000
0001
0100
0010
1000
0100
0010
0100
,  // measure 108
0001
0000
0000
0000
0000
0000
0000
0000
0000
0000
0000
0000
0000
0000
0000
0000
0000
0000
0000
0000
0000
0000
0000
0000
0100
0000
0000
0000
0000
0000
0000
0000
0000
0000
0000
0000
0000
0000
0000
0000
0000
0000
0000
0000
0000
0000
0000
0010
0000
0000
0000
0000
0000
0000
0000
0000
0000
0000
0000
0000
0000
0000
0000
0000
0000
0000
0000
0000
0000
0000
0000
0010
0000
0000
0000
0000
0000
0000
0000
0000
0000
0000
0000
0000
0000
0000
0000
0000
0000
0000
0000
0000
0000
0000
0000
0000
1000
0000
0000
0000
0000
0000
0000
0000
0000
0000
0000
0000
0000
0000
0000
0000
0000
0000
0000
0000
0000
0000
0000
0000
0010
0000
0000
0000
0000
0000
0000
0000
0000
0000
0000
0000
0000
0000
0000
0000
0000
0000
0000
0000
0000
0000
0000
0000
0100
0000
0000
0000
0000
0000
0000
0000
0000
0000
0000
0000
0000
0000
0000
0000
0000
0000
0000
0000
0000
0000
0000
0000
0010
0000
0000
0000
0000
0000
0000
0000
0000
0000
0000
0000
0000
0000
0000
0000
0000
0000
0000
0000
0000
0000
0000
0000
,  // measure 109
0001
0000
0000
0000
0000
0000
0000
0000
0000
0000
0000
0000
0000
0000
0000
0000
0000
0000
0000
0000
0000
0000
0000
0000
0010
0000
0000
0000
0000
0000
0000
0000
0000
0000
0000
0000
0000
0000
0000
0000
0000
0000
0000
0000
0000
0000
0000
0100
0000
0000
0000
0000
0000
0000
0000
0000
0000
0000
0000
0000
0000
0000
0000
0000
0000
0000
0000
0000
0000
0000
0000
0100
0000
0000
0000
0000
0000
0000
0000
0000
0000
0000
0000
0000
0000
0000
0000
0000
0000
0000
0000
0000
0000
0000
0000
0000
1000
0000
0000
0000
0000
0000
0000
0000
0000
0000
0000
0000
0000
0000
0000
0000
0000
0000
0000
0000
0000
0000
0000
0000
0001
0000
0000
0000
0000
0000
0000
0000
0000
0000
0000
0000
0000
0000
0000
0000
0000
0000
0000
0000
0000
0000
0000
0000
0010
0000
0000
0000
0000
0000
0000
0000
0000
0000
0000
0000
0000
0000
0000
0000
0000
0000
0000
0000
0000
0000
0000
0000
0001
0000
0000
0000
0000
0000
0000
0000
0000
0000
0000
0000
0000
0000
0000
0000
0000
0000
0000
0000
0000
0000
0000
0000
,  // measure 110
1000
0000
0000
0000
0000
0000
0000
0000
0000
0000
0000
0000
0000
0000
0000
0000
0000
0000
0000
0000
0000
0000
0000
0000
0001
0000
0000
0000
0000
0000
0000
0000
0000
0000
0000
0000
0000
0000
0000
0000
0000
0000
0000
0000
0000
0000
0000
0000
0100
0000
0000
0000
0000
0000
0000
0000
0000
0000
0000
0000
0000
0000
0000
0000
0000
0000
0000
0000
0000
0000
0000
0001
0000
0000
0000
0000
0000
0000
0000
0000
0000
0000
0000
0000
0000
0000
0000
0000
0000
0000
0000
0000
0000
0000
0000
0001
0000
0000
0000
0000
0000
0000
0000
0000
0000
0000
0000
0000
0000
0000
0000
0000
0000
0000
0000
0000
0000
0000
0000
0000
0010
0000
0000
0000
0000
0000
0000
0000
0000
0000
0000
0000
0100
0000
0000
0000
0000
0000
0000
0000
0000
0000
0000
0000
0010
0000
0000
0000
0000
0000
0000
0000
0000
0000
0000
0000
0000
0000
0000
0000
0000
0000
0000
0000
0000
0000
0000
0000
1000
0000
0000
0000
0000
0000
0000
0000
0000
0000
0000
0000
0000
0000
0000
0000
0000
0000
0000
0000
0000
0000
0000
0000
,  // measure 111
0001
0010
0100
1000
1100
0000
0001
0100
,  // measure 112
0010
1000
0100
0010
0011
0000
0001
0010
,  // measure 113
0100
1000
0010
0100
0101
0000
1000
0100
,  // measure 114
0010
0001
0100
0010
1010
0000
1000
0100
,  // measure 115
0010
0001
1000
0000
0011
0000
0110
0000
,  // measure 116
1100
0000
0000
0000
0000
0000
0000
0000
0000
0000
0000
0000
0000
0000
0000
0000
0000
0000
0000
0000
0000
0000
0000
0000
0000
0000
0000
0000
0000
0000
0000
0000
0000
0000
0000
0000
0000
0000
0000
0000
0000
0000
0000
0000
0000
0000
0000
0000
1010
0000
0000
0000
0000
0000
0000
0000
0000
0000
0000
0000
0000
0000
0000
0000
0000
0000
0000
0000
0000
0000
0000
0000
0000
0000
0000
0000
0000
0000
0000
0000
0000
0000
0000
0000
0000
0000
0000
0000
0000
0000
0000
0000
0000
0000
0000
0000
1001
0000
0000
0000
0000
0000
0000
0000
0000
0000
0000
0000
0000
0000
0000
0000
0000
0000
0000
0000
0000
0000
0000
0000
0000
0000
0000
0000
0000
0000
0000
0000
0000
0000
0000
0000
0000
0000
0000
0000
0000
0000
0000
0000
0000
0000
0000
0000
0101
0000
0000
0000
0000
0000
0000
0000
0000
0000
0000
0000
0000
0000
0000
0000
0000
0000
0000
0000
0000
0000
0000
0000
0000
0000
0000
0000
0000
0000
0000
0000
0000
0000
0000
0000
0000
0000
0000
0000
0000
0000
0000
0000
0000
0000
0000
1100
,  // measure 117
0001
0000
0000
0000
0000
0000
0000
0000
0000
0000
0000
0000
0000
0000
0000
0000
0000
0000
0000
0000
0000
0000
0000
0000
0000
0000
0000
0000
0000
0000
0000
0000
0000
0000
0000
0000
0000
0000
0000
0000
0000
0000
0000
0000
0000
0000
0000
1100
0010
0000
0000
0000
0000
0000
0000
0000
0000
0000
0000
0000
0000
0000
0000
0000
0000
0000
0000
0000
0000
0000
0000
0000
0000
0000
0000
0000
0000
0000
0000
0000
0000
0000
0000
0000
0000
0000
0000
0000
0000
0000
0000
0000
0000
0000
0000
0011
1000
0000
0000
0000
0000
0000
0000
0000
0000
0000
0000
0000
0000
0000
0000
0000
0000
0000
0000
0000
0000
0000
0000
0000
0000
0000
0000
0000
0000
0000
0000
0000
0000
0000
0000
0000
0000
0000
0000
0000
0000
0000
0000
0000
0000
0000
0000
0011
0100
0000
0000
0000
0000
0000
0000
0000
0000
0000
0000
0000
0000
0000
0000
0000
0000
0000
0000
0000
0000
0000
0000
0000
0000
0000
0000
0000
0000
0000
0000
0000
0000
0000
0000
0000
0000
0000
0000
0000
0000
0000
0000
0000
0000
0000
0000
1111
,  // measure 118
0000
0000
0000
0000
1000
0100
0010
0001
,  // measure 119
0010
0100
1000
0010
0100
0001
0100
0010
,  // measure 120
1000
0100
0001
1000
0010
0001
0100
1000
,  // measure 121
0001
0000
0000
0000
0000
0000
0000
0000
0000
0000
0000
0000
0000
0000
0000
0000
0000
0000
0000
0000
0000
0000
0000
0000
0010
0000
0000
0000
0000
0000
0000
0000
0000
0000
0000
0000
0000
0000
0000
0000
0000
0000
0000
0000
0000
0000
0000
0000
1000
0000
0000
0000
0000
0000
0000
0000
0000
0000
0000
0000
0000
0000
0000
0000
0000
0000
0000
0000
0000
0000
0000
0000
0000
0000
0000
0000
0000
0000
0000
0000
0000
0000
0000
0000
0000
0000
0000
0000
0000
0000
0000
0000
0000
0000
0000
0000
0001
0000
0000
0000
0000
0000
0000
0000
0000
0000
0000
0000
0000
0000
0000
0000
0000
0000
0000
0000
0000
0000
0000
0000
0000
0000
0000
0000
0000
0000
0000
0000
0000
0000
0000
0000
0000
0000
0000
0000
0000
0000
0000
0000
0000
0000
0000
0000
0011
0000
0000
0000
0000
0000
0000
0000
0000
0000
0000
0000
0000
0000
0000
0000
0000
0000
0000
0000
0000
0000
0000
0000
0000
0000
0000
0000
0000
0000
0000
0000
0000
0000
0000
0000
0000
0000
0000
0000
0000
0000
0000
0000
0000
0000
0000
0101
,  // measure 122
0010
0000
0000
0000
0000
0000
0000
0000
0000
0000
0000
0000
0000
0000
0000
0000
0000
0000
0000
0000
0000
0000
0000
0000
0000
0000
0000
0000
0000
0000
0000
0000
0000
0000
0000
0000
0000
0000
0000
0000
0000
0000
0000
0000
0000
0000
0000
0000
1000
0000
0000
0000
0000
0000
0000
0000
0000
0000
0000
0000
0000
0000
0000
0000
0000
0000
0000
0000
0000
0000
0000
0000
0000
0000
0000
0000
0000
0000
0000
0000
0000
0000
0000
0000
0000
0000
0000
0000
0000
0000
0000
0000
0000
0000
0000
0000
1100
0000
0000
0000
0000
0000
0000
0000
0000
0000
0000
0000
0000
0000
0000
0000
0000
0000
0000
0000
0000
0000
0000
0000
0000
0000
0000
0000
0000
0000
0000
0000
0000
0000
0000
0000
0000
0000
0000
0000
0000
0000
0000
0000
0000
0000
0000
1010
0100
0000
0000
0000
0000
0000
0000
0000
0000
0000
0000
0000
0000
0000
0000
0000
0000
0000
0000
0000
0000
0000
0000
0000
0000
0000
0000
0000
0000
0000
0000
0000
0000
0000
0000
0000
0000
0000
0000
0000
0000
0000
0000
0000
0000
0000
0000
0000
,  // measure 123
0001
1000
0100
0010
1000
0001
0100
0010
,  // measure 124
0001
0000
0000
0000
0000
0000
0000
0000
0000
0000
0000
0000
0000
0000
0000
0000
0000
0000
0000
0000
0000
0000
0000
0000
1000
0000
0000
0000
0000
0000
0000
0000
0000
0000
0000
0000
0000
0000
0000
0000
0000
0000
0000
0000
0000
0000
0000
0000
0010
0000
0000
0000
0000
0000
0000
0000
0000
0000
0000
0000
0000
0000
0000
0000
0000
0000
0000
0000
0000
0000
0000
0000
0000
0000
0000
0000
0000
0000
0000
0000
0000
0000
0000
0000
0000
0000
0000
0000
0000
0000
0000
0000
0000
0000
0000
0000
0100
0000
0000
0000
0000
0000
0000
0000
0000
0000
0000
0000
0000
0000
0000
0000
0000
0000
0000
0000
0000
0000
0000
0000
0010
0000
0000
0000
0000
0000
0000
0000
0000
0000
0000
0000
0000
0000
0000
0000
0000
0000
0000
0000
0000
0000
0000
1100
0000
0000
0000
0000
0000
0000
0000
0000
0000
0000
0000
0000
0000
0000
0000
0000
0000
0000
0000
0000
0000
0000
0000
0000
0000
0000
0000
0000
0000
0000
0000
0000
0000
0000
0000
0000
0000
0000
0000
0000
0000
0000
0000
0000
0000
0000
0000
0011
,  // measure 125
0000
0000
0000
0000
0000
0000
0000
0000
0000
0000
0000
0000
0000
0000
0000
0000
0000
0000
0000
0000
0000
0000
0000
0000
0000
0000
0000
0000
0000
0000
0000
0000
0000
0000
0000
0000
0000
0000
0000
0000
0000
0000
0000
0000
0000
0000
0000
0000
1000
0000
0000
0000
0000
0000
0000
0000
0000
0000
0000
0000
0000
0000
0000
0000
0000
0000
0000
0000
0000
0000
0000
0000
0001
0000
0000
0000
0000
0000
0000
0000
0000
0000
0000
0000
0000
0000
0000
0000
0000
0000
0000
0000
0000
0000
0000
1010
0000
0000
0000
0000
0000
0000
0000
0000
0000
0000
0000
0000
0000
0000
0000
0000
0000
0000
0000
0000
0000
0000
0000
0000
0000
0000
0000
0000
0000
0000
0000
0000
0000
0000
0000
0000
0000
0000
0000
0000
0000
0000
0000
0000
0000
0000
0000
0101
0000
0000
0000
0000
0000
0000
0000
0000
0000
0000
0000
0000
0000
0000
0000
0000
0000
0000
0000
0000
0000
0000
0000
0000
0000
0000
0000
0000
0000
0000
0000
0000
0000
0000
0000
0000
0000
0000
0000
0000
0000
0000
0000
0000
0000
0000
0000
0000
,  // measure 126
1000
0000
0000
0000
0000
0000
0000
0000
0000
0000
0000
0000
0000
0000
0000
0000
0000
0000
0000
0000
0000
0000
0000
0000
1001
0000
0000
0000
0000
0000
0000
0000
0000
0000
0000
0000
0000
0000
0000
0000
0000
0000
0000
0000
0000
0000
0000
0000
0000
0000
0000
0000
0000
0000
0000
0000
0000
0000
0000
0000
0000
0000
0000
0000
0000
0000
0000
0000
0000
0000
0000
1111
0000
0000
0000
0000
0000
0000
0000
0000
0000
0000
0000
0000
0000
0000
0000
0000
0000
0000
0000
0000
0000
0000
0000
0000
0000
0000
0000
0000
0000
0000
0000
0000
0000
0000
0000
0000
0000
0000
0000
0000
0000
0000
0000
0000
0000
0000
0000
0000
0000
0000
0000
0000
0000
0000
0000
0000
0000
0000
0000
0000
0000
0000
0000
0000
0000
0000
0000
0000
0000
0000
0000
0000
0000
0000
0000
0000
0000
0000
0000
0000
0000
0000
0000
0000
0000
0000
0000
0000
0000
0000
0000
0000
0000
0000
0000
0000
0000
0000
0000
0000
0000
0000
0000
0000
0000
0000
0000
0000
0000
0000
0000
0000
0000
0000
0000
0000
0000
0000
0000
0000
;
