#VERSION:0.83;
#TITLE:KYAFA;
#SUBTITLE:Kill You All Fucking Asshole;
#ARTIST:Camellia;
#TITLETRANSLIT:;
#SUBTITLETRANSLIT:;
#ARTISTTRANSLIT:;
#GENRE:;
#ORIGIN:;
#CREDIT:;
#BANNER:[Tech Savvy] - Kill You All Fucking Asshole.png;
#BACKGROUND:[Tech Savvy] - Kill You All Fucking Asshole-bg.png;
#PREVIEWVID:;
#JACKET:[Tech Savvy] - Kill You All Fucking Asshole-jacket.png;
#CDIMAGE:;
#DISCIMAGE:;
#LYRICSPATH:;
#CDTITLE:cdtitle.png;
#MUSIC:[Tech Savvy] - Kill You All Fucking Asshole.ogg;
#OFFSET:0.000000;
#SAMPLESTART:78.545456;
#SAMPLELENGTH:12.000000;
#SELECTABLE:YES;
#BPMS:0.000=220.000;
#STOPS:;
#DELAYS:;
#WARPS:;
#TIMESIGNATURES:0.000=4=4;
#TICKCOUNTS:0.000=4;
#COMBOS:0.000=1;
#SPEEDS:0.000=1.000=0.000=0;
#SCROLLS:0.000=1.000;
#FAKES:;
#LABELS:0.000=Song Start;
#BGCHANGES:;
#KEYSOUNDS:;
#ATTACKS:
;

//---------------dance-single - ----------------
#NOTEDATA:;
#CHARTNAME:;
#STEPSTYPE:dance-single;
#DESCRIPTION:;
#CHARTSTYLE:;
#DIFFICULTY:Easy;
#METER:6;
#RADARVALUES:0.494824,0.757913,0.257210,0.085737,0.017147,404.000000,374.000000,30.000000,10.000000,0.000000,0.000000,0.000000,0.000000,0.000000,0.494824,0.757913,0.257210,0.085737,0.017147,404.000000,374.000000,30.000000,10.000000,0.000000,0.000000,0.000000,0.000000,0.000000;
#CREDIT:;
#NOTES:
0000
0000
0000
0000
,
0000
0000
0000
0000
,
0000
0000
0000
0000
,
0000
0000
0000
0000
,
1001
0000
0000
0001
0000
0000
0000
0000
,
0000
0000
0000
0000
,
1000
0000
0000
1000
0000
0000
0000
0000
,
0000
0000
0000
0000
,
0010
0000
0000
0010
0000
0000
0000
0000
,
0000
0000
0000
0000
,
0100
0000
0000
0100
0000
0000
0000
0000
,
0000
0000
0000
0000
,
0001
0000
0000
0001
0000
0000
0000
0000
,
0000
0000
0000
0000
,
0010
0100
0010
0000
0100
1000
0001
0000
,
1001
0000
0000
1001
0000
0000
0001
0000
1000
0000
0001
0000
,
1000
1000
1000
1000
,
0010
0010
0010
0010
,
0100
0100
0100
0100
,
0001
0001
0001
0001
,
0010
0010
0010
0010
,
0100
0100
0100
0100
,
1000
1000
1000
1000
,
0010
0010
0010
0010
,
1000
0001
1000
0000
1000
0010
0100
0000
,
0001
1000
0001
0000
0001
0010
0100
0000
,
1000
0001
1000
0000
1000
0010
0100
0000
,
0001
1000
0001
0000
0001
0010
0100
0000
,
1000
0001
1000
0001
1000
0001
1000
0001
,
0100
0010
0100
0010
0100
0010
0100
0010
,
1000
1001
0011
1100
,
1001
0000
0000
0000
,
1001
0000
0001
0000
1000
0010
0000
0010
,
0000
0010
0100
0001
0000
0001
2000
0000
,
3001
0000
1000
0000
0001
0010
0000
0010
,
0000
0000
0000
0010
0000
0000
0100
0000
0000
1000
0000
0000
0001
0000
0000
0000
1000
0000
0000
0000
0001
0000
0000
0000
,
1000
0000
0001
0000
1000
0010
0000
0010
,
0000
0010
0100
0001
0010
0000
0200
0000
,
1300
1000
0010
0100
,
0000
0000
0001
0010
0001
0000
0000
0000
,
1000
0000
0000
1000
0000
0000
1001
0000
,
0001
0100
0010
1000
0001
0000
2000
0000
,
3001
0000
1000
0000
0001
0100
0000
0100
,
0000
0100
0010
1000
0000
1000
0000
0000
,
1001
0000
0001
0000
,
0001
0000
0001
0000
,
1001
1001
1001
1001
,
0001
1000
0001
1000
0001
1000
0001
0000
,
1001
0000
0000
1000
0010
0000
0100
0000
,
0000
0000
0001
0010
0001
1000
0000
0000
,
0001
0000
0000
0001
0010
0000
0100
0000
,
2000
3002
0000
0000
,
1003
0000
0000
1000
0100
0000
0010
0000
,
0000
0000
0001
0100
0001
1000
0000
0000
,
0001
0000
0001
1000
0001
1000
0010
0100
,
0010
0100
0001
1000
0001
0000
0000
0000
,
1001
0000
0000
0001
0100
0000
0010
0000
,
0000
0000
1000
0100
1000
0001
0000
0000
,
1000
0000
0000
1000
0100
0000
0010
0000
,
0002
2003
0000
0000
,
3001
0000
0000
1000
0100
0000
0010
0000
,
0000
0001
0100
0000
0010
0000
1000
0000
,
0001
0000
0000
1000
0100
0000
0010
0000
,
0001
1000
0001
1000
0001
0000
0000
0000
,
1000
1000
1000
1000
,
0010
0010
0010
0010
,
0100
0100
0100
0100
,
0001
0001
0001
0001
,
1001
1001
1001
1001
,
1001
1001
1001
1001
,
1000
0001
1000
0001
1000
0001
1000
0001
,
0100
0000
0000
0000
,
1001
0000
1000
0001
0010
0100
0000
0100
,
0000
0100
0000
0100
0000
0100
2000
0000
,
3001
0000
0001
1000
0010
0100
0000
0100
,
0000
0100
0000
0100
1000
0000
0001
0000
,
1000
0000
1000
0001
0100
0010
0000
0010
,
0000
0010
0000
0010
0000
0010
2000
0000
,
3001
0000
0001
1000
0001
0000
1000
0010
,
1000
0000
0001
0010
0001
0000
0100
0000
,
0001
0000
0001
1000
0100
0010
0000
0010
,
0000
0010
0000
0010
0000
0010
0002
0000
,
1003
0000
1000
0001
0100
0010
0000
0010
,
0000
0010
1000
0001
1000
0010
0000
0000
,
1001
0000
1000
0001
0100
0000
0001
1000
,
0010
0000
1000
0001
0100
0000
0001
1000
,
0001
0010
0100
1000
,
1001
1001
1001
1001
,
1000
0000
0000
1000
0010
0000
0000
0000
,
0000
0000
0000
0000
,
0001
0000
0000
0001
0010
0000
0000
0000
,
0000
0000
0000
0000
,
1000
0000
0000
1000
0100
0000
0000
0000
,
0000
0000
0000
0000
,
0001
0000
0000
0001
0100
0000
0000
0000
,
0000
0000
0000
0000
,
1000
0000
0000
1000
0010
0000
0000
0000
,
0000
0000
0000
0000
,
0001
0000
0000
0001
0010
0000
0000
0000
,
0000
0000
0000
0000
,
1000
0000
0000
1000
0100
0000
0000
0000
,
0000
0000
0000
0000
,
0001
0000
0000
0001
0100
0000
0000
0000
,
0000
0000
0000
0000
,
0010
0000
0000
0000
;

//---------------dance-single - ----------------
#NOTEDATA:;
#CHARTNAME:;
#STEPSTYPE:dance-single;
#DESCRIPTION:;
#CHARTSTYLE:;
#DIFFICULTY:Medium;
#METER:9;
#RADARVALUES:0.696918,0.802497,0.068589,0.102884,0.042868,569.000000,561.000000,8.000000,12.000000,0.000000,0.000000,0.000000,0.000000,0.000000,0.696918,0.802497,0.068589,0.102884,0.042868,569.000000,561.000000,8.000000,12.000000,0.000000,0.000000,0.000000,0.000000,0.000000;
#CREDIT:;
#NOTES:
// measure 0
0000
0000
0000
0000
,  // measure 1
0000
0000
0000
0000
,  // measure 2
0000
0000
0000
0000
,  // measure 3
0000
0000
0000
0000
,  // measure 4
1000
0000
0000
1000
0010
0000
0100
0000
,  // measure 5
0000
0001
0010
0000
0100
0000
0000
0000
,  // measure 6
1000
0000
0000
1000
0100
0000
0010
0000
,  // measure 7
0000
0001
0100
0020
1000
0000
0000
0030
,  // measure 8
0001
0000
0000
0001
0100
0000
0010
0000
,  // measure 9
0000
1000
0100
0000
0010
0000
0000
0000
,  // measure 10
0001
0000
0000
0001
0010
0000
0100
0000
,  // measure 11
0000
1000
0010
0000
0100
0000
0000
0000
,  // measure 12
1000
0000
0000
1000
0010
0000
0100
0000
,  // measure 13
0000
0001
0010
0000
0100
0000
0000
0000
,  // measure 14
1000
0010
0100
0000
0001
0010
0100
1000
,  // measure 15
0002
0000
0000
0103
0000
0000
0002
0000
0000
0103
0000
0000
0001
0000
1000
0000
0001
0000
1000
0000
0010
0000
0100
0000
,  // measure 16
0001
0000
0001
0000
0001
1000
0001
0000
,  // measure 17
0010
0000
0010
0000
0010
0100
0010
0001
,  // measure 18
1000
0000
1000
0000
1000
0001
1000
0000
,  // measure 19
0010
0010
0010
0010
,  // measure 20
1000
0000
1000
0000
1000
0001
1000
0000
,  // measure 21
0100
0000
0100
0000
0100
0010
0100
1000
,  // measure 22
0001
0000
0001
0000
0001
1000
0001
0000
,  // measure 23
0100
0100
0100
0100
,  // measure 24
0010
0100
0001
0000
0010
0100
1000
0000
,  // measure 25
0010
0100
0001
0000
0010
0100
1000
0000
,  // measure 26
0010
0100
0001
0000
0010
0100
1000
0000
,  // measure 27
0010
0100
0001
0000
0010
0100
1000
0000
,  // measure 28
0001
1000
0010
0100
0001
1000
0010
0100
,  // measure 29
0001
1000
0100
0010
0001
1000
0100
0010
,  // measure 30
0001
0100
0010
1000
0100
0010
0001
0100
,  // measure 31
0010
0000
0000
0000
,  // measure 32
1001
0000
0001
1000
0100
0010
0100
1000
,  // measure 33
0000
0001
0100
0010
0100
0001
2000
0000
,  // measure 34
3001
0000
0001
1000
0100
0010
0100
1000
,  // measure 35
0000
0000
0000
0001
0000
0000
0100
0000
0000
0010
0000
0000
1000
0000
0000
0000
0100
0000
0000
0000
0100
0000
0000
0000
,  // measure 36
0001
0000
0001
1000
0100
0010
0100
1000
,  // measure 37
0000
0001
0100
0010
0100
0001
2000
0000
,  // measure 38
3100
0010
0100
0010
0001
1000
0001
0100
,  // measure 39
0010
1000
0001
0010
0100
0000
0000
0000
,  // measure 40
1000
0000
0000
1000
0001
0000
1001
0000
,  // measure 41
0010
0100
0001
1000
0100
0010
0001
0000
,  // measure 42
1000
0000
1000
0001
0010
0100
0010
0001
,  // measure 43
0000
0000
0000
1000
0000
0000
0010
0000
0000
0100
0000
0000
0001
0000
0000
0000
0010
0000
0000
0000
0010
0000
0000
0000
,  // measure 44
1000
0100
0010
0000
0001
0100
0010
0000
,  // measure 45
1000
0100
0010
0000
0001
0100
0010
0000
,  // measure 46
1000
0001
1000
0010
1000
0001
1000
0100
,  // measure 47
1000
0010
0100
0001
1000
0100
0010
0000
,  // measure 48
0001
0100
0010
1000
0100
0010
0001
0100
,  // measure 49
0010
0100
0001
0100
0010
1000
0010
0100
,  // measure 50
0010
1000
0100
0010
0001
0100
0010
0100
,  // measure 51
0002
2003
0000
0000
,  // measure 52
3001
0100
0010
1000
0100
0010
0001
0100
,  // measure 53
0010
0100
0001
0100
0010
1000
0010
0100
,  // measure 54
0010
0000
0100
0010
1000
0010
0100
0001
,  // measure 55
0100
0000
0000
0010
0000
0000
1000
0000
0000
0001
0000
0000
1000
0000
0000
0000
0100
0000
0000
0000
0100
0000
0000
0000
,  // measure 56
0001
1000
0100
0010
0001
0100
0010
0100
,  // measure 57
0001
0010
0100
1000
0010
0100
0010
1000
,  // measure 58
0100
0010
0001
0100
0010
0100
0001
0010
,  // measure 59
0200
2300
0000
0000
,  // measure 60
3001
0000
0000
0001
0100
0000
0100
0000
,  // measure 61
0000
1000
0100
0000
0100
0000
0010
0000
,  // measure 62
1000
0000
0000
1000
0100
0000
0100
0010
,  // measure 63
0100
0001
0010
0100
1000
0000
0000
0000
,  // measure 64
1001
0001
0001
0001
,  // measure 65
0010
0010
0010
0010
,  // measure 66
0100
0100
0100
0100
,  // measure 67
1000
1000
1000
1000
,  // measure 68
0010
0100
0001
1000
0010
0100
0001
1000
,  // measure 69
0100
0010
0001
1000
0100
0010
0001
1000
,  // measure 70
0010
0100
0001
0010
0100
1000
0010
0100
,  // measure 71
0001
0000
0000
0000
,  // measure 72
1001
0000
1000
0010
0100
0001
1000
0001
,  // measure 73
0010
0001
1000
0001
0100
0001
2000
0000
,  // measure 74
3001
0000
0001
0010
0100
1000
0001
1000
,  // measure 75
0010
1000
0001
1000
0100
0010
0100
1000
,  // measure 76
0001
0000
0001
0100
0010
1000
0001
1000
,  // measure 77
0100
1000
0001
1000
0010
1000
0002
0000
,  // measure 78
1003
0010
1000
0010
0100
0001
1000
0100
,  // measure 79
0010
0001
0010
0100
1000
0010
0100
0001
,  // measure 80
1000
0000
1000
0010
0100
0001
1000
0001
,  // measure 81
0010
0001
1000
0001
0100
0001
2000
0000
,  // measure 82
3001
0000
0001
0010
0100
1000
0001
1000
,  // measure 83
0010
1000
0100
0100
0001
1000
0000
0000
,  // measure 84
0001
0010
0100
1000
0001
0010
0100
1000
,  // measure 85
0001
0100
0010
1000
0001
0100
0010
1000
,  // measure 86
0001
0010
0001
1000
0001
0100
0001
1000
,  // measure 87
0010
0010
0100
0100
0010
0010
0100
0000
,  // measure 88
1001
0000
0000
1000
0010
0000
0010
0000
,  // measure 89
0000
0001
0010
0000
0010
0000
0000
0000
,  // measure 90
1000
0000
0000
1000
0100
0000
0100
0000
,  // measure 91
0000
0001
0100
0000
0100
0000
0000
0000
,  // measure 92
1001
0000
0000
0001
0100
0000
0100
0000
,  // measure 93
0000
1000
0100
0000
0100
0000
0000
0000
,  // measure 94
0001
0000
0000
0001
0010
0000
0010
0000
,  // measure 95
0000
1000
0001
0010
0001
0000
0000
0000
,  // measure 96
1001
0000
0000
1000
0010
0000
0010
0000
,  // measure 97
0000
0001
0010
0000
0010
0000
0000
0000
,  // measure 98
1000
0000
0000
1000
0100
0000
0100
0000
,  // measure 99
0000
0001
0100
0000
0100
0000
0000
0000
,  // measure 100
1001
0000
0000
0001
0100
0000
0100
0000
,  // measure 101
0000
1000
0100
0000
0100
0000
0000
0000
,  // measure 102
0001
0000
0000
0001
0010
0000
0010
0000
,  // measure 103
0000
1000
0001
0000
0100
0000
0000
0000
,  // measure 104
0010
0000
0000
0000
;

//---------------dance-single - ----------------
#NOTEDATA:;
#CHARTNAME:;
#STEPSTYPE:dance-single;
#DESCRIPTION:;
#CHARTSTYLE:;
#DIFFICULTY:Hard;
#METER:10;
#RADARVALUES:0.835322,1.114579,0.120032,0.231489,0.278645,682.000000,668.000000,14.000000,27.000000,0.000000,0.000000,0.000000,0.000000,0.000000,0.835322,1.114579,0.120032,0.231489,0.278645,682.000000,668.000000,14.000000,27.000000,0.000000,0.000000,0.000000,0.000000,0.000000;
#CREDIT:;
#NOTES:
0000
0000
0000
0000
,
0000
0000
0000
0000
,
0000
0000
0000
0000
,
0000
0000
0000
0000
,
1001
0000
0000
1000
0010
0000
0010
0000
,
0000
0001
0010
0000
0010
0000
0100
0000
,
0001
0000
0000
0001
0010
0000
0010
0000
,
0000
1000
0010
0200
0010
0000
0000
0300
,
1001
0000
0000
0001
0100
0000
0100
0000
,
0000
1000
0100
0000
0100
0000
0010
0000
,
1000
0000
0000
1000
0100
0000
0100
0000
,
0000
0001
0100
0000
0100
0000
0000
0000
,
1001
0000
0000
1000
0010
0000
0010
0000
,
0000
0001
0010
0000
0010
0000
0100
0000
,
0001
0010
0100
1000
0010
0000
0010
0100
,
0202
0000
0000
0303
0000
0000
0022
0000
0000
0033
0000
0000
1000
0000
0010
0000
0100
0000
0010
0000
1000
0000
0001
0000
,
0010
0100
0010
0001
0100
0010
0010
0000
,
1000
0000
0100
0000
0010
0000
0100
0000
1000
0000
0001
0100
0000
0000
0100
0000
,
0010
1000
0010
0100
0001
0010
0010
0000
,
0100
0010
0100
0001
0010
0100
1000
0000
,
0100
0010
0100
1000
0010
0100
0100
0000
,
0001
0000
0010
0000
0100
0000
0010
0000
0001
0000
1000
0010
0000
0000
0010
0000
,
0100
0001
0100
0010
1000
0100
0100
0000
,
0010
0100
0010
1000
0100
0010
0001
0000
,
0100
0010
1000
0001
0100
0010
1000
0001
,
0010
0100
1000
0001
0010
0100
1000
0001
,
0100
0010
1000
0001
0100
0010
1000
0001
,
0010
0100
1000
0001
0010
0100
1000
0001
,
0100
0100
0010
0010
0100
0100
0010
0010
,
0100
0100
0010
0010
0100
0100
0010
0010
,
1000
0001
1000
0000
1000
0001
1000
0000
1000
0001
1000
0000
1000
0001
1000
0000
,
0010
0000
0000
0000
,
1002
0000
0000
0000
1003
0000
0000
0001
0010
0000
0010
0000
0000
0000
1000
0000
,
0010
0100
0010
0000
1000
0000
0100
0000
0010
0000
0001
0000
2000
0000
0000
0000
,
3002
0000
0000
0000
1003
0000
0000
0001
0100
0000
0100
0000
0000
0000
1000
0000
,
0100
0000
0000
0010
0000
0000
0100
0000
0000
0000
0000
0000
1000
0000
0000
0000
0000
0000
0001
0000
0000
0000
0000
0000
0100
0000
0000
0000
0000
0000
0000
0000
0100
0000
0000
0000
0000
0000
0000
0000
0100
0000
0000
0000
0000
0000
0000
0000
,
0002
0000
0000
0000
1003
0000
0000
0001
0010
0000
0010
0000
0000
0000
1000
0000
,
0001
0100
0001
0000
0010
0000
0100
0000
1000
0000
0001
0000
0200
0000
0000
0000
,
0310
0000
1000
0000
0001
0000
0010
0000
0100
1000
0100
0000
0010
0000
0001
0000
,
1000
0000
0010
0000
0100
0001
1000
0000
0002
0000
0000
0000
0000
0000
0000
0000
,
1003
0000
0000
0100
1000
0000
2001
0000
,
3001
0010
0001
0000
0100
0000
0010
0000
1000
0000
0100
0000
0020
0000
0000
0000
,
0032
0000
0000
0000
1003
0000
0000
0001
0100
0000
0100
0000
0000
0000
1000
0000
,
0001
0010
0001
0000
0100
0000
0010
0000
1000
0000
0100
0000
0000
0100
0000
0000
,
0001
0010
0100
1000
0001
0010
0100
1000
,
0001
0100
0010
1000
0001
0100
0010
1000
,
0001
1000
0001
0000
0001
1000
0001
0000
0001
1000
0001
0000
0001
1000
0001
0000
,
0100
0010
1000
0100
0010
0001
1000
0000
,
0001
0000
0100
0000
0100
0000
1000
0000
0100
0000
0100
0000
0010
0000
0100
0001
,
0010
0000
0100
0000
0100
0010
1000
0000
0100
0000
0100
0000
0001
0000
1000
0100
,
1000
0010
0100
0010
0010
0100
1000
0001
,
0200
0302
0000
0000
,
1003
0000
0010
0000
0010
0000
0001
0000
0010
0000
0010
0000
0100
0000
0010
1000
,
0100
0000
0010
0000
0010
0100
0001
0000
0010
0000
0010
0000
1000
0000
0001
0010
,
0002
0000
1003
0010
0100
0001
0010
0010
,
0010
0000
0010
0000
1000
0100
1000
0000
0010
0000
0100
0000
0000
0100
0000
0000
,
1000
0000
0010
0000
0010
0000
0001
0000
0010
0000
0010
0000
0100
0000
0010
1000
,
0100
0000
0010
0000
0010
0100
0001
0000
0010
0000
0010
0000
1000
0000
0001
0010
,
0001
0000
0100
0000
0010
0000
0100
0001
0010
0000
0010
0000
0100
0000
0001
0000
,
0020
0230
0000
0000
,
1300
0000
0010
0000
0100
0000
0001
0000
1000
0000
0100
0000
0010
0000
0001
1000
,
0001
0000
0100
0000
0010
0000
1000
0001
1000
0000
0100
0000
0010
0000
0001
1000
,
0001
0100
0010
1000
0001
1000
0010
0100
,
0001
1000
0001
1000
0001
1000
0001
1000
0001
0000
0000
0000
0000
0000
0000
0000
,
1001
1000
1000
1000
,
0010
0010
0010
0010
,
0100
0100
0100
0100
,
0001
0001
0001
0001
,
1000
0001
1000
0000
1000
0001
1000
0000
1000
0001
1000
0000
1000
0001
1000
0000
,
0001
1000
0001
0000
0001
1000
0001
0000
0001
1000
0001
0000
0001
1000
0001
0000
,
0100
0010
1000
0100
0010
0001
1000
0010
,
0100
0000
0000
0000
,
1002
0000
0000
0000
1003
0000
0010
0100
0010
0000
1000
0000
0010
0000
0001
0000
,
0010
1000
0010
0001
0010
0100
0002
0000
,
2003
0000
0000
0000
3001
0000
0010
0100
0010
0000
0001
0000
0010
0000
0100
0000
,
0010
0001
0010
0100
1000
0001
1000
0010
,
2000
0000
0000
0000
3001
0000
0100
0010
0100
0000
0001
0000
0100
0000
1000
0000
,
0100
0001
0100
1000
0100
0010
2000
0000
,
3001
0000
0100
0000
0010
0000
1000
0000
0001
0010
0001
0000
0100
0000
0010
0000
,
0100
0000
0001
0000
1000
0000
0100
0000
0010
0001
0010
0000
0100
0000
1000
0000
,
0002
0000
0000
0000
1003
0000
0010
0100
0010
0000
1000
0000
0010
0000
0001
0000
,
0010
1000
0010
0001
0010
0100
0002
0000
,
2003
0000
0000
0000
3001
0000
0010
0100
0010
0000
0001
0000
0010
0000
0100
0000
,
0010
0001
0010
0100
1000
1000
0000
0000
,
0001
0010
0100
1000
0001
0100
0010
1000
,
0001
0010
0100
1000
0001
0100
0010
1000
,
0001
0010
0001
1000
0001
0100
0001
1000
,
0001
1000
0010
0000
0100
0001
1000
0000
0001
0010
0100
0000
1100
0000
0000
0000
,
1001
0000
0000
1000
0010
0000
0010
0000
,
0001
0010
0010
0000
0100
0000
0001
0000
,
1000
0000
0000
1000
0100
0000
0100
0000
,
0001
0100
0100
0000
1000
0000
0001
0000
,
1001
0000
0000
0001
0100
0000
0100
0000
,
1000
0100
0100
0000
0010
0000
1000
0000
,
0001
0000
0000
0001
0010
0000
0010
0000
,
1000
0010
0010
0100
0000
0000
0000
0000
,
1001
0000
0000
1000
0010
0000
0010
0000
,
0001
0010
0010
0000
0100
0000
0001
0000
,
1000
0000
0000
1000
0100
0000
0100
0000
,
0001
0100
0100
0000
1000
0000
0001
0000
,
1001
0000
0000
0001
0100
0000
0100
0000
,
1000
0100
0100
0000
0010
0000
1000
0000
,
0001
0000
0000
0001
0010
0000
0010
0000
,
1000
0010
0010
0000
0100
0000
0001
0000
,
1000
0000
0000
0000
;

//---------------dance-single - ----------------
#NOTEDATA:;
#CHARTNAME:;
#STEPSTYPE:dance-single;
#DESCRIPTION:;
#CHARTSTYLE:;
#DIFFICULTY:Challenge;
#METER:10;
#RADARVALUES:0.978625,1.382078,0.411537,0.162900,0.497274,799.000000,751.000000,48.000000,19.000000,0.000000,0.000000,0.000000,0.000000,0.000000,0.978625,1.382078,0.411537,0.162900,0.497274,799.000000,751.000000,48.000000,19.000000,0.000000,0.000000,0.000000,0.000000,0.000000;
#CREDIT:;
#NOTES:
0000
0000
0000
0000
,
0000
0000
0000
0000
,
0000
0000
0000
0000
,
0000
0000
0000
0000
,
1001
0000
0000
1000
0010
0000
0110
0000
,
0000
0001
0010
0000
0110
0000
0011
0000
,
1001
0000
0000
0001
0100
0000
0110
0000
,
0000
1000
0100
0020
0100
0000
0000
0030
,
1001
0000
0000
0001
0010
0000
0110
0000
,
0000
1000
0010
0000
0110
0000
1010
0000
,
1001
0000
0000
1000
0100
0000
0110
0000
,
0000
0001
0100
0000
0110
0000
0000
0000
,
1001
0000
0000
1000
0100
0000
0110
0000
,
0000
0001
0100
0000
0110
0000
0101
0000
,
1000
0100
0001
1000
0010
0100
1000
0010
,
0100
0000
0000
0001
0000
0000
0100
0000
0000
0000
0000
0000
1000
0000
0000
0001
0000
0000
1000
0000
0000
0000
0000
0000
0010
0000
0000
0000
0010
0000
0000
0000
0010
0000
0000
0000
0100
0000
0000
0000
0001
0000
0000
0000
1000
0000
0000
0000
,
0100
0010
0100
1000
0010
0100
0100
1000
,
0001
0000
0010
0000
0100
0000
0010
0000
0001
0000
1000
0010
0000
0000
0110
0000
,
0100
0001
0100
0010
1000
0100
0100
0001
,
0010
0100
1000
0010
0100
0001
1000
0000
,
0010
0100
0010
1000
0100
0010
0010
1000
,
0001
0000
0100
0000
0010
0000
0100
0000
0001
0000
1000
0100
0000
0000
0110
0000
,
0010
0001
0010
0100
1000
0010
0010
0001
,
0100
0010
1000
0100
0010
0001
1000
0000
,
0010
0010
0001
1000
0010
0010
0001
1000
,
0100
0100
0001
1000
0100
0100
0001
0010
,
1000
1000
0010
0001
1000
1000
0100
0010
,
0001
0001
0010
1000
0001
0001
0100
0010
,
1000
0100
0001
1000
0010
0001
1000
0010
,
0001
1000
0100
0001
1000
0100
0001
1000
,
0010
0100
0010
0000
0100
0001
0100
0000
0010
0100
0010
0000
1000
0100
1000
0000
,
1001
0000
0000
0000
,
2001
0000
0000
0000
3001
0000
0000
1000
0010
0000
0010
0000
0100
0000
1000
0000
,
0010
0100
0010
0000
1000
0001
0010
0000
0100
0000
1000
0000
0002
0000
0000
0000
,
2003
0000
0000
0000
3001
0000
0000
1000
0100
0000
0100
0000
0010
0000
1000
0000
,
0100
0000
0000
0010
0000
0000
0100
0000
0000
0000
0000
0000
1000
0000
0000
0001
0000
0000
0100
0000
0000
0000
0000
0000
0010
0000
0000
0000
0000
0000
0000
0000
0100
0000
0000
0000
0000
0000
0000
0000
0100
0000
0000
0000
0000
0000
0000
0000
,
2001
0000
0000
0000
3001
0000
0000
1000
0010
0000
0010
0000
0100
0000
1000
0000
,
0010
0100
0010
0000
1000
0001
0010
0000
0100
0000
1000
0000
0002
0000
0000
0000
,
0103
0000
1000
0000
0100
0000
0001
0000
0010
0100
0010
0000
0001
0000
0100
0000
,
1000
0000
0100
0000
0001
0010
0001
0000
1000
0001
1000
0000
0010
0000
0010
0000
,
0100
0000
0000
1000
0010
0000
1002
0000
,
1003
0010
0100
0000
0001
1000
0001
0000
0010
0000
0100
0000
2000
0000
0000
0000
,
3002
0000
0000
0000
1003
0000
0000
0001
0100
0000
0100
0000
1000
0000
0010
0000
,
0100
0001
0010
0000
0100
1000
0010
0000
0000
0000
0100
0000
0000
0100
0000
0000
,
1000
0010
0100
0001
1000
0010
0100
0001
,
1000
0100
0010
0001
1000
0100
0010
0001
,
0100
0010
0100
0000
0001
0010
0001
0000
0100
0010
0100
0000
0001
0010
0001
0000
,
1000
0010
1000
0010
1000
0010
0100
0010
0100
0001
0010
0001
0010
0000
0000
0000
,
1000
0000
0010
0000
0001
0000
1000
0000
0100
0000
0001
0000
1000
0000
0100
0010
,
0100
0000
1000
0000
0001
0100
0010
0000
0100
0000
0001
0000
1000
0000
0100
0000
,
0001
1000
0010
0001
1000
0010
0100
0001
,
2000
0000
0000
0000
3001
0010
0001
0010
0001
1000
0001
1000
0001
0100
0001
0100
,
0001
0000
0010
0000
1000
0000
0001
0000
0100
0000
1000
0000
0001
0000
0100
0010
,
0100
0000
0001
0000
1000
0100
0010
0000
0100
0000
1000
0000
0001
0000
0100
0000
,
1000
0001
1000
0010
0100
0010
1000
0001
,
0010
0000
0100
0000
1000
0010
1000
0000
1001
0000
0001
0000
1000
0010
0000
0000
,
1000
0000
0010
0000
0001
0000
1000
0000
0100
0000
0001
0000
1000
0000
0100
0010
,
0100
0000
1000
0000
0001
0100
0010
0000
0100
0000
0001
0000
1000
0000
0100
0000
,
0001
1000
0010
0001
1000
0010
0100
0001
,
2000
0000
0000
0000
3001
0010
0001
0010
0001
1000
0001
0000
0000
0101
0000
0000
,
0001
0000
0010
0000
1000
0000
0001
0000
0001
0000
0100
0000
0010
0000
1000
0100
,
0010
0000
0100
0000
0100
0000
0001
0100
0010
0000
1000
0000
0001
0000
0010
0100
,
0010
0001
1000
0010
0100
0010
1000
0001
,
0010
0100
0010
0100
1000
0100
1000
0000
0001
0000
0000
0000
0000
0000
0001
0000
,
1000
0000
0100
0000
0010
0000
0100
0000
1000
0000
0010
0100
0010
0000
1000
0000
,
0001
0000
0010
0000
0100
0000
0010
0000
0001
0000
1000
0010
0000
0000
0110
0000
,
0100
0000
0001
0000
0100
0000
1000
0000
0100
0000
0010
1000
0001
0000
0010
0000
,
0100
0000
0001
0000
0100
0000
1000
0000
0100
0000
1000
0001
0100
0000
0010
0000
,
1000
0001
1000
0000
1000
0010
1000
0000
1000
0001
1000
0000
1000
0100
1000
0000
,
0001
1000
0001
0000
0001
0100
0001
0000
0001
1000
0001
0000
0001
0010
0001
0000
,
1000
0100
1000
0100
0010
0100
0010
0001
0100
0010
1000
0001
0100
0010
1000
0001
,
1000
0000
0000
0000
,
2001
0000
0000
0000
3001
0000
0100
0001
0010
0000
1000
0000
0010
0000
0001
0000
,
0010
1000
0010
0001
0010
0100
2100
0000
,
3002
0000
0000
0000
1003
0000
0001
0100
0010
0000
1000
0000
0010
0000
0001
0000
,
0010
1000
0010
0001
0010
1000
0001
1000
,
2001
0000
0000
0000
3001
0000
0100
0001
0010
0000
1000
0000
0010
0000
0001
0000
,
0010
1000
0010
0001
0010
0100
2100
0000
,
3010
0000
0100
0000
1000
0000
0100
0000
0010
1000
0010
1000
0001
0000
0010
0000
,
0100
0000
0010
0000
0001
0000
1000
0000
0100
0010
0100
0010
0001
0000
1000
0000
,
1002
0000
0000
0000
1003
0000
0010
1000
0100
0000
0001
0000
0100
0000
1000
0000
,
0100
0001
0100
1000
0100
0010
0012
0000
,
2003
0000
0000
0000
3001
0000
1000
0010
0100
0000
0001
0000
0100
0000
1000
0000
,
0100
0000
0001
0000
0100
0010
0100
0010
1000
0000
1000
0000
0000
0000
0000
0000
,
1001
0000
0001
0000
1000
0010
0100
0001
1000
0000
1000
0000
0001
0010
0100
1000
,
0001
0000
0001
0000
1000
0010
0100
0001
1000
0000
1000
0000
0001
0010
0100
1000
,
0001
0010
0001
1000
0001
0010
0001
1000
0010
0100
0010
1000
0100
0010
0001
0100
,
0010
1000
0010
0000
0100
0001
0100
0000
0001
0010
0100
0000
1100
0000
0000
0000
,
1001
0000
0000
1000
0010
0000
0100
0000
,
0000
0001
0010
0000
0100
0000
1000
0000
,
0001
0000
0000
0001
0100
0000
0010
0000
,
0000
1000
0100
0000
0010
0000
0100
0000
,
1001
0000
0000
0001
0010
0000
0100
0000
,
0000
1000
0010
0000
0100
0000
0001
0000
,
1000
0000
0000
1000
0100
0000
0010
0000
,
0000
0001
0100
0010
0000
0000
0100
0000
,
1001
0000
0000
0001
0100
0000
0110
0000
,
0000
1000
0100
0000
0110
0000
0010
0000
,
1001
0000
0000
1000
0010
0000
0110
0000
,
0000
0001
0010
0000
0110
0000
0100
0000
,
1001
0000
0000
0001
0100
0000
0110
0000
,
0000
1000
0100
0000
0110
0000
0010
0000
,
1001
0000
0000
1000
0010
0000
0110
0000
,
0000
0001
0010
0000
0110
0000
0100
0000
,
1000
0000
0000
0000
;
