#TITLE:HELL SCAPER;
#SUBTITLE:;
#ARTIST:L.E.D.LIGHT-G;
#TITLETRANSLIT:;
#SUBTITLETRANSLIT:;
#ARTISTTRANSLIT:;
#CREDIT:;
#BANNER:HELL SCAPER.png;
#BACKGROUND:HELL SCAPER-BG.png;
#LYRICSPATH:;
#CDTITLE:cdtitle.png;
#MUSIC:HELL SCAPER.ogg;
#OFFSET:0.000;
#SAMPLESTART:24.000;
#SAMPLELENGTH:10.100;
#SELECTABLE:YES;
#BPMS:0.000=190.000,140.000=195.000,156.000=200.000;
#STOPS:;
#BGCHANGES:;

//---------------dance-single - Kitty Box----------------
#NOTES:
     dance-single:
     Kitty Box:
     Challenge:
     10:
     0.770,0.859,0.021,0.128,0.369: // measure 1
0000
0000
0000
0000
,  // measure 2
0000
0000
0000
0000
,  // measure 3
0000
0000
0000
0000
,  // measure 4
0000
0000
0000
0000
,  // measure 5
0001
0010
0100
1000
,  // measure 6
0100
0000
0010
0000
0100
0000
0000
0000
1000
0000
0000
1000
0100
0000
0010
0000
,  // measure 7
0001
0100
0010
1000
,  // measure 8
0100
0000
0000
0000
0010
0000
0100
0000
1000
0000
0010
0000
0100
0000
0001
1000
,  // measure 9
0001
0010
0100
1000
0100
0010
0001
0100
,  // measure 10
0010
1000
0100
0010
0100
1000
0001
0100
,  // measure 11
0001
0010
0100
1000
0010
0100
0001
1000
,  // measure 12
0100
0000
0010
0001
1000
0000
0100
0000
0010
0001
1000
0100
1000
0010
1000
0001
,  // measure 13
1000
0000
0000
0000
,  // measure 14
0000
0000
0000
0000
,  // measure 15
0001
0010
0100
1000
0100
0010
0001
1000
0002
0000
0000
0000
0000
0000
0000
0000
,  // measure 16
1003
0000
0100
0000
1000
0000
0100
0000
1000
0100
0000
0000
0001
0000
0000
0000
,  // measure 17
0100
0000
1000
0001
1000
0000
0100
0000
0010
0001
0010
0001
0010
0100
0010
0100
,  // measure 18
1000
0000
0010
0000
1000
0000
0010
0000
1000
0010
0000
0000
0001
0000
0000
0000
,  // measure 19
0010
0000
0000
0000
0000
0000
0000
0000
0000
0000
0000
0000
1000
0001
1000
0001
,  // measure 20
1000
0000
0010
0000
1000
0000
0010
0000
0100
0100
0000
0000
1000
0000
0010
0000
,  // measure 21
0100
0000
0001
0000
0010
0000
0100
0000
0000
0100
0000
0000
0100
0000
1000
0000
,  // measure 22
0001
0000
0100
0000
0001
0000
0100
0000
0010
0010
0000
0000
0001
0000
0010
0000
,  // measure 23
0100
0000
1000
0000
0100
0000
0010
0000
0001
0000
1000
0001
1000
0000
0001
1000
,  // measure 24
0001
0000
0010
0000
0001
0000
0010
0000
0100
0100
0000
0000
0001
0000
0100
0000
,  // measure 25
0010
0000
1000
0000
0100
0000
0010
0000
0000
0010
0000
0000
0010
0000
0001
0000
,  // measure 26
1000
0000
0010
0000
1000
0000
0010
0000
0100
0100
0000
0000
1000
0000
0100
0000
,  // measure 27
0010
0001
0010
0100
0010
1000
0020
0000
,  // measure 28
0031
0010
0001
0010
0001
0010
0010
0010
,  // measure 29
0001
0010
0001
0010
0100
1000
0100
0010
,  // measure 30
0001
0100
0001
0100
0001
0100
0100
0100
,  // measure 31
0001
0100
0001
0100
0001
0010
0100
1000
,  // measure 32
0100
0010
0100
0010
0100
0010
0010
0010
,  // measure 33
0100
0000
0010
0000
0100
0000
0010
0000
0100
0000
0000
0100
0000
0000
0100
0000
,  // measure 34
1000
0100
1000
0100
1000
0010
1000
0010
,  // measure 35
1000
0001
1000
0001
1000
0100
0010
0001
,  // measure 36
1000
0100
1000
0001
1000
0010
1000
0001
,  // measure 37
1000
0000
0100
0000
1000
0000
0010
0000
1000
0000
0000
1000
0000
0000
1000
0000
,  // measure 38
0001
0100
0001
1000
0001
0010
0001
1000
,  // measure 39
0001
0100
0001
1000
0001
0010
1000
0010
,  // measure 40
0001
1000
0001
0100
0001
1000
0001
0010
,  // measure 41
0001
0000
0100
0000
0001
0000
0010
0000
0001
0000
0000
0001
0000
0000
0001
0000
,  // measure 42
2000
3010
0020
0031
,  // measure 43
0020
2030
3200
0320
,  // measure 44
0031
0001
0200
0000
1300
1000
0020
0000
,  // measure 45
0031
0000
0010
0100
0010
0000
0100
0010
0100
0000
1000
0000
0000
0000
0001
0000
,  // measure 46
0010
0000
0010
0000
0000
0000
0000
0000
0100
0000
0100
0000
1000
0001
1000
0001
,  // measure 47
1000
0000
0000
0000
0000
0000
0000
0000
0000
0000
0000
0000
1000
0000
0001
1000
,  // measure 48
0001
0001
0001
0001
0001
0000
0000
0001
,  // measure 49
0000
0001
0000
0001
0010
0010
0010
0010
,  // measure 50
0010
0010
0010
0010
0010
0000
0100
0100
,  // measure 51
0000
0100
0000
0100
0100
0100
0100
0100
,  // measure 52
1000
0000
1001
0000
,  // measure 53
0100
0000
0010
0000
0100
0000
0010
0000
1000
0001
1000
0001
2000
0000
0000
0000
,  // measure 54
3001
0000
0100
0000
0001
0000
0100
0000
0010
0010
0000
0000
0001
0000
0100
0000
,  // measure 55
0010
0000
1000
0000
0100
0000
0010
0000
0000
0010
0000
0000
0010
0000
0001
0000
,  // measure 56
1000
0000
0010
0000
1000
0000
0010
0000
0100
0100
0000
0000
1000
0000
0100
0000
,  // measure 57
0010
0000
0001
0000
0010
0000
0100
0000
1000
0000
0010
0000
0100
0001
0100
0001
,  // measure 58
1000
0000
0100
0000
1000
0000
0100
0000
0010
0010
0000
0000
1000
0000
0010
0000
,  // measure 59
0100
0000
0001
0000
0010
0000
0100
0000
0000
0100
0000
0000
0100
0000
1000
0000
,  // measure 60
0001
0000
0010
0000
0001
0000
0010
0000
0100
0100
0000
0000
0001
0000
0010
0000
,  // measure 61
0100
0000
1000
0000
0100
0000
0010
0000
0001
1000
0001
1000
0002
0000
0000
0000
,  // measure 62
1003
0000
0010
0000
1000
0000
0010
0000
0100
0100
0000
0000
1000
0000
0010
0000
,  // measure 63
0100
0000
0001
0000
0010
0000
0100
0000
0000
0100
1000
0000
0100
0010
0100
0010
,  // measure 64
0001
0000
0100
0000
0001
0000
0100
0000
0010
0010
0000
0000
0001
0000
0100
0000
,  // measure 65
0010
0000
1000
0000
0100
0000
0010
0000
0000
0010
0001
0000
0010
0100
0010
0100
,  // measure 66
1000
0000
0100
0000
1000
0000
0100
0000
0010
0010
0000
0000
1000
0000
0100
0000
,  // measure 67
0010
0000
0001
0000
0100
0000
0010
0000
0000
0010
1000
0000
0100
0010
0100
0010
,  // measure 68
0001
0000
0100
0000
0001
0000
0100
0000
0010
0010
0000
0000
0001
0000
0100
0000
,  // measure 69
0010
1000
0001
0010
0100
1000
0100
0010
0001
0100
0010
1000
0001
0010
0100
1000
,  // measure 70
0001
0000
0000
0000
,  // measure 71
0000
0000
0000
0000
,  // measure 72
0000
0000
0000
0000
,  // measure 73
0000
0000
0000
0000
,  // measure 74
1001
0000
0000
0000
;

//---------------dance-single - Kitty Box----------------
#NOTES:
     dance-single:
     Kitty Box:
     Hard:
     9:
     0.710,0.702,0.032,0.053,0.241: // measure 1
0000
0000
0000
0000
,  // measure 2
0000
0000
0000
0000
,  // measure 3
0000
0000
0000
0000
,  // measure 4
0000
0000
0000
0000
,  // measure 5
1000
0100
0010
0001
,  // measure 6
0100
0000
0010
0000
0100
0000
0000
0000
0010
0000
0000
1000
0100
0000
0010
0000
,  // measure 7
0001
0100
0010
1000
,  // measure 8
0100
0000
0010
0001
0010
0001
0100
0001
,  // measure 9
1000
0100
1000
0100
0001
0100
0001
0100
,  // measure 10
1000
0010
1000
0010
0001
0010
0001
0010
,  // measure 11
1000
0100
0001
0100
1000
0010
0001
0010
,  // measure 12
1000
0100
0001
0100
1000
0010
0001
0010
,  // measure 13
1000
0000
0000
0000
,  // measure 14
0000
0000
0000
0000
,  // measure 15
1000
0001
1000
0001
1000
0001
1000
0001
2000
0000
0000
0000
0000
0000
0000
0000
,  // measure 16
3001
0000
0010
0000
0001
0000
0010
0000
0100
1000
0000
0000
1000
0000
0000
0000
,  // measure 17
0001
0010
0100
0010
0001
0100
1000
0100
,  // measure 18
0001
0000
0100
0000
0001
0000
0100
0000
0010
1000
0000
0000
1000
0000
0000
0000
,  // measure 19
1001
0000
0000
0000
,  // measure 20
1000
0000
0100
0000
1000
0000
0100
0000
0010
0001
0000
0001
0010
0000
0001
0000
,  // measure 21
0100
0000
0010
0000
1000
0000
0100
0000
0000
0100
0000
0000
0100
0000
1000
0000
,  // measure 22
0001
0000
0010
0000
0001
0000
0010
0000
0100
1000
0000
1000
0100
0000
1000
0000
,  // measure 23
0010
0000
0100
0000
0001
0000
0010
0000
0000
0010
0000
0000
0010
0000
0001
0000
,  // measure 24
1000
0000
0010
0000
1000
0000
0010
0000
0100
0001
0000
0001
0100
0000
0001
0000
,  // measure 25
0010
0000
0100
0000
1000
0000
0010
0000
0000
0010
0000
0000
0010
0000
1000
0000
,  // measure 26
0001
0000
0100
0000
0001
0000
0100
0000
0010
1000
0000
1000
0010
0000
1000
0000
,  // measure 27
0100
0010
0001
0010
0100
1000
0001
0100
,  // measure 28
0001
0010
0001
0010
0001
0010
1000
0010
,  // measure 29
0001
0100
0001
0100
1000
0100
0001
1000
,  // measure 30
0010
1000
0010
1000
0010
1000
0100
1000
,  // measure 31
0010
1000
0010
1000
0100
0010
0001
1000
,  // measure 32
0001
0100
0001
0100
0001
0100
1000
0100
,  // measure 33
0001
0000
0100
0000
0001
0000
0010
0000
0100
0000
0000
1000
0000
0000
0100
0000
,  // measure 34
1000
0010
1000
0010
0100
0010
0001
0010
,  // measure 35
1000
0000
0000
0000
1000
0100
0010
0001
,  // measure 36
1000
0010
0100
0001
0010
0100
1000
0100
,  // measure 37
0010
0000
0001
0000
0100
0000
0010
0000
1000
0000
0000
0100
0000
0000
0010
0000
,  // measure 38
0001
0010
0100
1000
0010
0100
0001
0010
,  // measure 39
0100
1000
0100
0010
0001
0100
1000
0100
,  // measure 40
0001
0010
0100
0010
0001
1000
0100
0010
,  // measure 41
0001
0000
0100
0000
0010
0000
0100
0000
0001
0000
0000
0100
0000
0000
0010
0000
,  // measure 42
1000
1000
0100
0100
,  // measure 43
1000
0100
0010
0001
,  // measure 44
1000
0100
0001
0000
1000
0010
0001
0000
,  // measure 45
1000
0100
0010
0001
1000
0010
0000
0001
,  // measure 46
1000
0000
0100
0000
0000
0000
0001
0000
1000
0000
0100
0000
0010
0001
0010
0001
,  // measure 47
0010
0000
0000
0000
0000
0000
0001
1000
,  // measure 48
0001
0010
0001
0010
0001
0000
0000
0100
,  // measure 49
0000
0010
0000
0100
1000
0100
1000
0100
,  // measure 50
0001
0100
0001
0100
0001
0000
0010
0001
,  // measure 51
0000
0010
0000
0100
1000
0100
0010
0001
,  // measure 52
1000
0000
0110
0000
,  // measure 53
0001
0100
0010
1000
0200
0000
0320
0000
,  // measure 54
0031
0000
0100
0000
0010
0000
1000
0000
0100
0010
0000
0100
0010
0000
0001
0000
,  // measure 55
0100
0000
0010
0000
1000
0000
0100
0000
0000
0100
0000
0000
0100
0000
0010
0000
,  // measure 56
0001
0000
0010
0000
0100
0000
1000
0000
0010
0100
0000
0010
0100
0000
0001
0000
,  // measure 57
0010
0000
0100
0000
1000
0000
0010
0000
0000
0010
0000
0000
0010
0000
0100
0000
,  // measure 58
0001
0000
0010
0000
0100
0000
1000
0000
0001
0100
0000
0001
0100
0000
0010
0000
,  // measure 59
1000
0000
0100
0000
0010
0000
0001
0000
0000
0001
0000
0000
0001
0000
0010
0000
,  // measure 60
0001
0000
0100
0000
0010
0000
1000
0000
0001
0010
0000
0001
0010
0000
0100
0000
,  // measure 61
1000
0010
0100
0001
2000
0000
3002
0000
,  // measure 62
1003
0000
0100
0000
0010
0000
0100
0000
1000
0010
0000
1000
0010
0000
0100
0000
,  // measure 63
0001
0000
0010
0000
0001
0000
0100
0000
0000
1000
0100
0000
0001
0000
0010
0000
,  // measure 64
0001
0000
0010
0000
0100
0000
0010
0000
0001
0100
0000
0001
0100
0000
0010
0000
,  // measure 65
1000
0000
0100
0000
1000
0000
0010
0000
0000
0001
0010
0000
1000
0000
0100
0000
,  // measure 66
1000
0000
0010
0000
0100
0000
0010
0000
1000
0100
0000
1000
0100
0000
0010
0000
,  // measure 67
0001
0000
0100
0000
0001
0000
0010
0000
0000
1000
0010
0000
0001
0000
0100
0000
,  // measure 68
0001
0000
0010
0000
0100
0000
0010
0000
0001
0100
0000
0001
0100
0000
0010
0000
,  // measure 69
1000
1000
0100
0100
0001
0001
0010
0010
,  // measure 70
1000
0000
0000
0000
,  // measure 71
0000
0000
0000
0000
,  // measure 72
0000
0000
0000
0000
,  // measure 73
0000
0000
0000
0000
,  // measure 74
1001
0000
0000
0000
;

//---------------dance-single - Kitty Box----------------
#NOTES:
     dance-single:
     Kitty Box:
     Medium:
     8:
     0.663,0.663,0.267,0.107,0.080: // measure 1
0000
0000
0000
0000
,  // measure 2
0000
0000
0000
0000
,  // measure 3
0000
0000
0000
0000
,  // measure 4
0000
0000
0000
0000
,  // measure 5
1000
0010
0100
0001
,  // measure 6
0010
0000
0100
0000
0010
0000
0000
0000
0001
0000
0000
1000
0100
0000
0010
0000
,  // measure 7
0001
0100
0010
1000
,  // measure 8
0100
0000
0010
0001
0100
1000
0100
0001
,  // measure 9
1000
0100
1000
0100
0010
0001
0010
0001
,  // measure 10
1000
0010
1000
0010
0100
0001
0100
0001
,  // measure 11
1000
0100
0010
0001
0010
0100
1000
0010
,  // measure 12
0100
0001
0010
0100
1000
0100
0010
0001
,  // measure 13
1000
0000
0000
0000
,  // measure 14
0000
0000
0000
0000
,  // measure 15
2000
0000
3002
0000
,  // measure 16
1003
0000
0000
0000
0000
0000
0000
0000
0000
0100
0000
0000
0010
0000
0000
0000
,  // measure 17
0001
0010
0100
1000
0100
0001
0100
1000
,  // measure 18
0001
0000
0000
0000
0000
0000
0000
0000
0000
0100
0000
0000
0010
0000
0000
0000
,  // measure 19
1001
0000
0000
0110
,  // measure 20
1000
0100
1000
0100
0010
0001
0010
0001
,  // measure 21
1000
0000
0010
0000
0100
0000
0001
0000
0000
0001
0000
0000
0001
0000
0000
0000
,  // measure 22
1000
0010
1000
0010
0100
0001
0100
0001
,  // measure 23
0010
0000
0100
0000
1000
0000
0100
0000
0000
0100
0000
0000
0100
0000
1000
0000
,  // measure 24
0001
0010
0001
0010
0100
1000
0100
1000
,  // measure 25
0010
0000
0100
0000
0001
0000
0010
0000
0000
0010
0000
0000
0010
0000
0000
0000
,  // measure 26
0001
0100
0001
0100
0010
1000
0010
1000
,  // measure 27
0100
0001
0100
1000
0010
0001
0010
1000
,  // measure 28
0001
0110
1010
0011
,  // measure 29
0110
0000
1100
0000
0100
0010
0100
0010
,  // measure 30
0001
0101
0110
1100
,  // measure 31
0110
0000
0101
0000
0001
0010
1000
0010
,  // measure 32
0001
0000
0011
0000
1010
0000
1000
0100
,  // measure 33
1000
0000
0000
0000
0110
0000
0000
0000
0001
0000
0000
0001
0000
0000
0001
0000
,  // measure 34
1000
0000
1010
0000
0110
0000
0010
0100
,  // measure 35
0001
0000
0000
0000
0010
0100
0000
0010
,  // measure 36
0001
0100
0001
0100
0010
1000
0010
1000
,  // measure 37
0100
0000
0010
0000
0100
0000
0010
0000
0001
0000
0000
1000
0000
0000
0001
0000
,  // measure 38
1000
0100
1000
0100
0010
0001
0010
0001
,  // measure 39
1000
0010
1000
0010
0100
1000
0100
0001
,  // measure 40
1000
0010
1000
0010
0100
0001
0100
0001
,  // measure 41
0010
0000
0100
0000
0010
0000
0100
0000
1000
0000
0000
0001
0000
0000
1000
0000
,  // measure 42
0001
0010
0001
0010
,  // measure 43
0101
0110
1100
0110
,  // measure 44
0001
0001
0001
0000
1000
1000
1000
0000
,  // measure 45
0001
0100
1000
0100
0001
1000
0000
0100
,  // measure 46
0010
0100
0000
0000
1000
0010
0200
0000
,  // measure 47
0301
0000
0110
0000
1001
0000
1000
0001
,  // measure 48
1000
0010
1000
0010
1000
0000
0000
0010
,  // measure 49
0000
0001
0000
0010
1000
0010
1000
0010
,  // measure 50
1000
0100
1000
0100
1000
0000
0100
0001
,  // measure 51
0000
0100
0000
1000
0010
0100
0001
0010
,  // measure 52
0100
0000
1001
0000
,  // measure 53
0001
0010
0100
1000
0200
0000
0320
0000
,  // measure 54
0031
0010
0001
0010
0100
1000
0100
1000
,  // measure 55
0001
0000
0100
0000
0010
0000
1000
0000
0000
1000
0000
0000
1000
0000
0000
0000
,  // measure 56
0001
0100
0001
0100
0010
1000
0010
1000
,  // measure 57
0100
0000
0010
0000
0001
0000
0010
0000
0000
0010
0000
0000
0010
0000
0001
0000
,  // measure 58
1000
0100
1000
0100
0010
0001
0010
0001
,  // measure 59
0100
0000
0010
0000
1000
0000
0100
0000
0000
0100
0000
0000
0100
0000
0000
0000
,  // measure 60
1000
0010
1000
0010
0100
0001
0100
0001
,  // measure 61
0010
1000
0000
0000
0020
0000
0032
0000
,  // measure 62
1003
0100
1000
0100
0010
0001
0010
0001
,  // measure 63
0100
0000
0010
0000
1000
0000
0100
0000
0000
0100
0010
0000
0200
0000
0000
0000
,  // measure 64
1300
0010
1000
0010
0100
0001
0100
0001
,  // measure 65
0010
0000
0100
0000
1000
0000
0010
0000
0000
0100
0010
0000
0200
0000
0000
0000
,  // measure 66
0301
0010
0001
0010
0100
1000
0100
1000
,  // measure 67
0010
0000
0100
0000
0001
0000
0010
0000
0000
0010
0100
0000
0020
0000
0000
0000
,  // measure 68
0031
0100
0001
0100
0010
1000
0010
1000
,  // measure 69
0100
0010
0001
0010
0100
1000
0010
0100
,  // measure 70
0001
0000
0000
0000
,  // measure 71
0000
0000
0000
0000
,  // measure 72
0000
0000
0000
0000
,  // measure 73
0000
0000
0000
0000
,  // measure 74
1001
0000
0000
0000
;

//---------------dance-single - Kitty Box----------------
#NOTES:
     dance-single:
     Kitty Box:
     Easy:
     6:
     0.480,0.546,0.310,0.086,0.032: // measure 1
0000
0000
0000
0000
,  // measure 2
0000
0000
0000
0000
,  // measure 3
0000
0000
0000
0000
,  // measure 4
0000
0000
0000
0000
,  // measure 5
1000
0100
0010
0100
,  // measure 6
1000
0001
1000
0000
0100
0000
0010
0001
,  // measure 7
1000
0010
0100
0001
,  // measure 8
0010
0000
0100
0000
1000
0001
1000
0001
,  // measure 9
1000
0100
0001
0100
,  // measure 10
1000
0000
0010
0000
0001
0000
0010
1000
,  // measure 11
0001
0100
1000
0010
,  // measure 12
0001
0000
0100
0000
0010
1000
0010
1000
,  // measure 13
0001
0000
0000
0000
,  // measure 14
0000
0000
0000
0000
,  // measure 15
2000
0000
3002
0000
,  // measure 16
2003
0000
0000
0000
0000
0000
0000
0000
0000
0100
0000
0000
3100
0000
0000
0000
,  // measure 17
1000
0001
1000
0000
0001
1000
0001
0000
,  // measure 18
2000
0000
0000
0000
0000
0000
0000
0000
0000
0010
0000
0000
3010
0000
0000
0000
,  // measure 19
1001
0000
0000
0110
,  // measure 20
1000
0000
0100
0000
0010
0000
0001
1000
,  // measure 21
0001
0000
0010
0000
0100
1000
0100
1000
,  // measure 22
0001
0100
0010
1000
,  // measure 23
0100
0001
1100
0101
,  // measure 24
1000
0100
0010
0001
,  // measure 25
0100
0000
0000
0000
0010
0000
1000
0000
0000
1000
0000
0000
1000
0000
0001
0000
,  // measure 26
1000
0000
0100
0000
0010
0001
0010
0001
,  // measure 27
1000
0001
1000
0001
0100
0001
0100
0001
,  // measure 28
0010
1000
0010
0001
,  // measure 29
0100
0010
1000
0001
,  // measure 30
1001
0100
0010
0001
,  // measure 31
0100
0000
0010
0000
1000
0001
1000
0001
,  // measure 32
1000
0000
0100
0000
0010
0000
0001
0100
,  // measure 33
0001
0000
0000
0000
0100
0000
0000
0000
1000
0000
0000
0100
0000
0000
0001
0000
,  // measure 34
1000
0000
0100
0000
0010
0000
0001
1000
,  // measure 35
0001
0000
0000
0000
1000
0001
0000
0001
,  // measure 36
1000
0100
0001
0100
,  // measure 37
1000
0000
0000
0000
0010
0000
0000
0000
0100
0000
0000
0100
0000
0000
0100
0000
,  // measure 38
0001
0100
1000
0100
,  // measure 39
0001
0000
0100
0000
0010
1000
0010
1000
,  // measure 40
0001
0010
1000
0010
,  // measure 41
0001
0000
0000
0000
0100
0000
0000
0000
0010
0000
0000
0010
0000
0000
0010
0000
,  // measure 42
1000
0000
0100
0000
,  // measure 43
1000
0100
0010
0001
,  // measure 44
1000
1010
1000
1100
,  // measure 45
1000
0000
0100
0000
0010
0001
0000
0000
,  // measure 46
0010
0100
0000
0000
1000
0010
0200
0000
,  // measure 47
0301
0000
0000
0000
,  // measure 48
1001
0000
1001
0000
1001
0000
0000
1100
,  // measure 49
0000
1100
0000
1000
0100
0000
0110
0000
,  // measure 50
0101
0000
0101
0000
0101
0000
0010
0100
,  // measure 51
0000
0110
0000
1000
0100
0010
0001
1000
,  // measure 52
0001
0000
0110
0000
,  // measure 53
1001
0000
0000
0000
,  // measure 54
1000
0100
0010
0100
,  // measure 55
1000
0100
0001
0100
,  // measure 56
1000
0010
0100
0010
,  // measure 57
1000
0000
1000
0100
0000
0100
0020
0000
,  // measure 58
0031
0000
0100
0000
0010
0000
1000
0100
,  // measure 59
0000
0001
0000
0100
1000
0000
0010
0100
,  // measure 60
0001
0000
0010
0000
0100
0000
1000
0100
,  // measure 61
1000
0001
0000
0000
0200
0000
0320
0000
,  // measure 62
1030
0010
0001
0010
,  // measure 63
1010
0000
0000
0110
0000
1001
0000
0000
,  // measure 64
0001
0100
1000
0100
,  // measure 65
0101
0000
0000
0110
0000
1010
0000
0000
,  // measure 66
1000
0100
0001
0100
,  // measure 67
1100
0000
0000
1001
0000
0011
0000
0000
,  // measure 68
0001
0100
1000
0100
,  // measure 69
0001
0010
0100
1000
0001
0010
0100
1000
,  // measure 70
0001
0000
0000
0000
,  // measure 71
0000
0000
0000
0000
,  // measure 72
0000
0000
0000
0000
,  // measure 73
0000
0000
0000
0000
,  // measure 74
1001
0000
0000
0000
;

//---------------dance-single - Kitty Box----------------
#NOTES:
     dance-single:
     Kitty Box:
     Beginner:
     4:
     0.374,0.390,0.086,0.150,0.000: // measure 1
0000
0000
0000
0000
,  // measure 2
0000
0000
0000
0000
,  // measure 3
0000
0000
0000
0000
,  // measure 4
0000
0000
0000
0000
,  // measure 5
1000
0001
1000
0001
,  // measure 6
0100
0010
0100
0010
,  // measure 7
1000
0010
1000
0010
,  // measure 8
0100
0001
0100
0001
,  // measure 9
1000
1000
0100
0100
,  // measure 10
0001
0001
0100
0100
,  // measure 11
1000
1000
0010
0010
,  // measure 12
0001
0001
0010
0010
,  // measure 13
1000
0000
0000
0000
,  // measure 14
0000
0000
0000
0000
,  // measure 15
2000
0000
3002
0000
,  // measure 16
1003
0000
0000
0000
,  // measure 17
1000
0100
0001
0100
,  // measure 18
1000
0000
0000
0000
,  // measure 19
1001
0000
0000
0000
,  // measure 20
1000
0010
1000
0010
,  // measure 21
0100
0001
0010
0100
,  // measure 22
1000
0100
1000
0100
,  // measure 23
0010
0001
0100
0010
,  // measure 24
1000
0100
1000
0100
,  // measure 25
0001
0100
1000
0010
,  // measure 26
0100
0001
0100
0001
,  // measure 27
0020
0000
0000
0230
,  // measure 28
1300
0100
0010
0001
,  // measure 29
1000
0010
0100
0001
,  // measure 30
0010
0100
1000
0100
,  // measure 31
0001
0100
1000
0001
,  // measure 32
1000
0010
0100
0010
,  // measure 33
1000
0001
1001
0000
,  // measure 34
0001
0010
0100
0010
,  // measure 35
0001
0000
0000
0000
1000
0001
0000
0000
,  // measure 36
1000
0100
0010
0001
,  // measure 37
1000
0010
1010
0000
,  // measure 38
0001
0010
0100
1000
,  // measure 39
0001
0100
0010
1000
,  // measure 40
0100
0001
0100
1000
,  // measure 41
0010
0100
0110
0000
,  // measure 42
1000
0000
0100
0000
,  // measure 43
1000
0100
0010
0001
,  // measure 44
2000
3000
0200
0300
,  // measure 45
0001
0000
0100
0000
2000
3000
0000
0000
,  // measure 46
0020
0030
0000
0000
0002
0003
0010
0000
,  // measure 47
1000
0001
1000
0000
,  // measure 48
1000
0000
1000
0000
1000
0000
0000
0100
,  // measure 49
0000
0100
0000
0100
0001
0000
0001
0000
,  // measure 50
0001
0000
0100
0000
0100
0000
0100
1000
,  // measure 51
0000
0100
0000
0010
0001
0000
1000
0000
,  // measure 52
1001
0000
0110
0000
,  // measure 53
1001
0000
0000
0000
,  // measure 54
0001
0010
0100
0010
,  // measure 55
0001
0100
0010
0100
,  // measure 56
0001
0010
0100
1000
,  // measure 57
0100
0010
0100
1000
,  // measure 58
0100
0001
0100
1000
,  // measure 59
0010
0001
0010
1000
,  // measure 60
0100
0010
0001
0100
,  // measure 61
1000
0000
0200
0302
,  // measure 62
1003
0100
0010
0001
,  // measure 63
0100
0000
0000
1000
0000
0200
0000
0000
,  // measure 64
0301
0010
0100
1000
,  // measure 65
0100
0000
0000
0001
0000
0200
0000
0000
,  // measure 66
1300
0010
0100
0001
,  // measure 67
0010
0000
0000
1000
0000
0020
0000
0000
,  // measure 68
0031
0100
0010
1000
,  // measure 69
0100
0010
0001
0100
,  // measure 70
1000
0000
0000
0000
,  // measure 71
0000
0000
0000
0000
,  // measure 72
0000
0000
0000
0000
,  // measure 73
0000
0000
0000
0000
,  // measure 74
1001
0000
0000
0000
;
