#VERSION:0.83;
#TITLE:Down;
#SUBTITLE:;
#ARTIST:Marian Hill;
#TITLETRANSLIT:;
#SUBTITLETRANSLIT:;
#ARTISTTRANSLIT:;
#GENRE:;
#ORIGIN:;
#CREDIT:;
#BANNER:Down.png;
#BACKGROUND:Down-bg.png;
#PREVIEWVID:;
#JACKET:Down-jacket.png;
#CDIMAGE:;
#DISCIMAGE:;
#LYRICSPATH:;
#CDTITLE:;
#MUSIC:Down.ogg;
#OFFSET:-0.020000;
#SAMPLESTART:56.138000;
#SAMPLELENGTH:22.941000;
#SELECTABLE:YES;
#BPMS:0.000=85.000;
#STOPS:;
#DELAYS:;
#WARPS:;
#TIMESIGNATURES:0.000=4=4;
#TICKCOUNTS:0.000=4;
#COMBOS:0.000=1;
#SPEEDS:0.000=1.000=0.000=0,
78.500=0.500=0.500=0,
79.000=1.000=0.500=0;
#SCROLLS:0.000=1.000,
79.000=0.000,
79.500=1.000;
#FAKES:;
#LABELS:0.000=Song Start;
#BGCHANGES:;
#KEYSOUNDS:;
#ATTACKS:
;

//---------------dance-single - ----------------
#NOTEDATA:;
#CHARTNAME:;
#STEPSTYPE:dance-single;
#DESCRIPTION:;
#CHARTSTYLE:;
#DIFFICULTY:Challenge;
#METER:9;
#RADARVALUES:0.527569,0.594566,0.024190,0.137076,0.874866,458.000000,455.000000,3.000000,17.000000,41.000000,0.000000,0.000000,0.000000,0.000000,0.527569,0.594566,0.024190,0.137076,0.874866,458.000000,455.000000,3.000000,17.000000,41.000000,0.000000,0.000000,0.000000,0.000000;
#CREDIT:;
#NOTES:
// measure 0
0000
0000
0000
0000
,  // measure 1
0000
0000
0000
0000
,  // measure 2
0000
0000
0000
0000
,  // measure 3
0000
0000
0000
0000
,  // measure 4
1000
0000
0010
0000
0001
0000
0010
0000
1000
0000
0100
0000
0010
0000
0001
0000
0000
1000
0000
0000
0000
0000
0000
0000
0000
0000
0000
0000
0000
0000
0001
0000
,  // measure 5
1000
0000
0010
0000
0100
0000
1000
0000
0001
0000
1000
0000
0100
0000
0010
0000
0000
0100
0000
0000
0000
0000
0000
0000
0000
0000
0000
0000
0000
0000
0000
0000
,  // measure 6
0010
0100
0001
1000
0100
0001
0100
1000
0010
0000
0000
0000
0100
0000
0000
0000
,  // measure 7
1000
0000
0100
0000
0001
0000
1000
0000
0100
0000
0001
0000
1000
0000
0000
0010
0000
0000
0001
0000
0000
0000
0000
0000
0000
0000
0000
0000
0010
0000
0001
0000
,  // measure 8
0100
0000
M100
M100
0001
0000
0001
1000
0100
0000
010M
010M
1000
0000
0000
0000
,  // measure 9
0001
0000
0000
0001
2000
0000
0000
0200
0000
0000
0000
0000
3300
0000
0000
0000
,  // measure 10
0100
0000
010M
010M
1000
0000
1000
0001
0100
0000
M100
M100
0001
0000
0000
0000
,  // measure 11
1000
0000
0000
1000
0002
0000
0000
0200
0000
0000
0000
0000
0303
0000
0000
0000
,  // measure 12
0001
0000
0100
0000
0010
0000
0001
0000
0010
0000
1000
0000
0100
0000
0010
0000
0000
0100
0000
0000
0000
0000
0000
0000
MMMM
0000
0000
0000
0000
0000
0000
0000
,  // measure 13
0100
0000
0010
0000
1000
0000
0001
0000
0010
0000
1000
0000
0010
0000
0000
0001
0000
0000
1000
0000
0000
0000
0000
0000
MMMM
0000
0000
0000
0000
0000
0000
0000
,  // measure 14
1000
0000
0000
0000
0001
0000
0000
0000
0100
0000
0000
0000
0010
0000
0000
0000
0001
0000
0000
0000
0000
0000
0010
0000
0000
0000
0100
0000
0000
0000
0000
0001
0000
0000
0000
0000
1000
0000
0000
0000
0000
0000
0000
0000
0000
0000
0000
0000
0000
0000
0001
0000
0000
0000
0000
0000
0000
0000
0000
0000
0000
0000
0000
0000
,  // measure 15
1000
0000
0100
0000
0010
0000
1000
0000
0010
0000
0100
0000
1000
0000
0000
0001
0000
0000
0100
0000
0000
0000
0000
0000
0000
0000
0000
0000
0010
0000
1000
0000
,  // measure 16
0100
0000
010M
010M
1000
0000
1000
0001
0100
0000
M100
M100
0001
0000
1000
0000
,  // measure 17
0010
0000
0010
0000
0100
0010
0100
0010
0100
0100
0100
0100
0100
0100
0010
1000
,  // measure 18
0100
0000
M100
M100
1000
0000
1000
0001
0100
0000
010M
010M
0001
0000
0000
0000
,  // measure 19
1002
0000
0000
2003
0000
3200
1300
0000
,  // measure 20
0001
1000
0000
0100
0010
0000
0100
0000
1000
0010
0001
0010
1000
0010
1000
1000
,  // measure 21
0100
0000
1000
0000
0001
0000
1000
0000
0000
0100
0000
0000
0010
0000
0000
0001
0000
0000
0100
0000
0000
01M0
0000
0000
1000
0000
0000
0001
0000
0000
0100
0000
0000
01M0
0000
0000
1000
0000
0000
0100
0000
0000
0010
0000
0000
0001
0000
0000
,  // measure 22
1000
0001
0000
0100
0010
0000
0100
0000
0001
0010
1000
0010
0001
0010
0001
0001
,  // measure 23
0100
0000
0000
0000
0000
0000
0000
0000
0001
0000
0000
0000
0000
0000
0000
0000
1000
0000
0000
0000
0000
0000
0000
0000
0001
0000
0000
0000
0000
0000
0000
0000
0000
0000
0000
0000
0100
0000
0000
0000
0000
0000
0000
0000
0000
0000
0000
0000
0001
0000
0000
0000
0000
0000
0000
0000
0000
0000
0000
0000
0100
0000
0000
0000
0000
0000
0010
0000
0000
0000
0000
0000
0100
0000
0000
0000
0000
0000
0000
0000
0000
0000
0000
0000
0001
0000
0000
0000
0000
0000
0000
0000
0000
0000
0000
0000
1000
0000
0000
0000
0000
0000
0000
0000
0000
0000
0000
0000
0100
0000
0000
0000
0000
0000
0000
0000
0000
0000
0000
0000
01M0
0000
0000
0000
0000
0000
0000
0000
0000
0000
0000
0000
0001
0000
0000
0000
0000
0000
0000
0000
0000
0000
0000
0000
0100
0000
0000
0000
0000
0000
0000
0000
0000
0000
0000
0000
0010
0000
0000
0000
0000
0000
0000
0000
0000
0000
0000
0000
0100
0000
0000
0000
0000
0000
0000
0000
0000
0000
0000
0000
0001
0000
0000
0000
0000
0000
0000
0000
0000
0000
0000
0000
,  // measure 24
0100
M100
1000
0001
0100
M100
1000
0001
0000
0100
0000
0100
M100
1000
0001
0001
,  // measure 25
0100
0000
0001
0000
1000
0000
0001
0000
0000
1000
0000
0000
0100
0000
0000
01M0
0000
0000
0001
0000
0000
1000
0000
0000
0100
0000
0000
0100
0000
0000
0100
0000
0000
0100
0000
0000
0100
0000
0000
1000
0000
0000
0100
0000
0000
0010
0000
0000
,  // measure 26
0001
1000
0000
0010
0100
0000
0010
0000
1000
0100
0001
0100
1000
0000
0001
0000
,  // measure 27
0100
0000
1000
0100
0000
0001
0100
0000
1000
0100
0001
0010
0200
0000
0000
0000
,  // measure 28
0310
0000
0100
0000
1000
0000
0001
0000
0000
0100
0000
0000
0010
0000
0000
1000
0000
0000
0010
0000
0000
0100
0000
0000
1000
0000
0000
0100
0000
0000
0010
0000
0000
1000
0000
0000
1010
0000
0000
0000
0000
0000
0010
0000
0000
1000
0000
0000
,  // measure 29
0001
0010
0M10
1000
0001
0010
0M10
1000
0001
0010
0000
0010
0100
0001
0100
0010
,  // measure 30
0100
0000
0010
0000
0001
0000
1000
0000
0000
0010
0000
0000
0100
0000
0000
1000
0000
0000
0100
0000
0000
0010
0000
0000
0001
0000
0000
0010
0000
0000
0100
0000
0000
0001
0000
0000
0101
0000
0000
0000
0000
0000
0100
0000
0000
0001
0000
0000
,  // measure 31
1000
0100
01M0
0001
1000
0100
0001
0100
1000
0010
0100
0001
0100
0000
0010
1000
,  // measure 32
0001
1000
0000
0100
0010
0000
0100
0000
1000
0010
0001
0010
1000
0010
1000
1000
,  // measure 33
0100
0000
1000
0000
0001
0000
1000
0000
0000
0100
0000
0000
0010
0000
0000
0001
0000
0000
0100
0000
0000
01M0
0000
0000
1000
0000
0000
0001
0000
0000
0100
0000
0000
01M0
0000
0000
1000
0000
0000
0100
0000
0000
0010
0000
0000
0001
0000
0000
,  // measure 34
1000
0001
0000
0100
0010
0000
0100
0000
0001
0010
1000
0010
0001
0010
0001
0001
,  // measure 35
0100
0000
0000
0000
0000
0000
0000
0000
0001
0000
0000
0000
0000
0000
0000
0000
1000
0000
0000
0000
0000
0000
0000
0000
0001
0000
0000
0000
0000
0000
0000
0000
0000
0000
0000
0000
0100
0000
0000
0000
0000
0000
0000
0000
0000
0000
0000
0000
0001
0000
0000
0000
0000
0000
0000
0000
0000
0000
0000
0000
0100
0000
0000
0000
0000
0000
0010
0000
0000
0000
0000
0000
0100
0000
0000
0000
0000
0000
0000
0000
0000
0000
0000
0000
0001
0000
0000
0000
0000
0000
0000
0000
0000
0000
0000
0000
2000
0000
0000
0000
0000
0000
0000
0000
0000
0000
0000
0000
0000
0000
0000
0000
0000
0000
0000
0000
0000
0000
0000
0000
3200
0000
0000
0000
0000
0000
0000
0000
0000
0000
0000
0000
0000
0000
0000
0000
0000
0000
0000
0000
0000
0000
0000
0000
0302
0000
0000
0000
0000
0000
0000
0000
0000
0000
0000
0000
0000
0000
0000
0000
0000
0000
0000
0000
0000
0000
0000
0000
0013
0000
0000
0000
0000
0000
0000
0000
0000
0000
0000
0000
1000
0000
0000
0000
0000
0000
0000
0000
0000
0000
0000
0000
,  // measure 36
0100
M100
0001
1000
0100
M100
0001
1000
0000
0100
0000
0100
M100
0001
1000
1000
,  // measure 37
0100
0000
1000
0000
0001
0000
1000
0000
0000
0001
0000
0000
0100
0000
0000
01M0
0000
0000
1000
0000
0000
0001
0000
0000
0100
0000
0000
0100
0000
0000
0100
0000
0000
0100
0000
0000
0100
0000
0000
0001
0000
0000
0100
0000
0000
0010
0000
0000
,  // measure 38
1000
0001
0000
0010
0100
0000
0010
0000
0001
0100
1000
0100
0001
0000
1000
0000
,  // measure 39
0100
0000
0001
0100
0000
1000
0100
0000
0001
0100
1000
0010
0200
0000
0310
1000
,  // measure 40
0100
0000
0000
0100
0020
0000
0000
0200
0000
0000
0000
0000
0000
0000
0330
0000
,  // measure 41
0001
0000
0000
0001
2000
0000
0000
0002
0000
0000
0000
0000
0000
0000
3003
0000
,  // measure 42
0001
0100
0000
0100
0010
0000
0001
0000
0010
1000
0100
01M0
0001
1000
0100
0010
,  // measure 43
0200
0000
0000
0300
0000
0000
0000
0000
;
