#TITLE:Countdown To Destination;
#SUBTITLE:;
#ARTIST:Manuel;
#TITLETRANSLIT:;
#SUBTITLETRANSLIT:;
#ARTISTTRANSLIT:;
#GENRE:SUPER EUROBEAT;
#CREDIT:;
#BANNER:[Tech Savvy] - Countdown to Destination.png;
#BACKGROUND:[Tech Savvy] - Countdown to Destination-bg.png;
#LYRICSPATH:;
#CDTITLE:CDTitle.png;
#MUSIC:[Tech Savvy] - Countdown to Destination.ogg;
#OFFSET:0.006012;
#SAMPLESTART:76.330086;
#SAMPLELENGTH:12.467537;
#LASTBEATHINT:258.015442;
#SELECTABLE:YES;
#DISPLAYBPM:154.000000;
#BPMS:0.000000=154.000000
,64.000000=77.000000
,66.000000=154.000000
;
#STOPS:
;
#BGCHANGES:;
#KEYSOUNDS:;
#ATTACKS:;

//---------------dance-single - ----------------
#NOTES:
     dance-single:
     :
     Challenge:
     10:
     0.765395,0.845815,0.477703,0.646303,0.721237,572.000000,521.000000,51.000000,69.000000,38.000000,0.000000,0.765395,0.845815,0.477703,0.646303,0.721237,572.000000,521.000000,51.000000,69.000000,38.000000,0.000000:
0000
0000
0000
0000
,
0000
0000
0000
0000
,
0000
0000
0000
0000
,
0000
0000
0000
0000
,
M2M0
0000
0000
0000
0000
0000
0000
0000
0000
0301
0010
0001
2000
0000
0000
0000
,
3000
0000
0000
0000
0000
0000
0000
0000
0000
0000
0001
0100
0010
0002
0000
0000
,
0013
1000
0100
0010
1000
0001
0100
1000
,
1001
0000
0000
0000
0101
0000
0000
0000
0001
1000
0001
1000
0001
0000
0000
0000
,
1010
0000
0000
0000
0011
0000
0000
0001
1000
0000
0100
0000
1000
0000
0020
0000
,
0001
0000
0032
0000
0100
0000
0203
0000
1000
0000
2300
0000
3001
0000
0010
0001
,
1000
0000
0100
0000
1000
0010
0000
M010
0001
0000
10M0
0000
0001
0010
0000
001M
,
1000
0000
00M1
0000
0100
0010
0000
0010
0100
0000
0100
0001
0000
0001
0010
0000
,
0011
0000
0000
0000
1010
0000
0000
1000
0001
0000
0010
0000
0001
0000
0200
0000
,
1000
0000
2300
0000
0010
0000
3020
0000
0001
0000
0032
0000
1003
0000
0100
1000
,
0001
0000
0010
0000
0001
0100
0000
010M
1000
0000
100M
0100
0000
M100
0001
0000
,
2001
3020
0230
0302
,
0003
0000
0000
0000
0000
0000
0000
0000
M0M1
0100
0010
1000
0002
0000
0003
0000
,
1000
0010
0000
M010
0000
0010
0001
0100
0001
0000
0000
0000
2001
0000
0000
3001
,
0000
0010
0100
1000
0100
0001
0000
MMM0
0001
0100
0010
0100
1000
0100
0010
0100
,
0001
0010
0100
0010
1000
0010
0100
0010
0011
0000
0000
0000
1100
0000
0000
0000
,
0001
0010
MM10
0010
0001
0000
0000
0000
1000
0100
0010
0001
2000
0000
3000
0000
,
0001
0100
0000
010M
0000
0100
1000
0010
1000
0000
0000
0000
1002
0000
0000
1003
,
0000
0100
0010
0001
0010
1000
0000
0000
0010
0001
0100
0010
2000
0000
3000
0000
,
1000
0100
0000
0100
0000
M100
0000
0100
0001
1000
0000
1001
0000
0001
0100
0010
,
1000
0001
0000
1001
0000
1000
0010
0100
0011
0000
1000
0000
0100
0000
1000
0000
,
0001
0010
MM10
0010
0002
0000
1000
0000
1003
0000
0100
0000
0010
0000
0001
0000
,
0100
0000
0010
1000
0100
2000
0000
0000
3001
0000
0010
0000
1000
0000
0001
0000
,
0100
1000
0001
0100
1020
0130
2001
3010
,
0100
0001
0100
0001
1000
0000
0000
0000
1000
0000
0001
0000
0010
0000
0001
0000
,
1000
0100
01MM
0100
2000
0000
0001
0000
3001
0000
0010
0000
0100
0000
1000
0000
,
0010
0000
0100
0001
0010
0002
0000
0000
1003
0000
0100
0000
0001
0000
1000
0000
,
0010
0001
1000
0010
0201
0310
1002
0103
,
0010
1000
0010
1000
0001
0000
0000
000M
0110
0000
0100
0000
M001
0000
0100
0000
,
1000
0001
0100
1000
0001
0100
0010
1000
,
0011
0000
1000
0000
0101
0000
0000
000M
0110
0000
0010
0000
100M
0000
0010
0000
,
0001
1000
0010
0001
1000
0010
0100
0001
,
1010
0001
1100
0000
2001
3002
0203
2300
,
3100
0001
0000
0001
2000
3020
0032
0023
,
1030
0001
0000
0001
2000
3020
0230
2300
,
3001
0010
0100
0001
2000
3200
0310
0220
,
0330
2002
3003
0000
0011
0010
2100
0000
,
3001
0100
0010
2000
0100
3200
0010
0320
,
0001
0000
0032
0000
1003
0000
0100
0010
0100
0000
1100
0000
0011
0000
0001
0000
,
0100
0000
0101
0000
1010
0000
0000
0000
0110
0000
0010
0000
0100
0001
0000
0001
,
1000
0000
1000
0010
0000
0010
1000
0000
1001
0000
0010
0000
1020
0000
0000
0000
,
0130
0001
1000
0200
0010
0320
0001
0032
,
1000
0000
2003
0000
3010
0000
0000
0000
0100
0001
0100
0000
0010
1000
0000
0000
,
0100
1000
0100
0000
0010
0001
0000
0010
0001
0000
1000
0010
0000
0100
0001
0000
,
1000
0000
0001
0100
0000
0010
1000
0000
1010
0000
0010
0000
0102
0000
0000
0000
,
1003
0010
0100
0002
0010
0023
0100
0230
,
1000
0000
2300
0000
3001
0000
0010
0100
0010
0000
0011
0000
1100
0000
1000
0000
,
0010
0000
1010
0000
0101
0000
0000
0000
0110
0000
0100
0000
0010
1000
0000
1000
,
0001
0000
0001
0100
0000
0100
0001
0000
1001
0000
0100
0000
0201
0000
0000
0000
,
0310
1000
0001
0020
0100
0230
1000
2300
,
0001
0000
3002
0000
0103
0000
0000
0000
0010
1000
0010
0000
0100
0001
0000
0000
,
0010
0001
0010
0000
0100
1000
0000
0100
1000
0000
0001
0100
0000
0010
1000
0000
,
0001
0000
1000
0010
0000
0100
0001
0000
1000
0100
0010
0001
2000
0000
3000
0000
,
0001
0100
0000
010M
0000
0100
1000
0010
1000
0000
0000
0000
1002
0000
0000
1003
,
0000
0100
0010
0001
0010
1000
0000
0MMM
1000
0010
0100
0010
0001
0010
0100
0010
,
1000
0100
0010
0100
0001
0100
0010
0100
1100
0000
0000
0000
0011
0000
0000
0000
,
1000
0100
01MM
0100
1000
0000
0000
0000
MM01
0010
0100
1000
0001
0000
0000
0000
,
1000
0010
0000
M010
0000
0010
0001
0100
0001
0000
0000
0000
2001
0000
0000
3001
,
0000
0010
0100
1000
0100
0001
0000
0000
0100
1000
0010
0100
0001
0000
0000
0000
,
0001
0010
0000
0010
0000
001M
0000
0010
1000
0001
0000
1001
0000
1000
0010
0100
,
0001
1000
0000
1001
0000
0001
0100
0010
M000
0000
0000
0000
0000
0000
0000
0000
;

//---------------dance-single - ----------------
#NOTES:
     dance-single:
     :
     Beginner:
     1:
     0.199377,0.269761,0.121767,0.103034,0.000000,149.000000,136.000000,13.000000,11.000000,0.000000,0.000000,0.199377,0.269761,0.121767,0.103034,0.000000,149.000000,136.000000,13.000000,11.000000,0.000000,0.000000:
// measure 0
0000
0000
0000
0000
,  // measure 1
0000
0000
0000
0000
,  // measure 2
0000
0000
0000
0000
,  // measure 3
0000
0000
0000
0000
,  // measure 4
0200
0000
0000
0300
,  // measure 5
0000
0000
0000
0000
,  // measure 6
0010
0000
0000
0000
,  // measure 7
0001
0001
0001
0000
,  // measure 8
0110
0110
0000
0000
,  // measure 9
0100
0000
0100
0000
,  // measure 10
0001
0000
1000
0000
,  // measure 11
0001
0000
1000
0000
,  // measure 12
0100
0100
0000
0000
,  // measure 13
0010
0000
0010
0000
,  // measure 14
0001
0000
1000
0000
,  // measure 15
2002
0000
0000
0000
,  // measure 16
3003
0000
1001
0000
,  // measure 17
0100
0000
0010
0010
,  // measure 18
0010
0000
0001
0001
,  // measure 19
0001
0001
0001
0001
,  // measure 20
0001
0000
1001
0000
,  // measure 21
0100
0000
0010
0010
,  // measure 22
0010
0000
0100
0000
,  // measure 23
0100
0000
0110
0000
,  // measure 24
1001
0000
0001
0001
,  // measure 25
0001
0000
1000
1000
,  // measure 26
1000
0000
0100
0000
,  // measure 27
0010
0000
0100
0100
,  // measure 28
0100
0000
1000
1000
,  // measure 29
1000
0000
0001
0001
,  // measure 30
0001
0000
0100
0000
,  // measure 31
0010
0000
1000
1000
,  // measure 32
1000
0000
1001
0000
,  // measure 33
0001
0000
0100
0000
,  // measure 34
0010
0000
0100
0000
,  // measure 35
0001
0000
1000
0000
,  // measure 36
0100
0000
0010
0000
,  // measure 37
0001
0000
0010
0000
,  // measure 38
0100
0000
1000
0000
,  // measure 39
0001
0000
2002
0000
,  // measure 40
0000
3003
0000
0000
1000
0000
1000
0000
,  // measure 41
1000
0000
0001
0001
,  // measure 42
0001
0000
0100
0000
,  // measure 43
0010
0000
0200
0000
,  // measure 44
0300
0000
0010
0010
,  // measure 45
0010
0000
1000
1000
,  // measure 46
1000
0000
0001
0000
,  // measure 47
1000
0000
2002
0000
,  // measure 48
3003
0000
0001
0001
,  // measure 49
0001
0000
0010
0010
,  // measure 50
0010
0000
0100
0000
,  // measure 51
1000
0000
0002
0000
,  // measure 52
0003
0000
1000
1000
,  // measure 53
1000
0000
0100
0100
,  // measure 54
0100
0000
0010
0000
,  // measure 55
0001
0000
2002
0000
,  // measure 56
3003
0000
0100
0100
,  // measure 57
0100
0000
0010
0000
,  // measure 58
1000
0000
0001
0001
,  // measure 59
0001
0001
0001
0001
,  // measure 60
0001
0000
0010
0010
,  // measure 61
0010
0000
0100
0000
,  // measure 62
0100
0000
1000
1000
,  // measure 63
1000
0000
0110
0000
,  // measure 64
1001
0000
0000
0000
;

//---------------dance-single - ----------------
#NOTES:
     dance-single:
     :
     Hard:
     8:
     0.571370,0.603568,0.281001,0.271635,0.262268,427.000000,397.000000,30.000000,29.000000,0.000000,0.000000,0.571370,0.603568,0.281001,0.271635,0.262268,427.000000,397.000000,30.000000,29.000000,0.000000,0.000000:
0000
0000
0000
0000
,
0000
0000
0000
0000
,
0000
0000
0000
0000
,
0000
0000
0000
0000
,
2000
0000
0000
0000
0000
0010
3020
0000
,
0030
0000
0000
0000
0000
0000
0000
0000
0000
0000
1000
0000
0001
1000
0000
0000
,
0001
0010
0100
0010
0001
0010
0100
1000
,
0001
0000
0000
0000
1000
0000
0000
0000
0010
0100
0010
0100
0010
0000
0000
0000
,
1010
0000
0011
0000
0010
0001
1000
0020
,
0000
0230
0000
0302
0000
2003
0000
3100
,
0010
0001
1000
0000
0100
1000
0001
0000
,
0100
0010
0001
0010
1000
0001
1000
0000
,
0101
0000
1100
0000
0100
1000
0001
0200
,
0000
0320
0000
2030
0000
3001
0010
0000
,
0100
1000
0001
0000
0010
0001
1000
0000
,
2001
3020
0230
0302
,
0003
0000
0000
0000
0000
0000
0000
0000
1000
0100
1000
0100
1000
0000
0000
0000
,
0001
0000
0000
0100
0000
0000
0010
0000
1000
0000
0000
0000
1001
0000
0000
1000
,
0001
0000
0010
0000
0100
1000
0000
0000
1000
0000
0010
0000
0100
0000
0010
0000
,
0001
0010
0100
0010
1010
0000
0101
0000
,
0001
1000
0001
1000
0001
0000
0000
0000
0100
0001
0100
0001
0100
0000
0000
0000
,
0010
0000
0000
0010
0000
0000
0010
0000
1000
0000
0000
0000
1010
0000
0000
1000
,
0100
0000
0010
0000
0001
1000
0000
0000
1000
0010
1000
0010
1000
0000
0000
0000
,
0100
0000
0000
0100
0000
0000
0100
0000
0010
0001
0000
0010
0000
0001
1000
0000
,
0010
1000
0000
0010
0000
1000
0001
0000
1000
0000
0010
0000
0001
0000
0010
0000
,
1000
0010
0100
0000
0001
0010
1000
0010
,
0001
0010
0100
0000
1000
0001
1000
0010
,
0100
0001
0010
0100
1000
0000
0001
0000
,
0100
0010
0100
0010
1000
0000
0000
0000
0001
0000
0100
0000
1000
0000
0100
0000
,
0001
0100
0010
0000
1000
0100
0001
0100
,
1000
0100
0010
0000
0001
1000
0001
0010
,
0100
1000
0100
0010
0001
0000
1000
0000
,
0100
0010
0100
0010
0001
0000
0000
0000
0011
0000
0010
0000
0100
0000
1000
0000
,
0010
0100
0001
1000
0100
0010
0001
1000
,
1010
0000
0101
0000
1100
0100
1000
0010
,
1000
0001
1000
0100
1000
0001
0010
0001
,
0011
0000
1100
0000
1010
1000
0100
1000
,
0010
0100
0000
0100
0001
0010
0001
0100
,
0010
1000
0000
1000
0001
0010
0100
1000
,
0100
0010
0001
0100
0010
0100
0000
0110
,
0000
2002
3003
0000
1100
0000
0101
0000
,
1000
0100
1000
0002
0000
0023
0000
0230
,
0000
0000
2300
0000
0000
0000
3001
0100
0001
0000
0100
0000
0010
0000
0000
0000
,
0010
1000
0100
0000
0100
0001
0100
1000
,
0001
0100
0001
0000
0011
0000
1010
0000
,
1000
0100
0010
0002
0000
2003
0000
3020
,
0000
0130
0001
0000
0010
1000
0010
0000
,
0001
0000
0100
0000
0010
0000
1000
0000
0001
0000
0000
0001
0000
0000
0001
0000
,
1000
0000
0000
1000
0000
0000
1000
0000
1010
0000
0000
0000
0101
0000
0000
0000
,
1000
0100
0010
0002
0000
2003
0000
3020
,
0000
0000
0230
0000
0000
0000
0310
1000
0010
0000
0100
0000
0001
0000
0000
0000
,
0001
0010
0100
0000
0100
1000
0010
0001
,
0010
1000
0001
0000
0011
0000
1100
0000
,
1000
0100
1000
0002
0000
0023
0000
0230
,
0000
1300
0001
0000
0100
0010
1000
0000
,
1000
0000
0100
0000
0010
0000
0001
0000
1000
0000
0000
1000
0000
0000
0100
0000
,
0010
0000
0000
0010
0000
0000
0010
0000
0001
0010
0001
0010
0001
0000
0000
0000
,
1000
0000
0000
0010
0000
0000
0100
0000
0001
0000
0000
0000
1001
0000
0000
0001
,
1000
0000
0100
0000
0010
0001
0000
0000
0001
0000
0100
0000
0010
0000
0100
0000
,
1000
0100
0010
0100
0101
0000
1010
0000
,
1000
0001
1000
0001
1000
0000
0000
0000
0010
1000
0010
1000
0010
0000
0000
0000
,
0100
0000
0000
0100
0000
0000
0100
0000
0001
0000
0000
0000
0101
0000
0000
0001
,
0100
0000
0010
0000
1000
0001
0000
0000
0001
0100
0001
0100
0001
0000
0000
0000
,
0010
0000
0000
0010
0000
0000
0010
0000
0100
1000
0000
0100
0000
1000
0001
0000
,
0100
0001
0000
0100
0000
0001
1000
0001
0000
0000
0000
0000
0000
0000
0000
0000
;

//---------------dance-single - ----------------
#NOTES:
     dance-single:
     :
     Easy:
     4:
     0.286354,0.300906,0.018733,0.018733,0.000000,214.000000,212.000000,2.000000,2.000000,0.000000,0.000000,0.286354,0.300906,0.018733,0.018733,0.000000,214.000000,212.000000,2.000000,2.000000,0.000000,0.000000:
0000
0000
0000
0000
,
0000
0000
0000
0000
,
0000
0000
0000
0000
,
0000
0000
0000
0000
,
2000
0000
0000
0000
,
3002
0000
0000
0000
,
0103
0000
0100
0000
,
0010
0010
0010
0000
,
1000
0100
1000
0000
,
0001
0100
0001
0000
,
1000
0000
0001
0000
,
1000
0001
1000
0000
,
0001
0010
0001
0000
,
1000
0010
1000
0000
,
0001
0000
0001
0000
,
1000
0010
0100
0001
,
0000
0000
0001
0001
,
1000
0100
1000
1000
,
1000
0000
0001
0001
,
1000
0010
0100
0100
,
0100
0000
0010
0010
,
1000
0001
0010
0010
,
0010
0000
0001
0001
,
0010
0100
1000
1000
,
0001
0001
1001
1000
,
0001
1000
0010
1000
,
0010
1000
0100
1000
,
0100
1000
0001
0001
,
0001
0000
1000
0001
,
1000
0001
0010
0001
,
0010
0001
0100
0001
,
0100
0001
1000
1000
,
1000
0000
0010
1000
,
0001
0010
0001
1000
,
0001
0001
0100
0001
,
1000
0100
1000
0001
,
1000
1000
0001
0010
,
0100
1000
0010
1000
,
0100
0010
0001
0100
,
0010
1000
0010
0100
,
0110
0000
0100
0100
,
0010
1000
0001
0010
,
0100
0100
0010
0010
,
0001
1000
0010
0100
,
0001
0000
0010
0010
,
0100
1000
0010
0100
,
0001
1000
0100
0100
,
0010
0001
1000
0100
,
0010
0001
1000
1000
,
0010
0100
0001
1000
,
0100
1000
0001
0001
,
1000
0010
0100
0100
,
0100
0000
0001
0001
,
1000
0010
0100
0010
,
1000
0001
0010
0100
,
0010
0001
1000
1000
,
1000
1000
0010
0010
,
0100
0001
1000
1000
,
1000
0000
0100
0100
,
1000
1000
0001
0001
,
0001
0000
0100
0100
,
0010
1000
0001
0010
,
0100
0100
0010
0010
,
0001
1000
0001
0001
,
1000
1000
0000
0000
;

//---------------dance-single - ----------------
#NOTES:
     dance-single:
     :
     Medium:
     6:
     0.432207,0.452237,0.252901,0.112401,0.037467,323.000000,296.000000,27.000000,12.000000,0.000000,0.000000,0.432207,0.452237,0.252901,0.112401,0.037467,323.000000,296.000000,27.000000,12.000000,0.000000,0.000000:
0000
0000
0000
0000
,
0000
0000
0000
0000
,
0000
0000
0000
0000
,
0000
0000
0000
0000
,
0200
0000
0000
0310
,
0000
0000
0000
0000
0000
1000
1000
0000
,
0001
0010
0100
1000
,
0001
0000
1000
0000
0001
0001
0001
0000
,
1001
0000
1000
0000
0100
1000
0100
0000
,
0010
0000
0001
0000
0010
0001
0010
0000
,
0001
0000
0100
0000
0001
0100
0001
0000
,
0100
0000
0010
1000
0000
0000
0000
0000
,
0100
0000
0100
0000
1000
0001
1000
0000
,
0010
0000
0010
0000
1000
0001
1000
0000
,
0001
0000
0100
0000
0001
1000
0001
0000
,
2000
3020
0230
0302
,
0003
0000
0000
0000
1000
0001
1000
0000
,
0100
0000
0000
0100
0000
0000
0100
0000
1000
0000
0000
0000
1001
0000
0000
0000
,
0001
0010
0100
0000
1000
0001
0010
0000
,
0100
1000
0001
0000
1001
0000
0110
0000
,
0100
0100
0100
0000
0001
1000
0001
0000
,
0010
0000
0000
0010
0000
0000
0010
0000
0001
0000
0000
0000
1001
0000
0000
0000
,
1000
0100
0010
0000
0001
1000
0001
0000
,
0100
0000
0000
0000
0100
0000
0000
0000
0001
0000
0000
0001
0000
0000
0001
0000
,
1000
0000
0000
1000
0000
0000
1000
0000
0100
0000
0000
0000
0100
0000
0000
0000
,
1000
0001
1000
0000
0100
0000
0010
0000
,
0001
0100
0001
0000
1000
0001
0100
0000
,
0010
1000
0001
0000
1001
0000
0110
0000
,
1000
1000
1000
0000
0001
0000
0001
0000
,
1000
0010
1000
0000
0010
0000
0100
0000
,
0001
0010
0001
0000
1000
0010
0100
0000
,
0001
0100
0010
0000
0110
0000
1001
0000
,
0001
0001
0001
0000
1000
0100
1000
0000
,
0001
0100
0010
1000
,
1010
0101
1000
0001
,
0010
0100
1000
0001
,
0011
0000
1100
0000
0001
1000
0001
1000
,
0100
1000
0100
0000
0010
0000
0001
0001
,
0000
1000
0000
0000
0010
0000
1000
0001
,
0000
0100
0000
0010
0000
0100
0000
0110
,
0000
1001
0000
0000
1100
0000
1100
0000
,
0100
1000
0100
1000
0000
0010
0000
0100
,
0000
0001
0000
0001
0001
0100
0010
0000
,
1000
0100
0010
0000
0001
1000
0010
0100
,
0001
0000
0011
0011
,
0001
0100
0001
0100
0000
0010
0000
1000
,
0000
0100
0000
0000
1000
0010
1000
0000
,
1000
0001
1000
0000
0002
0000
0023
0000
,
0230
1300
1010
1010
,
0010
0100
0010
0100
0000
0001
0000
1000
,
0000
0001
0000
1000
1000
0100
1000
0000
,
0001
0010
0001
0000
1000
0001
0100
0010
,
1000
0000
0101
0101
,
0100
0010
0100
0010
0000
1000
0000
0100
,
0000
0010
0000
0000
0001
0010
0001
0000
,
0001
1000
0001
0000
2000
0000
3200
0000
,
0320
0000
0032
0000
1003
0001
1000
0000
,
0100
0000
0000
0100
0000
0000
0100
0000
1000
0000
0000
0000
1001
0000
0000
0000
,
0001
0010
0100
0000
1000
0001
0010
0000
,
0100
1000
0001
0000
1001
0000
0110
0000
,
0100
0100
0100
0000
0001
1000
0001
0000
,
0010
0000
0000
0010
0000
0000
0010
0000
0001
0000
0000
0000
1001
0000
0000
0000
,
1000
0100
0010
0000
0001
1000
0001
0000
,
0100
0000
0000
0000
0100
0000
0000
0000
0001
0000
0000
0001
0000
0000
0001
0000
,
1000
0000
0000
1000
0000
0000
1000
0000
0000
0000
0000
0000
0000
0000
0000
0000
;
