#TITLE:Computer Blues;
#SUBTITLE:;
#ARTIST:meganeko;
#TITLETRANSLIT:;
#SUBTITLETRANSLIT:;
#ARTISTTRANSLIT:;
#GENRE:Chiptune;
#CREDIT:TiKAL;
#BANNER:[Tech Savvy] - Computer Blues.png;
#BACKGROUND:[Tech Savvy] - Computer Blues-bg.png;
#LYRICSPATH:;
#CDTITLE:cdtitle.png;
#MUSIC:[Tech Savvy] - Computer Blues.ogg;
#OFFSET:-0.027000;
#SAMPLESTART:120.027000;
#SAMPLELENGTH:15.000000;
#SELECTABLE:YES;
#BPMS:0.000000=128.000000
;
#STOPS:
;
#BGCHANGES:;
#KEYSOUNDS:;
#ATTACKS:;

//---------------dance-single - TiKAL----------------
#NOTES:
     dance-single:
     TiKAL:
     Beginner:
     1:
     0.042175,0.075914,0.007029,0.000000,0.000000,42.000000,41.000000,1.000000,0.000000,0.000000,0.000000,0.042175,0.075914,0.007029,0.000000,0.000000,42.000000,41.000000,1.000000,0.000000,0.000000,0.000000:
0000
0000
0000
0000
,
0000
0000
0000
0000
,
0000
0000
0000
0000
,
0000
0000
0000
0000
,
0000
0000
0000
0000
,
0000
0000
0000
0000
,
0000
0000
0000
0000
,
0000
0000
0000
0000
,
1000
0000
0000
0000
,
0000
0000
0000
0000
,
1000
0000
0000
0000
,
0000
0000
0000
0000
,
1000
0000
0000
0000
,
0000
0000
0000
0000
,
1000
0000
0000
0000
,
1000
0000
0000
0000
,
0001
0000
0000
0000
,
0000
0000
0000
0000
,
0001
0000
0000
0000
,
0000
0000
0000
0000
,
0001
0000
0000
0000
,
0000
0000
0000
0000
,
0001
0000
0000
0000
,
0001
0000
0000
0000
,
0100
0000
0000
0000
,
0000
0000
0000
0000
,
0100
0000
0000
0000
,
0000
0000
0000
0000
,
0100
0000
0000
0000
,
0000
0000
0000
0000
,
0100
0000
0000
0000
,
0100
0000
0000
0000
,
0010
0000
0000
0000
,
0000
0000
0000
0000
,
0010
0000
0000
0000
,
0000
0000
0000
0000
,
0010
0000
0000
0000
,
0000
0000
0000
0000
,
0010
0000
0000
0000
,
0010
0000
0000
0000
,
1000
0000
0000
0000
,
0001
0000
0000
0000
,
1000
0000
0000
0000
,
0001
0000
0000
0000
,
0100
0000
0000
0000
,
0010
0000
0000
0000
,
0100
0000
0000
0000
,
0010
0000
0000
0000
,
1000
0000
0000
0000
,
0000
0000
0000
0000
,
0010
0000
0000
0000
,
0000
0000
0000
0000
,
0100
0000
0000
0000
,
0000
0000
0000
0000
,
0001
0000
0000
0000
,
0000
0000
0000
0000
,
1000
0000
0000
0000
,
0000
0000
0000
0000
,
0100
0000
0000
0000
,
0000
0000
0000
0000
,
0001
0000
0000
0000
,
0000
0000
0000
0000
,
0010
0000
0000
0000
,
0000
0000
0000
0000
,
1000
0000
0000
0000
,
0000
0000
0000
0000
,
0100
0000
0000
0000
,
0000
0000
0000
0000
,
0001
0000
0000
0000
,
0000
0000
0000
0000
,
0010
0000
0000
0000
,
0000
0000
0000
0000
,
1001
0000
0000
0000
;

//---------------dance-single - TiKAL----------------
#NOTES:
     dance-single:
     TiKAL:
     Easy:
     2:
     0.093386,0.151828,0.021087,0.035145,0.000000,93.000000,90.000000,3.000000,5.000000,0.000000,0.000000,0.093386,0.151828,0.021087,0.035145,0.000000,93.000000,90.000000,3.000000,5.000000,0.000000,0.000000:
0000
0000
0000
0000
,
0000
0000
0000
0000
,
0000
0000
0000
0000
,
0000
0000
0000
0000
,
0000
0000
0000
0000
,
0000
0000
0000
0000
,
0000
0000
0000
0000
,
0000
0000
0000
0000
,
0001
0000
0000
0000
,
0001
0000
0000
0000
,
1000
0000
0000
0000
,
1000
0000
0000
0000
,
0010
0000
0000
0000
,
0010
0000
0000
0000
,
0100
0000
0100
0000
,
0100
0000
0100
0000
,
0001
0000
0000
0000
,
1000
0000
0000
0000
,
0010
0000
0000
0000
,
0100
0000
0000
0000
,
0001
0000
0000
0000
,
1000
0000
0000
0000
,
0010
0000
0010
0000
,
0010
0000
0010
0000
,
1000
0000
0000
0000
,
1000
0000
0000
0000
,
0100
0000
0000
0000
,
0100
0000
0000
0000
,
0010
0000
0000
0000
,
0010
0000
0000
0000
,
0001
0000
0001
0000
,
0001
0000
0001
0000
,
1000
0000
0000
0000
,
0010
0000
0000
0000
,
0100
0000
0000
0000
,
0001
0000
0000
0000
,
1000
0000
0000
0000
,
0100
0000
0000
0000
,
0010
0000
0010
0000
,
0010
0000
0001
0000
,
2001
0000
0000
3000
,
0200
0000
0000
0300
,
0020
0000
0000
0030
,
0002
0000
0000
0003
,
1000
0000
0000
0000
,
0100
0000
0000
0000
,
0001
0000
0000
0000
,
0020
0000
0000
0030
,
1000
0000
0000
0000
,
1000
0000
0000
0000
,
0001
0000
0000
0000
,
0001
0000
0000
0000
,
0100
0000
0000
0000
,
0100
0000
0000
0000
,
0010
0000
0000
0000
,
0010
0000
0010
0000
,
0110
0000
0100
0000
,
0100
0000
0100
0000
,
0000
0001
0000
0001
,
0000
0001
0000
0001
,
1000
0000
1000
0000
,
1000
0000
1000
0000
,
0000
0010
0000
0010
,
0000
0100
0000
0100
,
0000
0001
0000
0001
,
0000
0001
0000
0001
,
0000
1000
0000
1000
,
0000
1000
0000
1000
,
0010
0000
0010
0000
,
0010
0000
0010
0000
,
0100
0000
0100
0000
,
0001
0000
1000
0000
,
1001
0000
0000
0000
;

//---------------dance-single - TiKAL----------------
#NOTES:
     dance-single:
     TiKAL:
     Medium:
     4:
     0.205852,0.286084,0.035145,0.295222,0.000000,205.000000,200.000000,5.000000,42.000000,0.000000,0.000000,0.205852,0.286084,0.035145,0.295222,0.000000,205.000000,200.000000,5.000000,42.000000,0.000000,0.000000:
// measure 0
0000
0000
0000
0000
,  // measure 1
0000
0000
0000
0000
,  // measure 2
0000
0000
0000
0000
,  // measure 3
0000
0000
0000
0000
,  // measure 4
0000
0000
0000
0000
,  // measure 5
0000
0000
0000
0000
,  // measure 6
0000
0000
0000
0000
,  // measure 7
0000
0000
0000
0000
,  // measure 8
1000
0010
0000
0010
,  // measure 9
0000
0100
0000
0100
,  // measure 10
0000
0001
0000
0001
,  // measure 11
0000
1000
0000
1000
,  // measure 12
0001
1000
0001
1000
,  // measure 13
0010
0100
0010
0100
,  // measure 14
0002
0023
0230
2300
,  // measure 15
3002
0203
0320
2030
,  // measure 16
3000
0001
0000
0010
,  // measure 17
0000
0001
0000
0010
,  // measure 18
0000
0100
0000
1000
,  // measure 19
0000
0100
0000
1000
,  // measure 20
0010
1000
0010
1000
,  // measure 21
0001
0100
0001
0100
,  // measure 22
0002
0023
0230
2300
,  // measure 23
3002
0203
0320
2030
,  // measure 24
3000
0100
0000
0100
,  // measure 25
0000
1000
0000
1000
,  // measure 26
0000
0001
0000
0001
,  // measure 27
0000
0010
0000
0010
,  // measure 28
0001
1000
0010
0100
,  // measure 29
0001
1000
0100
0010
,  // measure 30
0002
0203
0320
2030
,  // measure 31
3002
0023
0230
2300
,  // measure 32
3001
1000
0000
0100
,  // measure 33
0000
1000
0000
0001
,  // measure 34
0000
0100
0000
0001
,  // measure 35
0000
1000
0000
0010
,  // measure 36
1000
0100
0010
0100
,  // measure 37
0010
0001
1000
0001
,  // measure 38
2000
3200
0320
0032
,  // measure 39
1003
0000
0001
0000
0010
0100
1000
0000
,  // measure 40
2001
0000
0000
0100
0000
0000
3100
0000
,  // measure 41
0200
0000
0000
0010
0000
0000
0310
0000
,  // measure 42
0020
0000
0000
0001
0000
0000
0031
0000
,  // measure 43
0002
0000
0000
1000
0000
0000
1003
0000
,  // measure 44
0001
0100
0010
1000
,  // measure 45
0001
0010
0100
1000
,  // measure 46
0001
0100
0001
1000
,  // measure 47
0020
0000
0030
1001
,  // measure 48
1000
0000
0001
0000
,  // measure 49
1000
0000
0001
0001
,  // measure 50
0100
0000
0010
0000
,  // measure 51
0100
0000
0010
0010
,  // measure 52
1000
0000
0100
0000
,  // measure 53
0010
0000
0001
0001
,  // measure 54
1000
0000
0010
0000
,  // measure 55
0100
0000
0001
1000
,  // measure 56
1001
0000
0001
0100
,  // measure 57
1000
0100
0001
2000
,  // measure 58
3000
1000
0100
0010
,  // measure 59
0001
0010
0100
1000
,  // measure 60
0001
0010
0100
1000
,  // measure 61
0100
0010
0001
2000
,  // measure 62
3000
0001
1000
0001
,  // measure 63
0000
0100
0010
0100
,  // measure 64
0000
1000
0100
0001
,  // measure 65
0100
1000
0001
2000
,  // measure 66
3000
1000
0010
0100
,  // measure 67
0001
0100
0010
0010
,  // measure 68
1001
0000
0001
0100
,  // measure 69
0010
1000
0010
0100
,  // measure 70
0002
0003
0020
0030
,  // measure 71
0200
0300
2000
3001
,  // measure 72
2002
0000
0000
0000
,  // measure 73
0000
0000
0000
0000
,  // measure 74
3003
0000
0000
0000
;

//---------------dance-single - TiKAL----------------
#NOTES:
     dance-single:
     TiKAL:
     Hard:
     8:
     0.447853,0.468137,0.161669,0.231960,0.319823,446.000000,423.000000,23.000000,33.000000,0.000000,0.000000,0.447853,0.468137,0.161669,0.231960,0.319823,446.000000,423.000000,23.000000,33.000000,0.000000,0.000000:
0000
0000
0000
0000
,
0000
0000
0000
0000
,
0000
0000
0000
0000
,
0000
0000
0000
0000
,
0000
0000
0000
0000
,
0000
0000
0000
0000
,
0000
0000
0000
0000
,
0000
0000
0000
0000
,
1000
0000
0001
0000
0100
0000
0000
0200
0000
0000
0301
0000
1000
0000
0100
2000
,
0000
0000
3010
0000
0100
0000
0000
0001
0000
0100
0000
0010
0000
1000
0001
0000
,
1000
0000
0100
0000
0010
0000
0000
0020
0000
0000
0031
0000
0100
0000
0001
0000
,
1000
0000
0100
0000
0010
0000
0000
0001
0000
0000
0010
0000
0100
0000
1000
0000
,
0001
0100
0001
0100
0010
1000
0010
1000
,
0001
0010
0100
1000
0001
0100
0010
1000
,
0010
0000
0100
0000
0001
0000
0000
0002
0000
0000
0013
0000
0010
0000
0100
0000
,
1000
0000
0001
0000
0100
0000
0000
0010
0000
1000
0000
0001
0000
0100
0000
0002
,
0000
0013
0100
1000
0001
0100
0010
1000
,
0001
0000
0010
0001
0100
0010
1000
0100
,
1000
0001
0100
0000
0001
1000
0100
0010
,
0001
1000
0010
0100
0001
0010
0100
1000
,
0001
0000
0200
0000
0000
0000
2300
0000
0000
0000
3100
0000
0010
0000
0001
1000
,
0000
0000
0001
0100
0000
0000
0100
0010
0000
0000
0010
1000
0000
0000
1000
0001
,
1000
0010
0100
0001
1000
0010
1000
0001
,
1000
0000
0100
0000
0010
0000
0001
0000
1000
0000
0010
0000
0100
0000
0001
2000
,
0000
0000
0000
0000
0000
0000
0000
0000
0000
0000
0000
0000
3100
0000
0000
0000
0000
0000
0010
0000
0000
0000
0000
0000
0000
0000
0000
0001
0000
0000
1000
0000
0000
0000
0000
0000
0001
0000
0000
0000
0100
0000
0000
0000
0010
0000
0000
0000
,
1000
0000
0001
0000
0100
0000
0001
0010
0000
0000
0001
0000
0010
0000
0100
0000
,
0000
1000
0000
0000
0001
0000
1000
0000
0100
0000
1000
0000
0001
0000
0010
0000
,
0001
0000
0100
0000
0010
0000
1000
0000
0001
0000
0010
0000
0100
0000
1000
0100
,
0000
1000
0001
0010
0001
1000
0010
1000
,
0001
0010
0100
1000
0001
0100
0010
1000
,
0100
0100
1000
1000
0001
0001
0100
0100
,
0001
0010
0100
1000
0001
0100
0001
1000
,
0010
0000
1000
0000
0100
0000
0000
0200
0000
0000
1300
0000
0001
0000
0000
0002
,
0000
0000
0103
0000
0010
0000
0000
0020
0000
0000
1030
0000
0100
0000
0000
0200
,
0000
0000
1300
0000
0001
0000
0000
0200
0000
0000
0310
0000
0100
0000
0001
0000
,
0000
1000
0100
0010
0001
1000
0010
0100
,
0001
0000
1000
0000
0100
0000
1000
0000
0001
0000
0100
0000
0001
0000
1000
0100
,
0000
0000
0010
0001
0000
0000
1000
0010
0000
0000
0100
0001
0000
0000
1000
0000
,
0100
0000
1000
0000
0001
0000
0100
0000
0001
0000
0010
0000
0100
0000
1000
0200
,
0000
0000
1300
0000
0001
0000
0000
0010
0000
0001
0000
1000
0000
0010
0000
0210
,
0000
0000
0000
0000
0000
0000
0001
0000
0000
0001
0000
0000
0301
0000
0000
0000
,
0220
0000
0000
0300
0000
0000
1000
0000
0000
1000
0000
0000
1030
0000
0000
0000
,
2002
0000
0000
3000
0000
0000
0100
0000
0000
0100
0000
0000
0103
0000
0000
0000
,
2002
0000
0000
0003
0000
0000
0010
0000
0000
0010
0000
0000
3020
0000
0000
0000
,
0130
0001
1000
0100
0010
0001
1000
0010
,
0100
0010
1000
0001
0010
0100
1000
0001
,
1000
0100
0010
0001
1000
0010
0100
0001
,
1000
0000
0001
0000
0100
0000
0010
0000
2000
0000
0000
3000
1001
0000
0000
0000
,
0001
0000
0000
0001
0000
0000
0100
0000
0010
0000
0000
0010
0000
0000
1000
0000
,
0100
0000
0000
0100
0000
0000
1000
0000
0001
0000
0000
0001
0000
0010
0001
0000
,
0100
0000
0000
0100
0000
0000
0010
0000
0100
0000
0000
0100
0000
0000
0001
0000
,
1000
0000
0000
1000
0000
0000
0010
0000
1000
0000
0000
1000
0000
0000
0100
0000
,
1000
0000
0000
0001
0000
0000
0100
0000
0001
0000
0000
1000
0000
0000
0010
0000
,
0100
0000
0000
0001
0000
0000
1000
0000
0100
0000
0000
1000
0000
0000
0001
0000
,
1000
0000
0000
0100
0000
0000
0010
0000
0001
0000
0000
0010
0000
0000
0100
0000
,
1000
0000
0000
0001
0000
0000
0100
0000
0010
0000
0100
0000
0001
0000
1000
0000
,
2002
0000
0000
0000
3003
0000
0000
0000
1000
0000
0000
0100
0000
0000
0001
0000
,
0000
0010
0000
0000
1000
0000
0000
0001
0000
0010
0000
0100
0000
1000
0200
0000
,
0000
0000
0300
0000
1001
0000
0000
0000
0001
0000
0000
0100
0000
0000
1000
0000
,
0100
0000
0000
0000
0101
0000
0000
0000
0001
0000
0000
0010
0000
0000
0100
0000
,
1000
0000
0000
0000
1001
0000
0000
1000
0000
0000
0010
0000
0000
0100
0000
0000
,
0001
0000
0000
0000
1001
0000
0000
1000
0000
0100
0000
0010
0000
0001
2000
0000
,
0000
0000
3000
0000
1001
0000
0000
0000
0001
0000
0000
0100
0000
0000
1000
0000
,
0200
0000
0000
0300
0110
0000
0000
0000
1010
0000
0000
0000
1001
0000
0000
0000
,
0000
0000
0000
0000
0110
0000
0000
0000
0001
0000
0000
0010
0000
0000
1000
0000
,
0000
0100
0000
0000
0001
0000
0000
1000
0000
0100
0000
0010
0000
0001
0000
0020
,
0000
0030
1001
0000
1001
0000
0101
0000
,
0101
0000
0000
0000
1010
0000
0000
0000
1000
0000
0000
0100
0000
0000
0010
0000
,
0001
0000
0000
0000
1001
0000
0000
0001
0000
0000
0100
0000
0000
0010
0000
0000
,
1000
0000
0000
0000
1001
0000
0000
0001
0000
0010
0000
0100
0000
1000
0001
2000
,
0000
3001
0100
1000
0100
0001
0010
0100
,
1000
0000
0001
0000
0100
0000
0010
0000
1000
0000
0001
0000
2000
0000
0000
3000
,
2002
0000
0000
0000
,
0000
0000
0000
0000
,
3003
0000
0000
0000
;

//---------------dance-single - TiKAL----------------
#NOTES:
     dance-single:
     TiKAL:
     Challenge:
     13:
     0.816378,1.066312,0.372542,0.857548,1.493681,813.000000,760.000000,53.000000,122.000000,7.000000,0.000000,0.816378,1.066312,0.372542,0.857548,1.493681,813.000000,760.000000,53.000000,122.000000,7.000000,0.000000:
0000
0000
0000
0000
,
0000
0000
0000
0000
,
0000
0000
0000
0000
,
0000
0000
0000
0000
,
0000
0000
0000
0000
,
0000
0000
0000
0000
,
0000
0000
0000
0000
,
0000
0000
0000
0000
,
1001
0000
1000
0000
0100
0010
0000
0002
0000
0000
1003
0000
0010
0100
0001
2000
,
0000
0000
0000
0000
3100
0000
0010
0000
0001
0000
1000
0000
0010
0100
0020
0000
0030
0000
2000
0000
0000
0000
3002
0000
0003
0000
0010
0000
0001
0000
1000
0000
,
0010
0000
0000
0000
0100
0000
0000
0000
0010
0000
0000
0000
0100
0000
0000
0000
0000
0000
0000
0000
0000
0000
0000
0000
0001
0000
0000
0000
0000
0000
1000
0000
0000
0000
0000
0000
0100
0000
0000
0000
0000
0000
0020
0000
0000
0000
0000
0000
0000
0000
0000
0000
0000
0000
0031
0000
0000
0000
0000
0000
1000
0000
0000
0000
0000
0000
0010
0000
0000
0000
0000
0000
0100
0000
0000
0000
0000
0000
0001
0000
0000
0000
0000
0000
1000
0000
0000
0100
0000
0000
1000
0000
0000
0100
0000
0000
,
1000
0000
0000
0000
0001
0000
0000
0000
1000
0000
0000
0000
0010
0000
0000
0000
0000
0000
0100
0000
0000
0000
0000
0000
0001
0000
0000
0000
0000
0000
1000
0000
0000
0100
0000
0000
0000
0000
0000
0000
0000
0000
0020
0000
0000
0000
0000
0000
0030
0000
0000
0000
0000
0000
0001
0000
0000
0000
0000
0000
1000
0000
0000
0000
0010
0000
0000
0000
0100
0000
0000
0000
0001
0000
0000
0000
0000
0000
1000
0000
0000
0000
0000
0000
0100
0000
0000
0000
0000
0000
0020
0000
0000
0000
0000
0000
,
0000
0000
0000
0000
0000
0000
0031
0000
0000
0000
0000
0000
0010
0000
0000
0200
0000
0000
0000
0000
0000
0000
0000
0000
1300
0000
0000
0000
0000
0000
0001
0000
0000
0000
0000
0000
0100
0000
0000
0000
0000
0000
0010
0000
0000
0000
0000
0000
1000
0000
0000
0000
0001
0000
0000
0000
1000
0000
0000
0000
0001
0000
0000
0000
0000
0000
0010
0000
0000
0000
0000
0000
0010
0000
0000
0000
0000
0000
0100
0000
0000
0000
0000
0000
1000
0000
0000
0000
0000
0000
0001
0000
0000
0000
0000
0000
,
1000
0000
0000
0000
0000
0000
0100
0000
0000
0000
0000
0000
0010
0000
0000
0000
0000
0000
0001
0000
0000
0000
0000
0000
1000
0000
0000
0000
0001
0000
0000
0000
1000
0000
0000
0000
0001
0000
0000
0000
0000
0000
0010
0000
0000
0000
0000
0000
0100
0000
0000
0000
0000
0000
1000
0000
0000
0000
0000
0000
0001
0000
0000
0010
0000
0000
0001
0000
0000
0010
0000
0000
0001
0000
0000
0000
0000
0000
0010
0000
0000
0000
0000
0000
0100
0000
0000
0000
0000
0000
2000
0000
0000
0000
0000
0000
,
0000
0000
3001
0000
0100
0000
0010
0000
0100
0000
0001
0000
1000
0000
0200
0000
0000
0000
1300
0000
0001
0000
0100
0000
0010
0000
0100
0000
0010
0000
0100
0002
,
0000
1003
0100
0010
0001
1000
0010
0200
0300
0002
0003
0020
0030
0200
0300
2100
,
0000
0000
3001
0000
0100
0000
0010
0000
1000
0000
0001
0000
1000
0000
0100
0000
0010
0000
0000
0000
0001
0000
1000
0000
0001
0000
1000
0010
0100
0000
0002
0000
,
0000
0000
1003
0100
1000
0000
0001
0000
0100
0000
0010
0000
0100
0000
0001
0000
1000
0000
0100
0000
1000
0000
0020
0000
0030
0000
0100
0000
0001
0000
2000
0000
,
0000
0000
0000
3001
0000
0000
0020
0000
0000
0030
0000
0000
0100
0000
0000
1000
0000
0000
0001
0000
0000
0200
0000
0000
0000
0000
0000
0310
0000
0000
1000
0000
0000
0001
0000
0000
1000
0000
0100
0000
0010
0000
0001
0000
0010
0000
0100
0000
,
1000
0000
0010
0000
0100
0000
0001
0000
0100
0000
0010
0000
1000
0000
0000
0001
0000
0000
0100
0000
0000
0040
0000
0000
0000
0000
0130
0000
0001
0000
0100
0000
0010
0000
1000
0000
0010
0000
0000
1000
0000
0000
0001
0000
0000
0200
0000
0000
,
0000
0000
0310
0000
0100
0001
2000
0000
0000
0000
3001
0000
0100
0000
0020
0000
0000
0000
1030
0000
0001
0000
0100
0000
0000
0000
0010
0000
1000
0002
0000
0000
,
0000
0000
1003
0000
0100
0000
0010
0002
0000
0000
1003
0000
0010
0000
0200
0000
0000
0000
0301
0000
0100
0000
0002
0000
0000
0000
1003
0000
0010
0000
0200
0000
,
0000
0301
0100
0002
0000
1003
0100
0010
0001
0010
0100
2000
0000
3001
0100
0020
,
0000
1030
0100
0020
0000
0031
0100
0002
0003
1000
0100
0010
0001
0010
0100
2000
,
3000
0000
0000
020M
0000
0000
0300
0000
0000
M200
0000
0000
0300
0000
0000
0001
0000
0000
1000
0000
0000
0001
0000
0000
0000
0000
0000
1000
0000
0000
0100
0000
0010
0000
0001
0000
0100
0000
0000
0000
0100
0000
0000
0000
0100
0000
0000
0000
,
0020
0030
0100
0002
0003
1000
0100
2000
3000
0010
0100
0002
0003
1000
0100
0020
,
0030
0002
0003
0000
1000
1000
0010
0100
0000
0001
0100
0002
0003
0010
0100
2000
,
3000
0000
0001
0000
0100
0000
0020
0000
0030
0000
1000
0000
0001
0000
0200
0000
0300
0000
0010
0000
1000
0000
0200
0000
0300
1000
0001
0000
0100
0000
0020
0000
,
0030
0000
0000
0000
0000
0000
0100
0000
0000
0001
0000
0000
0100
0000
0000
0000
0000
0000
0010
0000
0000
0000
0000
0000
1000
0000
0000
0000
0001
0000
0000
0000
0100
0000
0000
0000
0010
0000
0000
0000
1000
0000
0000
0000
0001
0000
0000
0000
0010
0000
0000
0000
0100
0000
0000
0000
1000
0000
0000
0000
0001
0000
0000
0000
0100
0000
0000
0000
0010
0000
0000
0000
1000
0000
0000
0000
0100
0000
0000
0000
0010
0000
0000
0000
0001
0000
0000
0000
0000
0000
1000
0000
0000
0000
0000
0000
,
0000
0000
0000
0010
0000
0000
0100
0000
0000
0001
0000
0000
1000
0000
0100
0000
0010
0000
0001
0000
0000
1000
0000
0000
0000
0000
0000
0001
0000
0000
0100
0000
0000
0010
0000
0000
1000
0000
0000
0010
0000
0000
0100
0000
0000
0001
0000
0000
,
1000
0010
0100
0001
0100
0010
1000
0100
0010
0001
0010
0100
1000
0001
0100
0001
0010
0001
0100
0001
1000
0010
1000
0100
,
1000
0010
0100
0002
0003
2000
3000
0200
0300
0010
0002
0000
1003
0010
0100
0001
,
1000
0000
0001
0000
0100
0010
0100
0002
0000
1003
0200
0000
1300
0001
0100
0020
,
0000
1030
0002
0000
1003
0100
0010
0002
0000
0103
0001
1000
0001
0010
0100
2000
,
0000
0000
3001
0000
0200
0000
0000
0000
0310
0000
1000
0000
0001
0100
0002
0000
0000
0000
1003
0000
0100
0000
0010
0000
0001
0000
0010
0000
0100
0000
2000
0000
,
3000
0000
0000
0001
0000
0000
0100
0000
0000
0010
0000
0000
1000
0000
0100
0000
1000
0000
0100
0000
1000
0000
0100
0000
1000
0000
0010
0000
1000
0000
0010
0000
1000
0000
0010
0000
1000
0000
0001
0000
0100
0000
0010
0000
1000
0000
0100
0000
,
0010
0000
0001
0000
0010
0000
0100
0000
1000
0000
0001
0000
0100
0000
0000
0010
0000
0000
1000
0000
0000
0001
0000
0000
0100
0000
0000
0010
0000
0000
0100
0000
0000
0001
0000
0000
1000
0000
0000
0100
0000
0000
1000
0000
0000
0020
0000
0000
,
0000
0130
0001
2000
0000
3100
1000
0020
0000
0130
0001
1000
0001
0010
0001
0200
,
0000
0301
0100
0010
1000
0100
0010
0002
0000
1003
0100
1000
0001
0100
0100
0020
,
0000
0000
1030
0000
0001
0000
0100
0000
0010
0000
0100
0000
0001
1000
0001
0000
0000
0000
0101
0000
0000
0000
0110
0000
0000
0000
1010
0000
0000
0000
0001
0000
,
2000
0000
3000
0200
0000
0300
0M02
0000
0003
0020
0030
0001
0010
0100
1000
0001
,
2000
0000
3000
0020
0000
0030
00M2
0000
0003
0200
0300
0001
0100
0001
1000
0010
,
2000
0000
3000
0020
0000
0030
00M2
0000
0003
0200
0300
0001
0100
0010
1000
0001
,
2000
0000
0000
0000
0000
0000
3000
0000
0000
0100
0000
0000
1000
0000
0000
0000
0000
0000
101M
0000
0000
0000
0000
0000
0000
0000
0000
M010
0000
0000
0001
0000
0000
0010
0000
0000
0100
0000
0000
1000
0000
0000
0100
0000
0010
0000
0001
0000
,
0010
0001
0100
0010
1000
0100
0010
0001
1000
0001
0010
0100
1000
0001
0100
0010
,
1000
0100
0010
0001
1000
0010
0100
0002
0003
1000
0100
1000
0001
0010
0100
1000
,
0001
0100
0010
1000
0001
1000
0010
0200
0300
0001
0100
0010
1000
0100
0010
0001
,
1000
0000
0010
0000
1000
0000
0001
0000
0100
0000
0001
0000
1000
0000
0001
0000
4000
0004
0000
0000
0000
0000
3003
0000
2002
0000
0000
0000
0000
0000
3003
0000
,
0001
0010
0100
0020
0000
0000
0031
0000
0010
0100
0000
2000
0000
0000
3100
0000
,
1000
0000
0000
0010
0000
0000
0000
0000
0000
0200
0000
0000
0000
0000
0000
0000
0000
0000
0301
0000
0000
0000
0000
0000
0010
0000
0000
0001
0000
0000
0000
0000
0000
0020
0000
0000
0000
0000
0000
0030
0100
0000
2000
0000
0000
0000
0000
0000
,
3001
0100
0010
2000
0000
0000
3001
0000
1000
0100
0000
0020
0000
0000
0031
0000
,
0100
0010
0000
2000
0000
0000
3100
0000
1000
0100
0000
0002
0000
0000
0103
0000
,
1000
0000
0100
1000
0001
0000
0200
0000
0000
0000
0000
0000
0301
0000
0000
0000
0100
0000
0010
0000
0000
0000
2000
0000
0000
0000
0000
0000
3010
0000
0000
0000
,
1000
0100
0000
0020
0000
0000
0031
0000
0100
0001
0000
0200
0000
0310
2000
0000
,
3001
0010
0100
2000
0000
0000
3001
0000
1000
0010
0000
0200
0000
0000
0301
0000
,
0010
0100
0000
2000
0000
0000
3010
1000
0010
0100
0001
0100
0001
0010
0100
1000
,
0002
0000
0000
0003
1001
0000
0000
0000
0101
0000
0000
1100
0000
0000
0101
0000
,
0000
1100
0000
0000
1001
0000
1000
0020
0030
0200
0300
0002
1003
0100
0020
0000
,
0031
0000
0000
0000
1001
0000
0000
0000
1010
0000
0000
0011
0000
0000
1001
0000
,
0000
0000
1000
0000
1001
0000
0000
0000
0011
0000
0000
1001
0000
0000
1010
0000
,
0110
0000
0000
0000
0101
0000
0000
1001
0000
0000
1100
0000
0000
1001
0000
0000
,
0100
0020
0000
0030
0110
0000
1000
0002
0003
0010
0000
0001
0000
0010
0200
0000
,
1300
0000
0000
0000
1100
0000
0000
0000
1000
0001
0000
0100
0010
0000
1000
0001
,
4000
0000
0000
3000
1001
0000
0000
0000
0101
0000
0000
1001
0000
0000
1100
0000
,
0020
0000
0000
0000
0000
0000
0000
0030
0110
0000
0000
0000
0000
0000
0000
0000
1100
0000
0000
0000
0000
0000
0011
0000
0000
0000
0000
0000
0101
0000
0000
0000
,
0000
1010
0000
0000
1001
0000
1000
0020
0030
0200
0300
0002
1003
0100
0010
0002
,
0000
0003
1001
0000
1010
0000
0101
0000
,
0011
0000
0000
0000
1100
0000
0000
0000
0011
0000
0000
1001
0000
0000
1010
0000
,
0110
0000
0000
0000
0101
0000
0000
1001
0000
0000
1100
0000
0000
1001
0000
0000
,
0100
0020
0000
0030
0110
0000
1000
0002
0003
0010
0100
1000
0000
0100
0010
0002
,
0000
0000
1003
0001
1000
0100
0010
0100
1000
0001
0100
0010
1000
0100
0010
0001
,
1000
0001
0100
0010
0100
0001
1000
0100
0010
0001
0010
0100
2000
0000
0000
3000
,
2002
0000
0000
0000
,
0000
0000
0000
0000
,
3003
0000
0000
0000
;
