#TITLE:Beep Beep I'm a Sheep;
#SUBTITLE:;
#ARTIST:LilDeuceDeuce Feat. Tomska & Black Gryph0n;
#TITLETRANSLIT:;
#SUBTITLETRANSLIT:;
#ARTISTTRANSLIT:;
#GENRE:;
#CREDIT:;
#BANNER:Beep Beep.png;
#BACKGROUND:Beep Beep - BG.png;
#LYRICSPATH:;
#CDTITLE:cd-rikame.png;
#MUSIC:Beep Beep.ogg;
#OFFSET:-0.231;
#SAMPLESTART:53.541;
#SAMPLELENGTH:15.240;
#SELECTABLE:YES;
#BPMS:0.000=125.950,147.750=62.975,149.750=125.950,265.750=62.975,267.750=125.950;
#STOPS:;
#BGCHANGES:;
#KEYSOUNDS:;

//---------------dance-single - Blank----------------
#NOTES:
     dance-single:
     rikame:
     Challenge:
     11:
     0.874,0.903,0.675,0.491,0.925:
0000
0000
0000
0000
,
0000
0000
0000
0000
,
0000
0000
0000
0000
,
0000
0000
0000
0000
,
1010
0000
0000
0000
0011
0000
0000
0000
0101
0000
1000
0010
0000
0010
0100
0000
,
0001
0000
0001
0000
0010
0000
0001
1000
0000
0010
0000
0010
0100
0000
0100
0001
,
0101
0000
0000
0000
1100
0000
0000
0000
0011
0000
0010
0001
0000
0001
0100
0000
,
0010
0000
0010
0000
1000
0000
1000
0100
0000
0000
1100
0000
1100
0000
0010
0000
,
0101
0000
0000
0000
,
00M0
00M0
00M0
00M0
,
M000
0M00
000M
00M0
,
0001
0000
0010
0M00
0010
0000
1000
0000
0001
0000
0100
M000
0100
0000
0010
0000
0001
0000
0100
00M0
0100
0000
1000
0000
0001
0000
0000
0000
0000
0000
0000
0000
,
0111
0000
0000
0000
0001
0000
0010
0000
1000
0000
0010
0100
0000
0000
0100
1000
,
0001
0000
0100
0000
0010
0000
0010
2000
0000
0001
0000
3001
0010
0100
1000
0001
,
0100
0000
0000
0000
0102
0000
1003
0000
0010
0100
0010
1000
0001
0010
0100
1000
,
0010
0000
0200
0000
0002
1000
0000
0010
0000
0000
1010
0000
1313
0000
0001
0000
,
0011
0000
0000
1000
2010
0000
3100
0000
0011
0000
1000
0101
0000
0000
1100
0001
,
1000
0000
0100
0000
1000
0001
0000
0200
0000
0320
0000
0031
0010
0100
0001
0000
,
0021
0000
0130
0000
2010
0000
3001
0000
0010
0000
0001
1000
0000
0000
1000
0100
,
0010
M000
0010
0000
1000
0000
0001
2000
0000
0000
3100
0010
0101
1000
0001
0000
,
1100
0000
0000
0000
0101
0000
0001
0000
1000
0000
0001
0010
0M00
0010
1000
0100
,
0010
0000
0010
0000
0001
0000
0001
0100
0010
0000
0001
0010
0100
0001
1000
0000
,
1100
0000
1000
0000
0101
0000
0001
0000
1000
0000
0100
0010
000M
0010
1000
0000
,
0100
0000
0100
0000
1000
0000
1000
0001
0000
0001
1010
0001
1010
0000
1000
0010
,
2020
0000
3030
0000
0201
0000
0310
0000
1000
0000
0100
0001
M000
0001
0010
0001
,
1000
0000
1000
0000
0001
0000
0001
0010
0100
0000
0001
0100
0010
0001
1000
0000
,
1020
0000
0130
0000
0021
0000
0130
0000
1000
0000
0010
0001
M000
0001
0100
0001
,
1000
0000
1000
0000
0001
0000
0001
0010
0110
0000
1000
0010
1000
0100
0010
0001
,
1002
0000
0103
0000
2001
0000
3100
0000
0010
1000
000M
1000
0100
1000
0001
0100
,
0101
0000
0200
0000
0320
0000
0032
0000
0013
0100
0001
0010
0200
0000
1300
0001
,
0201
0000
0310
0000
0102
0000
1003
0000
0010
0001
M000
0001
0100
0001
1000
0100
,
1100
0000
0000
0000
1100
0000
0000
0000
0012
0000
0000
0000
1003
0000
0010
0000
0000
0000
1000
0010
1000
0000
0001
0000
0000
0000
0001
0000
1000
0000
0000
0000
,
0202
0000
0303
0000
1200
0000
0310
0000
0100
0001
M000
0001
0010
0001
1000
0010
,
1010
0000
0020
0000
0230
0000
2300
0000
3100
0010
1000
0100
0020
0000
0031
1000
,
1002
0000
0013
0000
2001
0000
3010
0000
0100
1000
000M
1000
0010
1000
0001
0100
,
0101
0000
0010
0000
1100
0000
0001
0010
0001
0100
0010
0001
0010
1000
0001
0000
,
1001
0000
0000
0000
0000
0000
0000
0000
0000
0000
0000
0000
0000
0000
0000
0000
0000
0000
0000
0000
0000
0000
0000
0000
0001
0000
0000
0000
0000
0000
0000
0000
0000
0000
0000
0000
0000
0000
0000
0000
0000
0000
0000
0000
0000
0000
0000
0000
1000
0000
0000
0000
0000
0000
0000
0000
0001
0000
0000
0000
0000
0000
0000
0000
0010
0000
0000
0000
0000
0000
0000
0000
0001
0000
0000
0000
0000
0000
0000
0000
0000
0000
0000
0000
0100
0000
0000
0000
0000
0000
0000
0000
0000
0000
0000
0000
0001
0000
0000
0000
0000
0000
0000
0000
1000
0000
0000
0000
0000
0000
0000
0000
0100
0000
0000
0000
0000
0000
0000
0000
1000
0000
0000
0000
0000
0000
0000
0000
0001
0000
0000
0000
0000
0000
0000
0000
0100
0000
0000
0000
0000
0000
0000
0000
0001
0000
0000
0000
0000
0000
0000
0000
0010
0000
0000
0000
0000
0000
0000
0000
0100
0000
0000
0000
0000
0000
0000
0000
1000
0000
0000
0000
0000
0000
0000
0000
0000
0000
0000
0000
00M1
0000
0000
0000
0000
0000
0100
0000
0000
0000
0000
0000
,
0001
0000
0010
0000
0001
0000
1000
0000
0100
0000
1000
0010
0000
0100
0000
0000
0M02
0000
0000
0000
0013
0000
0010
0000
0002
0000
0000
0000
1003
0000
0000
0000
,
0010
0100
0000
0100
0001
0000
1000
0000
0100
0000
1000
0001
0000
0001
0100
0010
,
1000
0100
0000
0100
0010
0000
0001
0001
0010
0000
0001
0001
1000
0000
1000
0000
,
0100
0000
1000
0000
0000
0000
1000
0000
0010
0000
0000
0000
0100
0000
0000
0000
0001
0000
0100
00M0
0100
0000
1000
0000
0001
0000
0010
M000
0010
0000
0100
0000
,
0001
0000
0010
0M00
0010
0000
1000
0000
0001
0000
0000
0000
0000
0000
0000
0000
1011
0000
0000
0000
0000
0000
0000
0000
0001
0000
0000
0000
0100
0000
0000
0000
,
1000
0000
0100
0010
0000
0000
0010
1000
0001
0000
0010
0000
0100
0000
0100
2000
,
0000
0010
0000
3010
0100
0001
1000
0001
0010
0000
0000
0000
0012
0000
1003
0000
,
0100
0010
0001
0100
0000
0100
0010
1000
0001
0000
0010
0000
2000
0000
3010
0002
,
0000
0000
1100
0000
1103
0000
0001
1000
1001
0000
0000
0001
1010
0001
0100
0000
,
0101
0000
1000
0011
0000
0000
1000
0100
0010
0000
1000
0000
0010
0001
0000
0200
,
0000
0320
0000
0031
0010
0100
0001
0010
0021
0000
0130
0000
1010
0001
0100
0000
,
0010
0000
0010
1000
0000
0000
1000
0001
0100
M000
0100
0000
1000
0000
0001
0020
,
0000
0000
0130
1000
1001
0000
0010
0000
1001
0000
0000
0000
0110
0000
0001
0000
,
1000
0000
0001
0100
00M0
0100
0010
0001
1000
0000
1000
0000
0001
0000
0001
0100
,
0010
0000
0001
0010
0100
0001
1000
0000
1100
0000
0001
0000
0101
0000
1000
0000
,
0010
0000
1000
0100
00M0
0100
0010
1000
0001
0000
0001
0000
1000
0000
1000
0001
,
0000
0001
1100
0001
1100
0000
0010
0100
0102
0000
0003
0000
1200
0000
0310
0000
,
0001
0000
0100
1000
000M
1000
0010
1000
0001
0000
0001
0000
1000
0000
1000
0010
,
0100
0000
1000
0100
0010
1000
0001
0000
2010
0000
3100
0000
0012
0000
0103
0000
,
0001
0000
0010
1000
000M
1000
0100
1000
0010
0000
0010
0000
1000
0000
1000
0100
,
0110
0000
1000
0100
1000
0010
0100
0001
1002
0000
0013
0000
2001
0000
3010
0000
,
0100
1000
000M
1000
0010
1000
0001
0010
0011
0000
0020
0000
0230
0000
0302
0000
,
0103
0010
0001
0100
0020
0000
1030
0001
0021
0000
0030
0000
0012
0000
1003
0000
,
0100
0000
0001
0000
M000
0000
0001
0000
0010
0000
0001
0000
1000
0000
0010
0000
1010
0000
0000
0000
1010
0000
0000
0000
0102
0000
0000
0000
1003
0010
1000
0000
,
0001
0000
1000
0100
1000
0000
0001
0000
0000
0000
0001
0000
1000
0000
0000
0000
2010
0000
0000
0000
3000
0000
0000
0000
1020
0000
0000
0000
0130
0000
0000
0000
,
0010
0001
M000
0001
0100
0001
1000
0100
1100
0000
0200
0000
0320
0000
2030
0000
,
3010
0100
1000
0010
0200
0000
0301
1000
1002
0000
1003
0000
2001
0000
3001
0000
,
0010
1000
000M
1000
0100
1000
0001
0010
0011
0000
0100
0000
1010
0000
0001
0100
,
0001
0000
0000
0010
0000
0000
0100
0000
0000
0001
0000
0000
0100
0000
0000
1000
0000
0000
0001
0000
0000
0000
0000
0000
1001
0000
0000
0000
0000
0000
1000
0000
0000
0000
0000
0000
0001
0000
1000
0000
0010
0000
1000
0000
0000
0100
0000
0000
,
1000
0000
0000
0000
0000
0000
0000
0000
0001
0000
0000
0000
0000
0000
0000
0000
0010
0000
0000
0000
0000
0000
0000
0000
0001
0000
0000
0000
0000
0000
0000
0000
1000
0000
0000
0000
0000
0000
0000
0000
0010
0000
0000
0000
0000
0000
0000
0000
1000
0000
0000
0000
0000
0000
0000
0000
0100
0000
0000
0000
0000
0000
0000
0000
0010
0000
0000
0000
0000
0000
0000
0000
0001
0000
0000
0000
0000
0000
0000
0000
0000
0000
0000
0000
10M0
0000
0000
0000
0000
0000
0100
0000
0000
0000
0000
0000
1000
0000
0000
0000
0000
0000
0000
0000
0000
0000
0000
0000
0001
0000
0000
0000
0000
0000
0000
0000
0000
0000
0000
0000
0100
0000
0000
0000
0000
0000
0000
0000
0000
0000
0000
0000
0010
0000
0000
0000
0000
0000
0000
0000
0000
0000
0000
0000
1000
0000
0000
0000
0000
0000
0000
0000
0000
0000
0000
0000
0100
0000
0000
0000
0000
0000
1000
0000
0000
0000
0000
0000
0000
0000
0000
0000
0000
0000
0001
0000
0000
0000
0000
0000
0000
0000
0000
0000
0000
0000
0000
0000
0000
0000
0000
0000
,
110M
1100
0000
0000
;
