#TITLE:Rumble Kung-Fu Showdown;
#SUBTITLE:(C-Show Remix);
#ARTIST:t+pazolite;
#TITLETRANSLIT:;
#SUBTITLETRANSLIT:;
#ARTISTTRANSLIT:;
#GENRE:;
#CREDIT:;
#BANNER:;
#BACKGROUND:;
#LYRICSPATH:;
#CDTITLE:cdtitle.png;
#MUSIC:rumblekungfushowdown_cshow.ogg;
#OFFSET:0.000000;
#SAMPLESTART:34.909092;
#SAMPLELENGTH:17.454544;
#SELECTABLE:YES;
#BPMS:0.000000=110.000000
;
#STOPS:
;
#BGCHANGES:;
#KEYSOUNDS:;
#ATTACKS:;

//---------------dance-single - 14 on X-Scale----------------
#NOTES:
     dance-single:
     :
     Hard:
     9:
     0.685553,0.706856,0.311190,0.286622,0.831204,586.000000,548.000000,38.000000,35.000000,0.000000,0.000000,0.685553,0.706856,0.311190,0.286622,0.831204,586.000000,548.000000,38.000000,35.000000,0.000000,0.000000:
// measure 0
0000
0000
0000
0000
,  // measure 1
0000
0000
0000
0000
,  // measure 2
0000
0000
0000
0000
,  // measure 3
0000
0000
0000
0000
,  // measure 4
1001
2000
0001
0000
0001
0000
3001
1000
,  // measure 5
0001
1000
0010
1000
0000
0001
0010
0001
0000
1000
0100
1000
0001
0000
1000
0000
,  // measure 6
0010
0200
0010
0000
0010
0000
0310
0100
,  // measure 7
0001
0010
0100
0010
0000
0001
1000
0001
0000
1000
0010
0100
0002
0000
0000
0000
,  // measure 8
1003
0000
0100
0000
1000
0010
0000
0000
1000
0000
0100
0010
0000
0001
0100
0010
,  // measure 9
0100
0000
0010
0000
1000
0010
0000
0000
0100
0000
0100
0001
0000
0001
1000
0100
,  // measure 10
0010
0000
0001
0000
0100
0001
0000
0000
0001
0000
0100
0010
0000
1000
0001
1000
,  // measure 11
0100
0000
0010
0000
0100
1000
0000
0000
0001
0000
0001
0100
0000
0100
0010
1000
,  // measure 12
0001
0101
1001
1100
,  // measure 13
1001
0011
1001
1010
,  // measure 14
1000
0100
1000
0001
0100
0001
1000
0100
,  // measure 15
1000
0001
0100
0001
1000
0100
1000
0001
0100
0010
0100
0010
0100
0000
0010
0000
,  // measure 16
0220
0000
0330
0000
0100
0000
0001
0000
1000
0100
0100
1000
0001
0000
1000
0001
,  // measure 17
0100
0010
0010
1000
0001
0010
0100
0000
0010
0100
0100
0010
0100
0000
0110
0000
,  // measure 18
2002
0000
3003
0000
0001
0010
0010
0010
0001
0100
0100
0001
1000
0010
1000
0000
,  // measure 19
1000
0001
0001
0001
1000
0001
0010
0001
0100
0010
0010
0010
0100
0001
1000
0000
,  // measure 20
2020
0000
3030
0000
1000
0000
0010
0000
1000
0010
0010
0100
0001
0000
0010
0100
,  // measure 21
1000
0100
0100
1000
0001
0100
0010
0000
0100
0010
0010
0100
0001
0000
1001
0000
,  // measure 22
0202
0000
0303
0000
2002
0000
3003
0000
1000
0010
0010
0010
1000
0001
0010
0000
,  // measure 23
0001
1000
1000
1000
0001
1000
0010
1000
0100
0010
0001
1000
0010
0100
1000
0100
,  // measure 24
0220
0000
0330
0000
0100
0000
0001
0000
1000
0100
0001
0100
0010
0000
0001
1000
,  // measure 25
0100
0010
0010
0001
1000
0001
0100
0000
0001
1000
1000
0010
0100
0000
0110
0000
,  // measure 26
2002
0000
3003
0000
0001
0010
0010
0010
0001
0100
1000
0100
0001
0100
0010
0000
,  // measure 27
0100
0001
0001
0001
1000
0001
0010
0001
0100
0010
0001
1000
0100
0001
1000
0100
,  // measure 28
2200
0000
3300
0000
1000
0000
0010
0000
1000
0010
0100
1000
0100
0000
0010
0100
,  // measure 29
0001
0010
0010
0001
0010
0100
1000
0000
0010
0100
0100
0010
0100
0000
0110
0000
,  // measure 30
2020
0000
3030
0000
2002
0000
3003
0000
0001
0010
0100
0001
0100
1000
0010
0100
,  // measure 31
0001
1000
1000
1000
0001
1000
0010
1000
0100
0001
0100
0010
0100
1000
0001
0100
,  // measure 32
0010
0000
0100
0000
0010
0000
0100
0001
0100
0000
0001
0000
1000
0000
0000
0000
,  // measure 33
0100
0000
1000
0001
0100
0000
0010
0000
0100
0010
0000
0100
0000
0100
0100
0001
,  // measure 34
1000
0000
0100
1000
0100
0000
1000
0001
0100
0000
0001
0100
0001
0000
0010
0000
,  // measure 35
0100
0000
0010
0100
1000
0001
0100
0010
0100
0000
0010
0100
0001
0000
0001
0000
,  // measure 36
1000
0000
0100
0000
1000
0000
1000
0100
0001
0000
0100
0000
1000
0010
0001
0010
,  // measure 37
0100
0000
0010
0100
0010
0000
1000
0000
0100
0000
0010
0100
1000
0001
0001
0000
,  // measure 38
0100
0000
0010
0000
1000
0000
0001
0100
1000
0000
0100
0000
0001
0000
0010
0000
,  // measure 39
0001
0010
0100
1000
0100
0000
1000
0000
0010
0100
0000
0010
0000
0000
0100
0000
,  // measure 40
0120
0100
0100
0100
,  // measure 41
0130
0010
0100
0001
0000
0010
0100
1000
0000
0010
0100
0001
0000
0010
0100
1000
,  // measure 42
0200
0000
0300
0000
0000
1000
0100
0010
0000
0001
0100
0010
0000
1000
0100
0010
,  // measure 43
0000
0001
0100
1000
0000
0001
0010
1000
0000
1000
0100
0001
0000
1000
0010
0000
,  // measure 44
0100
1100
1001
0101
,  // measure 45
1001
1010
1001
0011
,  // measure 46
0001
0010
0001
1000
0010
1000
0001
0010
,  // measure 47
0001
1000
0010
1000
0001
0010
0001
1000
0010
0100
0010
0100
0010
0100
0010
0100
,  // measure 48
0220
0000
0330
0000
0010
0000
0100
0001
1000
0001
1000
0100
0010
0000
0010
0100
,  // measure 49
1000
0001
0001
0001
0100
0010
0100
0000
0100
0010
0010
0100
0001
0000
0101
0000
,  // measure 50
2002
0000
3003
0000
1000
0000
0100
0010
0100
1000
0010
0100
0010
0000
0100
0000
,  // measure 51
0001
1000
1000
1000
0100
1000
0010
1000
0100
0010
0001
1000
0010
1000
0010
0100
,  // measure 52
0220
0000
0330
0000
0010
0000
1000
0100
1000
0010
0100
1000
0100
0000
0100
0000
,  // measure 53
0001
0100
0100
0100
0001
0010
0100
0000
1000
0001
0001
0100
0010
0000
0110
0000
,  // measure 54
0202
0000
0303
0000
2002
0000
3003
0000
1000
0100
0001
0100
0010
0000
0001
0000
,  // measure 55
0100
0010
0010
0010
1000
0001
0010
0100
0010
0100
0000
0110
0000
0000
0000
0000
;

//---------------dance-single - ----------------
#NOTES:
     dance-single:
     :
     Medium:
     8:
     0.418819,0.456036,0.073703,0.212919,0.147406,358.000000,349.000000,9.000000,26.000000,0.000000,0.000000,0.418819,0.456036,0.073703,0.212919,0.147406,358.000000,349.000000,9.000000,26.000000,0.000000,0.000000:
0000
0000
0000
0000
,
0000
0000
0000
0000
,
0000
0000
0000
0000
,
0000
0000
0000
0000
,
1000
0100
1000
0100
1000
0000
1100
0000
,
0010
0001
0010
0001
0010
0000
0011
0000
,
1000
0010
1000
0010
1000
0000
1010
0000
,
0100
0001
0100
0001
0100
0010
0020
0000
,
2030
0100
0010
0001
,
3002
0000
0010
0000
0100
0000
1000
1000
,
2003
0010
0100
0001
,
3002
0000
0100
0000
0010
0000
1000
1000
,
1003
1000
0001
0001
,
0100
0100
0010
0010
,
1000
0100
0001
0100
1000
0010
0001
0010
,
1000
0000
0100
0000
0010
0000
0001
0000
0100
0010
0100
0010
0100
0000
0000
0000
,
2001
0000
3002
0000
0013
0010
0001
0100
,
0010
0000
0100
0000
0010
0100
0010
0000
1000
0000
0001
0000
0010
0000
0010
0000
,
0210
0000
0310
0010
0001
0100
0010
1000
,
0010
0000
0100
0000
0010
0100
0010
0000
1000
0000
0100
0000
0010
0000
0001
0000
,
0021
0000
0032
0000
1003
1000
0100
0010
,
0100
0000
1000
0000
0001
0100
0001
0000
0100
0000
0010
0000
1000
0000
1000
0000
,
0200
0000
2300
0000
3010
0010
0100
0001
,
0010
0000
0100
0000
1000
0100
1000
0000
0001
0100
0001
0000
1000
0010
1000
0010
,
2000
0000
3200
0000
0301
0100
1000
0010
,
0100
0000
0100
0000
0010
0100
0001
0000
1000
0000
1000
0000
0001
0000
0001
0000
,
0002
0000
0103
0100
1000
0100
0001
0010
,
0100
0000
1000
0000
0010
1000
0100
0000
1000
0000
1000
0000
0010
0000
0010
0000
,
2000
0000
3020
0000
0031
0010
0100
0001
,
0010
0000
0010
0000
0100
1000
0001
0000
0100
0000
0100
0000
0010
0000
0010
0000
,
0200
0000
0302
0000
0013
1000
0010
0001
,
0100
0000
1000
0000
0100
0000
0001
0000
0010
0000
0100
0000
0010
0100
0010
0100
,
0010
0000
0110
0000
0001
1000
0100
0000
,
1000
0100
0001
0010
0001
0100
1000
0000
,
0000
0001
0100
1000
0000
1000
0010
0001
,
0000
0001
0100
1000
0010
1000
0100
0001
,
0000
1000
1000
1000
0000
0001
0001
0001
,
0000
0010
0100
0010
0001
0100
0010
0100
,
0000
0001
1000
0010
1000
0010
0001
0100
,
1000
0010
0100
1000
0100
0001
1000
0000
,
2002
0000
0000
3003
,
0000
1000
0000
0000
0000
0100
0000
0000
0000
0001
0000
0000
0000
0010
0000
0000
,
0000
1000
0000
0000
0000
0010
0000
0000
0000
0001
0000
0000
0000
0100
0000
0000
,
0000
1000
0000
0000
0000
0010
0000
0000
0000
0001
0000
0000
0000
0010
0000
0000
,
0100
0100
0010
0010
,
1000
1000
0001
0001
,
0001
0100
1000
0100
0001
0010
1000
0010
,
0001
0100
0010
1000
0001
0010
0100
1000
,
0002
0000
0000
0000
0013
0000
0010
0000
1000
0000
0010
0001
0100
0000
0100
0000
,
0010
0000
0010
0000
0100
0010
1000
0000
0001
0000
0001
0000
1000
0000
1000
0000
,
2000
0000
0000
0000
3010
0000
0010
0000
0001
0000
1000
0100
1000
0000
0100
0000
,
0010
0000
0001
0000
0100
0001
0010
0000
0001
0010
0001
0000
0100
0001
0100
0000
,
0002
0000
0000
0000
0103
0000
0100
0000
1000
0000
0100
0010
1000
0000
1000
0000
,
0100
0000
0100
0000
0010
0001
1000
0000
0010
0000
0010
0000
0100
0000
0100
0000
,
0020
0000
0000
0000
2030
0000
0000
0000
3100
0000
0001
0100
1000
0000
1000
0000
,
0010
0000
0001
0000
0010
0000
1000
0000
0100
0000
0000
1100
0000
0000
0000
0000
;

//---------------dance-single - ----------------
#NOTES:
     dance-single:
     :
     Easy:
     5:
     0.286622,0.366057,0.212919,0.073703,0.000000,245.000000,219.000000,26.000000,9.000000,0.000000,0.000000,0.286622,0.366057,0.212919,0.073703,0.000000,245.000000,219.000000,26.000000,9.000000,0.000000,0.000000:
0000
0000
0000
0000
,
0000
0000
0000
0000
,
0000
0000
0000
0000
,
0000
0000
0000
0000
,
1000
0001
1000
0001
,
0010
0100
1000
1001
,
0010
0100
0010
0100
,
0001
1000
0010
0100
,
0020
0000
0000
0000
,
0230
0000
0000
0000
,
0302
0000
0000
0000
,
2003
0000
0000
0000
,
3100
0100
0100
0100
,
0010
0010
0010
0010
,
0001
1000
0010
0100
,
0001
1000
0010
0100
0001
1000
0001
0000
,
1001
1100
1000
0100
,
0010
0000
0010
0100
0000
0000
1000
0000
,
1001
1010
0010
0100
,
0001
0000
1000
0000
0100
0010
0100
0000
,
0110
1100
1000
0010
,
0100
0000
0001
0010
0000
0000
0001
0000
,
0011
0101
0100
0010
,
1000
0000
1000
0001
0100
0000
0001
0000
,
1001
0000
0101
0000
0001
0100
0001
0000
,
1000
0000
0100
0010
0000
0010
0100
0000
,
0110
0000
0011
0000
0010
0100
0010
0000
,
0001
0000
0100
0010
0100
0010
0100
0010
,
0110
0000
1010
0000
1000
0010
1000
0000
,
0001
0000
0100
0010
0000
0010
0100
0000
,
0101
0000
1001
0000
1000
0100
1000
0000
,
0001
0100
0001
0000
1000
0100
1000
0000
,
0001
0001
0100
0010
,
0100
0000
0001
0000
0010
0100
0010
0000
,
0001
0001
1000
1000
,
0010
0000
0100
0000
0010
0000
0010
0100
,
0010
1000
0100
0010
,
0100
0000
1000
0000
0010
0000
0100
0010
,
0100
0001
0100
0010
,
1000
0100
1000
0000
0001
0100
0001
0000
,
2002
0000
0000
0000
0000
0000
0000
3003
,
0000
0000
0000
0000
,
2002
3003
0000
0000
,
0000
0000
0000
0000
,
1000
0100
1000
0100
,
0010
0001
0010
0001
,
1000
0010
0100
0001
,
1000
0100
0010
0001
1000
0100
0010
0001
,
1000
0000
0101
0000
0001
0100
0001
0000
,
1000
0000
0100
0010
0100
0010
0100
0000
,
0110
0000
0011
0000
0010
0100
0010
0000
,
0001
0000
1000
0010
1000
0010
1000
0010
,
1010
0000
0110
0000
0100
0010
0100
0000
,
0001
0000
0010
0100
0010
0100
0010
0000
,
0011
0000
1001
0000
1000
0100
1000
0000
,
0001
0100
0001
1000
0200
0000
0000
0300
;
