#VERSION:0.83;
#TITLE:Peacock;
#SUBTITLE:(Haywyre Remix);
#ARTIST:7 Minutes Dead;
#TITLETRANSLIT:;
#SUBTITLETRANSLIT:;
#ARTISTTRANSLIT:;
#GENRE:Glitch Hop;
#ORIGIN:;
#CREDIT:;
#BANNER:Peacock-bn.png;
#BACKGROUND:Peacock-bg.png;
#PREVIEWVID:;
#JACKET:Peacock-jacket.png;
#CDIMAGE:;
#DISCIMAGE:;
#LYRICSPATH:;
#CDTITLE:cd-title-Benpai.png;
#MUSIC:Peacock (Haywyre Remix).ogg;
#OFFSET:-0.005428;
#SAMPLESTART:93.708862;
#SAMPLELENGTH:18.285715;
#SELECTABLE:YES;
#DISPLAYBPM:105.000000;
#BPMS:0.000=105.000,
62.000=157.500,
64.000=105.000,
195.500=157.500,
196.000=105.000;
#STOPS:62.000=0.048,
62.250=0.047,
62.500=0.048,
62.750=0.047,
63.000=0.190,
195.500=0.048,
195.750=0.047;
#DELAYS:;
#WARPS:;
#TIMESIGNATURES:0.000=4=4;
#TICKCOUNTS:0.000=4;
#COMBOS:0.000=1;
#SPEEDS:0.000=1.000=0.000=0;
#SCROLLS:0.000=1.000;
#FAKES:;
#LABELS:0.000=Song Start;
#BGCHANGES:;
#KEYSOUNDS:;
#ATTACKS:
;

//---------------dance-single - ----------------
#NOTEDATA:;
#CHARTNAME:;
#STEPSTYPE:dance-single;
#DESCRIPTION:;
#CHARTSTYLE:;
#DIFFICULTY:Challenge;
#METER:10;
#RADARVALUES:0.578292,0.683571,0.303974,0.415184,0.700623,546.000000,505.000000,41.000000,56.000000,42.000000,0.000000,10.000000,0.000000,0.000000,0.578292,0.683571,0.303974,0.415184,0.700623,546.000000,505.000000,41.000000,56.000000,42.000000,0.000000,10.000000,0.000000,0.000000;
#CREDIT:Benpai;
#DISPLAYBPM:105.000000;
#NOTES:
// measure 0
0000
0000
0000
0000
,  // measure 1
0000
0000
0000
0000
,  // measure 2
0000
0000
0000
0000
,  // measure 3
0000
0000
0000
0000
,  // measure 4
1001
0000
0000
0001
0000
0010
0100
0000
0000
0010
0000
0000
0000
0000
0001
1000
0000
0000
0010
0000
0000
0100
0000
0010
,  // measure 5
1000
0000
0000
0001
0000
0010
0100
0000
0000
1000
0000
0000
0000
0000
1000
0001
0000
0000
0100
0000
0000
0010
0100
0010
,  // measure 6
1000
0000
0000
1010
0000
0000
0001
0000
0000
1000
0000
0000
0000
0000
0100
0010
0000
0000
0001
0000
0000
1000
0000
0001
,  // measure 7
1000
0001
0010
0100
1000
0001
0100
0010
1000
0001
0010
0100
M002
0000
0103
0010
,  // measure 8
M001
0000
0000
1000
0000
0001
0100
0000
0000
0010
0000
0000
0000
0000
0010
1000
0000
0000
1001
0000
0000
0001
0000
0000
,  // measure 9
0010
0000
0000
0010
0000
0000
0110
0000
0000
1000
0000
0000
0000
0000
0001
0100
0000
0000
0101
0000
0000
0001
0000
0000
,  // measure 10
1000
0000
0000
0100
0000
0010
0100
0000
0000
1000
0000
0000
0000
0000
0001
1000
0000
0000
1010
0000
0000
0001
0000
0000
,  // measure 11
0020
0000
0000
0000
0000
0000
0130
0000
0000
0000
1000
0000
0002
0000
0000
0000
0000
0000
0000
0000
0000
1003
0000
0000
0100
0000
0000
1000
0000
0000
0001
0000
0000
0000
0000
0000
0001
0000
0000
0000
0000
0000
M100
0000
0001
0000
1000
0000
,  // measure 12
0001
0000
0000
1000
0000
0100
0010
0000
0000
0100
0000
0000
0000
0000
0100
1000
0000
0000
0001
0000
0000
1000
0000
0010
,  // measure 13
0100
0000
0000
0001
0000
1000
0001
0000
0000
0010
0000
0000
0000
0000
0010
0001
0000
0000
1000
0000
0000
0010
0100
0001
,  // measure 14
2000
0000
3001
0010
0100
1000
0002
0000
1003
0010
1000
0001
1000
0100
0010
0100
,  // measure 15
10MM
0001
1000
0001
1000
0001
1000
0001
M100
001M
1000
0001
1001
0000
0000
0000
,  // measure 16
1200
0000
0000
0000
0310
0001
1000
0010
1000
0001
0010
0100
2000
0000
0000
3000
,  // measure 17
1020
0000
0000
0000
0130
0001
1000
0100
1000
0001
0100
0010
1000
0000
0010
0110
,  // measure 18
0000
0202
0000
0303
1000
0100
0010
0100
1000
0001
0100
0001
0020
0000
0000
0030
,  // measure 19
0210
0000
0000
0000
1300
0001
0100
0001
2000
0000
3100
0002
M000
0000
0103
0010
,  // measure 20
0012
0000
0000
0000
0000
0000
0000
0000
0000
0000
0000
0000
1003
0000
0000
0000
0000
0000
0001
0000
0000
0000
0100
0000
0040
0000
0000
0000
0000
0000
0000
0000
0000
0000
0000
0000
1030
0000
0000
0000
0000
0000
0100
0000
0000
0010
0000
0000
,  // measure 21
0002
0000
0203
0000
0301
0100
1000
0100
0001
0010
1000
0010
0001
0000
1000
0100
,  // measure 22
0020
0000
0000
0000
0230
0000
1300
0000
0040
0000
0000
1030
0001
0000
0010
0100
,  // measure 23
2000
0000
0000
0000
0000
0000
0000
0000
0000
0000
0000
0000
0000
0000
0000
0000
0000
0000
0000
0000
0000
0000
0000
0000
3M00
0000
0000
0000
0000
0000
00M0
0000
0000
0000
0M00
0000
000M
0000
0000
000M
0000
0000
M000
0000
0000
00M0
0000
0000
,  // measure 24
1M00
0001
0010
0001
1000
0001
0100
0001
1000
0100
0010
0100
2000
0000
0000
3000
,  // measure 25
1002
0000
0000
0000
0103
0010
0100
0001
1000
0100
0010
0001
0200
0000
0000
0300
,  // measure 26
2010
0000
0000
0000
3001
1000
0100
1000
0001
0100
0001
0010
0100
0000
1000
1001
,  // measure 27
0000
0202
0000
0303
1000
0010
0100
0001
1000
0001
0010
2000
000M
0000
3010
0100
,  // measure 28
2100
0000
0000
0000
3004
0000
0000
0000
0103
0000
0040
0030
1010
0000
1000
1002
,  // measure 29
0000
0003
0001
0000
0010
0100
1000
0001
0100
0001
1000
0100
0010
0000
0100
1000
,  // measure 30
0020
0000
0000
0000
1030
0000
0001
0000
0400
0000
0000
0300
0101
0000
1000
0100
,  // measure 31
002M
0000
0000
0000
0000
0000
0000
0000
0000
0000
M000
0000
0000
0000
0000
0000
0000
0000
000M
0000
0000
0M30
0000
0000
,  // measure 32
M011
0000
0000
0000
0000
0000
0000
0000
0000
0000
1000
0000
0001
0000
0000
0000
0000
0000
0100
0000
0000
0000
0000
0000
0100
0000
0000
0000
0010
0000
1000
0000
0000
0000
0000
0000
0001
0000
0000
0000
0010
0000
0100
0000
0000
1000
0000
0000
,  // measure 33
0001
0000
0000
0000
0000
0000
0000
0000
0000
0000
1000
0000
0010
0000
0000
0000
0000
0000
0100
0000
0000
0001
0000
0000
1000
0000
0000
0000
0100
0000
1000
0000
0000
0000
0000
0000
1001
0000
0000
0000
0000
0000
0000
0000
0000
0000
0000
0000
,  // measure 34
0101
0000
0000
0000
0000
0000
0000
0000
0000
0000
0100
0000
0010
0000
0000
0000
0000
0000
1000
0000
0000
0000
0000
0000
1000
0000
0000
0000
0001
0000
0010
0000
0000
0000
0000
0000
0100
0000
0000
0000
0000
0000
1000
0000
0000
0001
0000
0000
,  // measure 35
1000
0000
0000
0000
0000
0000
0000
0000
0000
0000
0010
0000
0100
0000
0000
0000
0000
0000
0001
0000
0000
0010
0000
0000
0100
0000
0000
0000
0000
0000
0100
0000
0000
0000
0000
0000
1000
0000
0000
0000
0000
0000
1000
0000
0000
0000
0000
0000
,  // measure 36
1100
0000
0000
0000
0000
0000
0000
0000
0000
0000
0100
0000
0010
0000
0000
0000
0000
0000
0001
0000
0000
0000
0000
0000
0001
0000
0000
0000
1000
0000
0010
0000
0000
0000
0000
0000
1000
0000
0000
0000
0000
0000
0001
0000
0000
0010
0000
0000
,  // measure 37
0100
0000
0000
0000
0000
0000
0000
0000
0000
0000
1000
0000
0001
0000
0000
0000
0000
0000
1000
0000
0000
0010
0000
0000
0100
0000
0000
0000
0001
0000
1000
0000
0000
0000
0000
0000
0011
0000
0000
0000
0000
0000
0000
0000
0000
0000
0000
0000
,  // measure 38
1001
0000
0000
0000
0000
1000
0010
0000
0000
0100
0000
0000
0100
0000
0001
1000
0000
0000
0100
0000
0000
0100
0000
0000
,  // measure 39
0020
0001
0001
0001
,  // measure 40
0130
1000
0100
1000
0001
0100
0001
0100
0010
1000
0001
0010
1100
0000
0000
0000
,  // measure 41
0201
0000
0000
0000
0310
1000
0001
0100
0001
1000
0100
0010
0002
0000
0000
0003
,  // measure 42
0021
0000
0000
0000
0130
1000
0001
0010
0001
1000
0010
0100
0001
0000
0100
0110
,  // measure 43
0000
2020
0000
3030
0001
0010
0100
0010
0001
1000
0010
1000
0200
0000
0000
0300
,  // measure 44
0120
0000
0000
0000
0031
1000
0010
1000
0002
0000
0013
2000
000M
0000
3010
0100
,  // measure 45
2100
0000
0000
0000
0000
0000
0000
0000
0000
0000
0000
0000
3001
0000
0000
0000
0000
0000
1000
0000
0000
0000
0010
0000
0400
0000
0000
0000
0000
0000
0000
0000
0000
0000
0000
0000
0301
0000
0000
0000
0000
0000
0010
0000
0000
0100
0000
0000
,  // measure 46
2000
0000
3002
0000
1003
0010
0001
0010
1000
0100
0001
0100
1000
0000
0001
0100
,  // measure 47
0020
0000
0000
0000
2030
0000
3001
0000
0400
0000
0000
0301
1000
0000
0100
0010
,  // measure 48
0002
0000
0000
0000
0000
0000
0000
0000
0000
0000
0000
0000
0000
0000
0000
0000
0000
0000
0000
0000
0000
0000
0000
0000
00M3
0000
0000
0000
0000
0000
M000
0000
0000
0000
00M0
0000
0M00
0000
0000
M000
0000
0000
00M0
0000
0000
00M0
0000
0000
,  // measure 49
0M01
1000
0100
1000
0001
1000
0010
1000
0001
0010
0100
0010
0002
0000
0000
0003
,  // measure 50
2001
0000
0000
0000
3010
0100
0010
1000
0001
0010
0100
1000
0020
0000
0000
0030
,  // measure 51
0102
0000
0000
0000
1003
0010
0100
0001
0010
0100
1000
0001
0100
0000
0001
1001
,  // measure 52
0000
M0M0
0000
M0M0
0001
0100
0010
1000
0001
1000
0100
0002
M000
0000
0103
0010
,  // measure 53
0012
0000
0000
0000
4003
0000
0000
0000
3010
0000
0400
0300
0101
0000
0001
2001
,  // measure 54
0000
3000
1000
0000
0100
0010
0001
1000
0010
1000
0001
0010
0100
0000
0010
0001
,  // measure 55
2000
0000
0000
0000
3001
0000
0100
0000
0040
0000
0000
0030
1010
0000
1000
0001
,  // measure 56
0020
0000
0000
0000
,  // measure 57
013M
000M
000M
000M
000M
000M
0000
0000
;
