#TITLE:My Love(Oliver Nelson Remix);
#SUBTITLE:;
#ARTIST:Route 94 feat. Jess Glynne;
#TITLETRANSLIT:;
#SUBTITLETRANSLIT:;
#ARTISTTRANSLIT:;
#GENRE:;
#CREDIT:;
#BANNER:My Love.png;
#BACKGROUND:My Love-bg3.png;
#LYRICSPATH:;
#CDTITLE:;
#MUSIC:Route 94 - My Love Feat. Jess Glynne (Oliver Nelson Remix).mp3;
#OFFSET:-0.171000;
#SAMPLESTART:20.518826;
#SAMPLELENGTH:13.043480;
#SELECTABLE:YES;
#BPMS:0.000000=115.000000
,192.000000=87.000000
,216.000000=115.000000
;
#STOPS:
;
#BGCHANGES:;
#KEYSOUNDS:;
#ATTACKS:;

//---------------dance-single - ----------------
#NOTES:
     dance-single:
     :
     Beginner:
     1:
     0.073464,0.115205,0.000000,0.000000,0.000000,77.000000,77.000000,0.000000,0.000000,0.000000,0.000000,0.073464,0.115205,0.000000,0.000000,0.000000,77.000000,77.000000,0.000000,0.000000,0.000000,0.000000:
// measure 0
0000
0000
0000
0000
,  // measure 1
0000
0000
0000
0000
,  // measure 2
0000
0000
0000
0000
,  // measure 3
0000
0000
0000
0000
,  // measure 4
0000
0000
0000
0000
,  // measure 5
0000
0000
0000
0000
,  // measure 6
0000
0000
0000
0000
,  // measure 7
0000
0000
0000
0000
,  // measure 8
0100
0000
0000
0000
,  // measure 9
0100
0000
0000
0000
,  // measure 10
0100
0000
0000
0000
,  // measure 11
0010
0010
0010
0000
,  // measure 12
1000
0000
0000
0000
,  // measure 13
1000
0000
0000
0000
,  // measure 14
1000
0000
0000
0000
,  // measure 15
0000
0000
1000
0000
,  // measure 16
0010
0000
0000
0000
,  // measure 17
0100
0000
0000
0000
,  // measure 18
1000
0000
0000
0000
,  // measure 19
0010
0000
0000
0000
,  // measure 20
0001
0000
0000
0000
,  // measure 21
0100
0000
0000
0000
,  // measure 22
0010
0000
0000
0000
,  // measure 23
1000
0000
0000
0000
,  // measure 24
0100
0000
0000
0000
,  // measure 25
0100
0000
0000
0000
,  // measure 26
0010
0000
0000
0000
,  // measure 27
0010
0000
0000
0000
,  // measure 28
1000
0000
0000
0000
,  // measure 29
0010
0000
0000
0000
,  // measure 30
1000
0000
0000
0000
,  // measure 31
0001
0000
0010
0000
,  // measure 32
0100
0000
0000
0000
,  // measure 33
1000
0000
0000
0000
,  // measure 34
0010
0000
0000
0000
,  // measure 35
0100
0000
0000
0000
,  // measure 36
0001
0000
0000
0000
,  // measure 37
1000
0000
0000
0000
,  // measure 38
0010
0000
0000
0000
,  // measure 39
0100
0000
0000
0000
,  // measure 40
0010
0000
0000
0000
,  // measure 41
0010
0000
0000
0000
,  // measure 42
1000
0000
0000
0000
,  // measure 43
1000
0000
0000
0000
,  // measure 44
0100
0000
0000
0000
,  // measure 45
0100
0000
0000
0000
,  // measure 46
0010
0000
0000
0000
,  // measure 47
0010
0000
0000
0000
,  // measure 48
1000
0000
0000
0010
,  // measure 49
0000
0000
0100
0000
,  // measure 50
0000
1000
0000
0000
,  // measure 51
0010
0000
0000
0100
,  // measure 52
0000
0000
0001
0000
,  // measure 53
0000
1000
0000
0000
,  // measure 54
0010
0000
0000
0000
,  // measure 55
0010
0000
0000
0000
,  // measure 56
1000
0000
0000
0000
,  // measure 57
0010
0000
0010
0000
,  // measure 58
1000
0000
0001
0000
,  // measure 59
0001
0000
0000
0001
,  // measure 60
0001
0000
0010
0000
,  // measure 61
0100
0000
0100
0000
,  // measure 62
1000
0000
0000
0000
,  // measure 63
0010
0000
0000
0100
,  // measure 64
0100
0000
1000
1000
,  // measure 65
0000
0010
0000
0000
,  // measure 66
0100
0000
0000
0100
,  // measure 67
0100
0000
0000
0100
,  // measure 68
0100
0000
0000
0000
,  // measure 69
1000
0000
0000
0000
;

//---------------dance-single - ----------------
#NOTES:
     dance-single:
     :
     Easy:
     2:
     0.103995,0.138246,0.000000,0.053428,0.000000,109.000000,109.000000,0.000000,8.000000,0.000000,0.000000,0.103995,0.138246,0.000000,0.053428,0.000000,109.000000,109.000000,0.000000,8.000000,0.000000,0.000000:
0000
0000
0000
0000
,
0000
0000
0000
0000
,
0000
0000
0000
0000
,
0000
0000
0000
0000
,
0000
0000
0000
0000
,
0000
0000
0000
0000
,
0000
0000
0000
0000
,
0000
0000
0000
0000
,
0100
0000
0000
0000
,
0100
0000
0000
0000
,
0100
0100
0000
0000
,
0010
0010
0010
0000
,
1000
0000
0000
0000
,
1000
0000
0000
0000
,
1000
1000
0000
0000
,
0000
0000
1000
1000
,
0010
0010
0000
0000
,
0100
0100
0000
0000
,
1000
1000
0000
0000
,
0010
0010
0000
0000
,
0001
0001
0000
0000
,
0100
0100
0000
0000
,
0010
0010
0000
0000
,
1000
1000
0000
0000
,
0100
0100
0000
0000
,
0100
0010
0000
0000
,
0010
0100
0000
0000
,
0010
0001
0000
0000
,
1000
0000
0000
0000
,
0010
0000
0000
0000
,
1000
1000
0000
0000
,
0001
0000
0010
0000
,
0100
0000
0000
0000
,
1000
0000
0000
0000
,
0010
0010
0000
0000
,
0100
0100
0000
0000
,
0001
0000
0000
0000
,
1000
0000
0000
0000
,
0010
1000
0000
0000
,
0100
0001
0000
0000
,
0010
0000
0000
0000
,
0010
0000
0000
0000
,
1000
0001
0000
0000
,
0001
1000
0000
0000
,
0100
0000
0100
0000
,
0010
0000
0010
0000
,
0010
0000
0000
0000
,
0010
0000
0000
0000
,
2000
0000
3000
0020
,
0000
0030
0200
0000
,
0300
2000
0000
3000
,
0020
0000
0030
0200
,
0000
0300
0002
0000
,
0003
2000
0000
3000
,
0010
0000
0000
0010
,
0010
0000
0000
1000
,
1000
0000
0010
0010
,
0000
0010
0000
1000
,
0001
0000
0000
0001
,
0001
0000
0000
1000
,
0010
0000
0010
0010
,
0000
1000
0000
1000
,
1000
0000
0000
0000
,
0010
0000
0000
0100
,
1000
0000
1000
1000
,
0000
0010
0100
0000
,
0100
0000
0000
0100
,
0100
0000
0000
0100
,
1000
0000
1000
1000
,
1000
0000
0000
0000
;

//---------------dance-single - ----------------
#NOTES:
     dance-single:
     :
     Medium:
     6:
     0.248061,0.299533,0.026714,0.066786,0.000000,260.000000,256.000000,4.000000,10.000000,0.000000,0.000000,0.248061,0.299533,0.026714,0.066786,0.000000,260.000000,256.000000,4.000000,10.000000,0.000000,0.000000:
0000
0000
0000
0000
,
0000
0000
0000
0000
,
0000
0000
0000
0000
,
0000
0000
0000
0000
,
0000
0000
0000
0000
,
0000
0000
0000
0000
,
0000
0000
0000
0000
,
0000
0000
0000
0000
,
0100
0000
0000
0000
,
0100
0100
0000
0000
,
0100
1000
0100
0000
0000
0000
0000
0000
,
0010
1000
0100
0010
0001
0100
0000
0000
,
1000
0000
0000
0000
,
1000
1000
0000
0000
,
1000
0001
1000
0000
0000
0000
0000
0000
,
0000
0000
1000
1000
,
0010
0000
0010
0000
0001
1000
0001
0000
,
0100
0000
0100
0000
1000
0100
1000
0000
,
1000
0000
1000
0000
0001
1000
1000
0000
,
0010
0000
0010
0000
1000
0001
0001
0000
,
1000
0000
1000
0000
1000
0010
0001
0000
,
0100
0000
0100
0000
0001
0100
1000
0000
,
1000
0000
0100
0000
1000
0001
1000
0000
,
1000
0000
1000
0000
0100
0010
0100
0000
,
0100
0000
0100
0000
0100
0001
0100
0000
,
1000
0000
0001
0000
1000
0001
1000
0000
,
0010
0000
0100
0000
0010
1000
0010
0000
,
1000
0000
0001
0000
0100
0001
0100
0000
,
2000
0100
0010
3000
,
0020
0100
1000
0030
,
1000
0100
1000
0000
0100
0000
0000
0000
,
0001
0010
0001
0000
0010
0000
0000
0000
,
0100
0000
0100
0000
0001
0001
0001
0000
,
1000
0000
1000
0000
0100
0010
0100
0000
,
0010
0000
0010
0000
0010
0010
0010
0000
,
0100
0000
0100
0000
1000
1000
1000
0000
,
0001
0000
1000
0000
0100
0010
0100
0000
,
1000
0000
0100
0000
1000
0100
1000
0000
,
0010
0000
1000
0000
0100
0001
0100
0000
,
0100
0000
0001
0000
0001
0100
0010
0000
,
1000
0000
1000
0000
1000
0001
1000
0000
,
0010
0000
0010
0000
0001
1000
0001
0000
,
1000
0001
1100
0101
,
0001
1000
0101
1100
,
0100
0000
0100
0000
0100
0010
1000
0000
,
0010
0000
0010
0000
0100
1000
0010
0000
,
0010
0000
1000
0000
1000
0001
1000
0000
,
0010
0000
0010
0000
0001
1000
0001
0000
,
2000
0000
3000
0020
,
0000
0030
0200
0000
,
0300
2000
0000
3000
,
0020
0000
0030
0200
,
0000
0300
0002
0000
,
0003
2000
0000
3000
,
0010
0000
0010
0000
0010
0100
1000
0000
,
1000
0000
1000
0000
1000
0001
1000
0000
,
0010
0000
0010
0000
0100
0010
0001
0000
,
0010
0000
0010
0000
0010
0100
0001
0000
,
1000
0000
1000
0000
0100
1000
0010
0000
,
0100
0000
0100
0000
1000
0100
1000
0000
,
0010
0000
0010
0000
0010
0001
0100
0000
,
0010
0000
0010
0000
0010
1000
0100
0000
,
0001
0000
0001
0000
0001
1000
0001
0000
,
0100
0000
0100
0000
0010
0001
0100
0000
,
1000
0000
1000
0000
1000
0010
1000
0000
,
0100
0000
0100
0000
0010
0001
0010
0000
,
0001
0000
0001
0000
0010
1000
0010
0000
,
1000
0000
1000
0000
1000
0100
0001
0000
,
0001
0000
0001
0000
0010
0100
0010
0000
,
1000
0000
0000
0000
;

//---------------dance-single - ----------------
#NOTES:
     dance-single:
     :
     Hard:
     11:
     0.307214,0.322574,0.000000,0.073464,0.146928,322.000000,322.000000,0.000000,11.000000,0.000000,0.000000,0.307214,0.322574,0.000000,0.073464,0.146928,322.000000,322.000000,0.000000,11.000000,0.000000,0.000000:
0000
0000
0000
0000
,
0000
0000
0000
0000
,
0000
0000
0000
0000
,
0000
0000
0000
0000
,
0000
0000
0000
0000
,
0000
0000
0000
0000
,
0000
0000
0000
0000
,
0000
0000
0000
0000
,
0100
0000
0000
0000
,
0100
0100
0000
0000
,
0100
1000
0100
0000
0000
0000
0000
0000
,
0020
0100
1000
0100
,
0030
1000
1000
0000
,
1000
1000
0000
0000
,
1000
0001
1000
0000
0000
0000
0000
0000
,
0000
0000
0000
0000
0000
0000
0000
0000
1000
0001
0000
0001
1000
0000
0000
0000
,
0010
0000
0000
0000
0010
0000
0000
0100
0001
0000
1000
0000
0001
0000
0000
0000
,
0100
0000
0000
0000
0100
0000
0000
0010
1000
0000
0100
0000
1000
0000
0000
0000
,
1000
0000
0000
0000
1000
0000
0000
1000
0001
0000
1000
0000
1000
0000
0000
0000
,
0010
0000
0000
0000
0010
0000
0000
0000
1000
0100
0001
0000
0001
0000
0000
0000
,
1000
0000
0000
0000
1000
0000
0000
0100
1000
0000
0010
0000
0001
0000
0000
0000
,
0100
0000
0000
0000
0100
0000
0000
1000
0010
0000
0100
0000
0010
0000
0000
0000
,
1000
0000
0000
0000
0100
0000
0000
0010
1000
0000
0001
0000
1000
0000
0000
0000
,
1000
0000
0000
0000
1000
0000
0000
0000
0100
1000
0010
0000
0100
0000
0000
0000
,
0100
0000
0000
0000
0100
0000
0000
1000
0100
0000
0001
0000
0100
0000
0000
0000
,
1000
0000
0000
0000
0001
0000
0000
0100
1000
0000
0001
0000
1000
0000
0000
0000
,
0010
0000
0000
0000
0100
0000
0000
1000
0010
0000
1000
0000
0010
0000
0000
0000
,
1000
0000
0000
0000
0001
0000
0000
0000
0100
0010
0001
0000
0100
0000
0000
0000
,
2000
0000
0100
0000
0010
0001
3100
0000
,
0020
0000
0100
0000
1000
0100
1030
0000
,
1000
0001
1000
0000
0100
0000
0000
0000
,
0001
0010
0001
0000
0010
0000
0000
0000
,
0100
0000
0000
0000
0100
0000
0000
1000
0010
0000
0100
0000
0010
0000
0000
0000
,
1000
0000
0000
0000
1000
0000
0000
1000
0100
0000
0010
0000
1000
0000
0000
0000
,
0010
0000
0000
0000
0010
0000
0000
1000
0010
0000
0010
0000
0010
0000
0000
0000
,
0100
0000
0000
0000
0100
0000
0000
0000
1000
0001
1000
0000
1000
0000
0000
0000
,
0001
0000
0000
0000
1000
0000
0000
0001
0100
0000
0010
0000
0100
0000
0000
0000
,
1000
0000
0000
0000
0100
0000
0000
0010
1000
0000
0100
0000
1000
0000
0000
0000
,
0010
0000
0000
0000
1000
0000
0000
1000
0100
0000
0001
0000
0100
0000
0000
0000
,
0100
0000
0000
0000
0001
0000
0000
0000
0001
0010
0100
0000
0010
0000
0000
0000
,
1000
0000
0000
0000
1000
0000
0000
0100
1000
0000
0001
0000
1000
0000
0000
0000
,
0010
0000
0000
0000
0010
0000
0000
0100
0001
0000
1000
0000
0001
0000
0000
0000
,
1000
0000
0000
0000
0001
0000
0000
0001
0100
0000
1000
0000
0001
0000
0000
0000
,
0001
0000
0000
0000
1000
0000
0000
0000
0100
0001
0100
0000
1000
0000
0000
0000
,
0100
0000
0000
0000
0100
0000
0000
1000
0100
0000
0010
0000
1000
0000
0000
0000
,
0010
0000
0000
0000
0010
0000
0000
0001
0100
0000
1000
0000
0010
0000
0000
0000
,
0010
0000
0000
0000
1000
0000
0000
0100
1000
0000
0001
0000
1000
0000
0000
0000
,
0010
0000
0000
0000
0010
0000
0000
0000
0001
0001
1000
0000
0001
0000
0000
0000
,
2000
0010
0000
0100
3000
0000
0020
0100
,
0000
1000
0030
0000
0200
0010
0000
0001
,
0300
0000
2000
0010
0000
0100
3000
0000
,
0020
1000
0000
0001
0030
0000
0200
1000
,
0000
0010
0300
0000
0002
0010
0000
0100
,
0003
0000
2000
0100
0000
0010
3000
0000
,
0010
0000
0000
0000
0010
0000
0000
0100
0001
0000
1000
0000
0001
0000
0000
0000
,
0100
0000
0000
0000
0100
0000
0000
1000
0001
0000
1000
0000
0001
0000
0000
0000
,
1000
0000
0000
0000
1000
0000
0000
0100
0001
0000
0001
0000
0001
0000
0000
0000
,
0010
0000
0000
0000
0010
0000
0000
0000
0001
0010
1000
0000
0001
0000
0000
0000
,
1000
0000
0000
0000
1000
0000
0000
0100
0001
0000
1000
0000
0001
0000
0000
0000
,
0100
0000
0000
0000
0100
0000
0000
0010
0001
0000
0001
0000
0001
0000
0000
0000
,
0010
0000
0000
0000
0010
0000
0000
0100
1000
0000
1000
0000
1000
0000
0000
0000
,
0010
0000
0010
0000
0100
0100
0001
0001
,
0010
0000
0000
0000
0010
0000
0000
0100
0001
0000
1000
0000
0001
0000
0000
0000
,
1000
0000
0000
0000
1000
0000
0000
0100
0001
0000
1000
0000
0100
0000
0000
0000
,
0010
0000
0000
0000
0010
0000
0000
0100
0001
0000
0100
0000
0001
0000
0000
0000
,
0010
0000
0000
0000
0010
0000
0000
0000
0001
0100
1000
0000
0001
0000
0000
0000
,
0010
0000
0000
0000
0010
0000
0000
0100
0001
0000
1000
0000
0001
0000
0000
0000
,
1000
0000
0000
0000
1000
0000
0000
0001
0100
0000
1000
0000
0001
0000
0000
0000
,
0010
0000
0000
0000
0010
0000
0000
0100
0001
0000
1000
0000
0001
0000
0000
0000
,
1000
0000
0000
0000
;
