#VERSION:0.83;
#TITLE:Matryoshka -Club Mix-;
#SUBTITLE:;
#ARTIST:Jubyphonic & rachie feat. Jaime Paige;
#TITLETRANSLIT:;
#SUBTITLETRANSLIT:;
#ARTISTTRANSLIT:;
#GENRE:;
#ORIGIN:;
#CREDIT:;
#BANNER:[SloweRemix] - Matryoshka -Club Mix-.png;
#BACKGROUND:[SloweRemix] - Matryoshka -Club Mix--bg.png;
#PREVIEWVID:;
#JACKET:[SloweRemix] - Matryoshka -Club Mix--jacket.png;
#CDIMAGE:;
#DISCIMAGE:;
#LYRICSPATH:;
#CDTITLE:;
#MUSIC:[SloweRemix] - Matryoshka -Club Mix-.mp3;
#OFFSET:-4.714959;
#SAMPLESTART:47.954983;
#SAMPLELENGTH:17.863644;
#SELECTABLE:YES;
#DISPLAYBPM:110.000000:158.000000;
#BPMS:0.000=110.000,
159.000=55.000,
160.000=110.000,
161.500=220.000,
163.000=110.000,
211.000=111.370,
215.000=115.220,
219.000=119.225,
223.000=124.481,
227.000=127.660,
228.000=129.310,
229.000=130.435,
230.000=131.868,
231.000=135.747,
232.000=136.054,
233.000=138.889,
235.000=141.176,
236.000=143.885,
237.000=147.420,
238.000=150.000,
239.000=153.453,
240.000=156.658,
241.000=157.895,
242.000=27.500,
243.000=110.000;
#STOPS:161.500=0.136,
162.000=0.137,
162.500=0.137;
#DELAYS:;
#WARPS:;
#TIMESIGNATURES:0.000=4=4;
#TICKCOUNTS:0.000=4;
#COMBOS:0.000=1;
#SPEEDS:0.000=1.000=0.000=0;
#SCROLLS:0.000=1.000;
#FAKES:;
#LABELS:0.000=Song Start;
#BGCHANGES:0.000=[SloweRemix] - Matryoshka -Club Mix-.avi=1.000=1=0=0=StretchNoLoop==CrossFade==,
99999=-nosongbg-=1.000=0=0=0 // don't automatically add -songbackground-
;
#KEYSOUNDS:;
#ATTACKS:
;

//---------------dance-single - ----------------
#NOTEDATA:;
#CHARTNAME:;
#STEPSTYPE:dance-single;
#DESCRIPTION:;
#CHARTSTYLE:;
#DIFFICULTY:Challenge;
#METER:10;
#RADARVALUES:0.687699,0.681368,0.562101,0.454005,0.706230,668.000000,590.000000,78.000000,63.000000,0.000000,0.000000,0.000000,0.000000,0.000000,0.687699,0.681368,0.562101,0.454005,0.706230,668.000000,590.000000,78.000000,63.000000,0.000000,0.000000,0.000000,0.000000,0.000000;
#CREDIT:;
#NOTES:
0000
0000
0000
0000
,
0000
0000
0000
0000
,
0000
0000
0000
0000
,
0000
0000
0000
0000
,
1000
0000
0010
0000
0100
0000
0010
0000
1000
0010
1000
0010
1000
0000
0000
0000
,
0001
0010
0001
0010
0001
0000
0000
0000
1000
0001
1000
0001
1000
0000
0000
0000
,
0001
0000
0100
0000
0001
0000
1000
0000
0100
1000
0100
1000
0100
0000
0000
0000
,
1000
0001
1000
0001
1000
1000
0000
0001
0100
0000
0010
0000
1010
0000
1000
0000
,
1001
0000
0001
0010
0100
0100
0000
0010
0100
1000
0001
0000
0101
0000
0001
1000
,
0100
0000
1000
0001
0100
0100
0000
0010
1000
0100
0010
0100
0002
0000
0103
0000
,
0110
0000
0010
0001
0100
0100
0000
0010
1000
0001
1000
0000
1100
0000
1000
0100
,
0010
0000
0100
0010
0001
0001
0000
1000
0001
0100
0010
0100
2000
0000
3200
0000
,
0310
1000
0010
1000
0001
1000
0001
1000
0001
0010
0100
1000
0001
0000
1001
0000
,
0001
0100
0001
1000
0100
0000
1100
1000
0100
1000
0100
0010
0001
0000
0011
0000
,
0001
0010
0001
0010
0001
1000
0001
1000
0010
0010
0100
0100
0002
0000
0103
0000
,
0001
0100
0001
0100
0001
1000
0001
1000
0001
0001
0010
0010
0200
0000
1300
0010
,
2010
0000
0020
0000
3030
0000
0010
0100
0001
0000
0100
0001
1000
0000
0001
0000
,
0010
0100
0010
0001
0010
0000
0010
0100
0000
0100
1000
0001
0100
0000
0001
0010
,
0012
0000
0020
0000
0033
0000
0001
0010
0100
0000
0010
0100
1000
0000
0001
0000
,
1000
0000
0010
0000
0001
0000
0100
0000
1000
0000
0001
0000
1001
0001
1000
0001
,
0201
0000
0310
0000
1200
0000
0310
0000
0001
0010
0100
1000
0002
0000
0103
0000
,
0102
0000
1003
0000
2100
0000
3001
0000
1000
0010
0100
0001
2000
0000
3000
0000
,
1020
0000
0130
0000
0021
0000
0130
0000
1000
0100
0010
0001
1000
0000
0010
0000
,
2010
0000
3001
0000
0012
0000
1003
0000
0001
1000
0001
1000
0001
0000
0000
0001
,
0011
0000
0110
0000
1100
0000
1001
0000
0001
0100
1000
0100
0020
0000
0000
0030
,
1000
0010
0200
0000
0301
0010
0200
0000
1300
0100
0010
0001
1000
0000
1001
0000
,
0001
0010
0100
0010
1000
0000
0010
0100
0000
0010
0001
0000
0022
0000
0033
0000
,
2002
0000
3003
0001
0100
0010
0100
0010
1000
0001
0010
0100
2000
0000
3000
0000
,
1100
0000
0000
1000
0001
0000
0000
0100
0000
0100
0000
0001
0100
0000
0010
0000
,
1010
0000
0000
1000
0001
0000
1001
0000
0001
0010
1000
0010
0002
0000
0003
0000
,
0101
0000
0000
0001
1000
0000
0000
0100
0000
0100
0000
1000
0100
0000
0010
0000
,
0011
0000
0000
0001
1000
0000
1001
0000
0001
0100
1000
0100
0001
0100
0020
0000
,
1030
0010
1000
0010
1000
0001
1000
0001
0010
0000
0010
0001
0000
0001
0010
0100
,
1000
0000
1000
0100
0000
0100
1000
0001
1000
0000
1000
0020
0000
0000
0030
0000
,
0100
0001
0100
0001
1000
0001
1000
0001
0011
0000
0110
0000
1100
0000
0000
0000
,
1000
0100
0010
0001
1000
0010
0100
0001
0101
0000
1010
0000
1100
0000
0011
0000
,
1000
0000
1010
0000
0001
0000
0011
0000
0001
0000
1000
0010
0100
0010
0002
0000
,
0013
0000
1010
0000
0001
0000
0011
0000
1000
0000
0001
0010
0100
0010
2000
0000
,
3010
0000
0011
0000
1000
0000
1010
0000
0001
0000
1000
0100
0010
0001
0020
0000
,
0031
0010
0001
1000
0010
0020
0000
0130
0010
1000
0001
0000
1001
0000
0000
0000
,
0000
0000
0000
0000
0000
0000
1000
0000
1000
0000
1000
0000
1010
0000
0010
0100
,
0001
0000
0001
1000
0000
1000
0001
1000
0001
0000
1000
0100
0010
0000
0001
0010
,
0100
0000
1000
0001
0000
1000
0010
0100
0001
0000
0100
0001
0011
0000
0010
0100
,
1000
0000
1000
0001
0000
0001
1000
0001
1000
0000
0010
0100
0001
0000
0100
0010
,
1000
0000
0001
1000
0000
0001
0010
0100
1000
0000
0000
0000
0201
0000
0310
0000
,
1020
0000
1030
0000
1000
0010
0100
0010
0002
0000
0013
0000
1020
0000
1030
0000
,
0021
0000
0031
0000
0001
0010
0100
0010
2000
0000
3010
0000
0021
0000
0130
0000
,
1200
0000
1300
0000
0001
0100
1000
0100
0002
0000
1003
0000
1200
0000
0310
0000
,
0201
0000
0310
0000
1000
0100
0001
0100
0020
0000
0030
0000
0001
0000
0001
1000
,
0000
1001
0000
1010
0000
1000
0010
0000
0100
0010
0100
0010
0100
0000
0000
0100
,
0001
0000
0000
0001
1000
0000
0001
0000
1001
0000
1000
0000
0100
0000
0100
0010
,
0000
0110
0000
0011
0000
0010
0001
0000
1000
0001
1000
0001
1000
0000
0000
1000
,
0010
0000
0000
0010
0100
0000
0001
0000
2002
0000
3003
0000
1200
0000
0310
0000
,
0120
0000
0031
0000
0001
0010
0100
1000
0002
0000
0103
0000
0201
0000
0310
0000
,
0120
0000
1030
0000
1000
0010
0100
0010
2000
0000
3000
0000
2010
0000
3001
0000
,
0012
0000
1003
0000
0001
1000
0001
1000
0001
0000
0001
0000
0201
0000
0310
0000
,
1200
0000
0310
0000
0010
0100
0010
0100
0020
0000
0030
0000
0011
0000
0001
0000
,
1001
0000
1000
0000
0010
1000
0010
1000
0020
0000
1030
0000
1010
0000
0010
0000
,
0110
0000
0100
0000
0001
0100
0001
0100
0002
0000
0003
0000
0101
0000
0001
0000
,
1001
0000
1000
0000
0001
0010
0100
0010
1000
0000
0010
0000
0011
0000
0001
0000
,
1001
0000
1000
0000
0001
0100
0010
0100
2000
0000
0000
0000
3200
0000
0000
0000
,
0300
0000
0000
0000
;

//---------------dance-single - ----------------
#NOTEDATA:;
#CHARTNAME:;
#STEPSTYPE:dance-single;
#DESCRIPTION:;
#CHARTSTYLE:;
#DIFFICULTY:Hard;
#METER:8;
#RADARVALUES:0.462241,0.505531,0.245019,0.259431,0.140525,449.000000,415.000000,34.000000,36.000000,0.000000,0.000000,0.000000,0.000000,0.000000,0.462241,0.505531,0.245019,0.259431,0.140525,449.000000,415.000000,34.000000,36.000000,0.000000,0.000000,0.000000,0.000000,0.000000;
#CREDIT:;
#NOTES:
0000
0000
0000
0000
,
0000
0000
0000
0000
,
0000
0000
0000
0000
,
0000
0000
0000
0000
,
1000
0100
0001
0100
0010
0010
0020
0000
,
0031
0001
0002
0000
1003
1000
2000
0000
,
3001
0100
1000
0100
0010
0010
0020
0000
,
1030
1000
2000
0000
3001
1000
0001
0000
,
1001
1000
0100
0000
1000
0100
0010
0001
,
1000
0010
1010
0000
0001
0010
0011
0000
,
1001
0001
0100
0000
0001
0100
0010
1000
,
0001
0010
0011
0000
1000
0010
1010
1010
,
1000
0010
0001
0010
0100
0001
1000
1000
,
0100
0010
0100
0100
0010
0001
0020
0030
,
0001
0010
1000
0010
0001
0010
0100
0100
,
1000
0010
0100
0100
0001
0100
0020
0030
,
2020
0000
3030
1000
0020
0000
0230
0000
,
0301
0100
1000
0100
0001
0001
0001
0000
,
0022
0000
0033
0001
0020
0000
0230
0000
,
1300
0100
0001
0100
0010
0010
0010
0000
,
0101
0100
0010
0100
0001
0100
0010
1000
,
1100
0100
0010
0100
1000
0100
0020
0030
,
0011
0010
0100
0010
0001
0010
0100
1000
,
1010
0010
0100
0010
1000
0010
0200
0300
,
0001
0001
0100
0100
0010
1000
0001
0000
,
2200
3300
2002
3003
0001
0100
0010
1000
,
0001
0000
0010
0000
0011
0000
0000
0110
0000
0000
1100
0000
1100
0000
0000
0000
,
1000
0000
0001
0001
1000
0001
1001
0000
,
1000
0000
0000
0010
1000
0000
0000
0000
0010
0000
0010
0000
1000
0000
0001
0000
,
0010
0000
0000
0001
0010
0000
0100
0000
1000
0001
1000
0001
1000
0000
0000
0000
,
0001
0000
0000
0100
0001
0000
0000
0000
0100
0000
0100
0000
0010
0000
1000
0000
,
0001
0000
0000
1000
0001
0000
1000
0000
0100
1000
0100
0000
1000
0001
1000
0000
,
0001
0000
0100
0000
0010
0000
0100
0000
0001
0000
0001
0100
0000
0000
0001
0000
,
1000
0000
1000
0100
0000
0000
1000
0000
0001
0000
0001
0100
0000
0000
0010
0000
,
1000
0010
1000
0001
0011
0011
0011
0000
,
0001
0010
0100
1000
1100
1100
1001
1001
,
0001
0000
0100
0001
0000
0000
1000
0001
0000
0000
1000
0000
0100
0000
0010
0000
,
0000
0000
0001
0010
0000
0000
0001
1000
0000
0000
0001
0000
0100
0000
0010
0000
,
0000
0000
1000
0010
0000
0000
1000
0001
0000
0000
1000
0000
0100
0000
0010
0000
,
0001
0100
0001
0100
0001
0001
0000
1000
0100
0000
0010
0000
0110
0000
0000
0000
,
0000
0000
0000
0010
0010
0010
0010
0000
,
0011
0000
0001
0010
0000
0001
1000
0000
1001
0000
1000
0000
1010
0000
0000
1000
,
0001
0000
1000
0100
0000
0000
0010
0001
1000
0000
0001
0100
0010
0000
0000
0000
,
0110
0000
0010
1000
0000
0001
1000
0000
1001
0000
0001
0010
0100
0000
0000
1000
,
0000
0001
0100
0100
0100
0000
0001
0100
,
1000
0000
0100
0000
0010
0000
0010
0000
0010
0000
0000
0000
1000
0010
1000
0000
,
0001
1000
0001
0000
0010
0001
0010
0000
0100
0000
0100
0000
1000
0000
0100
0000
,
0001
0100
0010
0010
0010
0000
0001
0001
,
1000
1000
0010
0100
0110
0000
0001
0001
,
0100
0000
0100
0000
0010
0000
1000
0000
0001
1000
0001
1000
0002
0000
0000
0000
,
0023
0000
0230
2300
3002
0000
1003
1000
,
0010
0000
0010
0000
0100
0000
0001
0000
1000
0001
1000
0001
2000
0000
0000
0000
,
3200
0000
0320
0032
2003
0000
3010
0010
,
1000
1000
0010
0100
0001
1000
0100
0100
,
1000
1000
0100
0010
0002
0000
1003
1000
,
0001
0001
1000
0010
0100
0010
1000
1000
,
0001
0001
0010
0100
0020
0000
0031
0100
,
0010
0100
1000
0100
0001
0001
1000
0010
,
0100
0010
0001
0010
2000
0000
3001
0010
,
0100
0010
1000
0010
0001
0001
1000
0100
,
0010
0100
0001
0100
2000
0000
3002
0000
,
0003
0000
0000
0000
;

//---------------dance-single - ----------------
#NOTEDATA:;
#CHARTNAME:;
#STEPSTYPE:dance-single;
#DESCRIPTION:;
#CHARTSTYLE:;
#DIFFICULTY:Medium;
#METER:7;
#RADARVALUES:0.366498,0.395633,0.281051,0.381941,0.003603,356.000000,317.000000,39.000000,53.000000,0.000000,0.000000,0.000000,0.000000,0.000000,0.366498,0.395633,0.281051,0.381941,0.003603,356.000000,317.000000,39.000000,53.000000,0.000000,0.000000,0.000000,0.000000,0.000000;
#CREDIT:;
#NOTES:
0000
0000
0000
0000
,
0000
0000
0000
0000
,
0000
0000
0000
0000
,
0000
0000
0000
0000
,
0001
0010
0000
0001
0010
0100
1000
1000
,
0001
0100
0000
0001
0100
0010
1000
1000
,
0010
1000
0000
0010
1000
0001
0010
0010
,
0001
0010
0000
0001
1000
0100
0020
0000
,
0031
0010
1000
0000
1000
0010
0001
0000
,
0010
0000
0100
0000
1000
0001
1000
0000
,
0001
0100
1000
0000
1000
0100
0001
0000
,
0100
0000
0010
0000
1000
0100
0010
0010
,
0001
0000
0010
0000
0100
1000
0002
0000
,
1003
0010
0200
0000
0310
0100
0002
0000
,
1003
0000
0010
0000
0100
0001
2000
0000
,
3001
1000
0200
0000
1300
0100
0010
0000
,
0220
0000
0330
0010
0002
0000
2003
0000
,
3010
0000
0010
0000
0100
0100
0100
0000
,
0220
0000
0330
0100
0002
0000
2003
0000
,
3100
0100
0010
0010
0001
0001
2000
0000
,
3001
0100
0010
0010
0100
0010
1000
0000
,
2010
3001
0012
1003
,
0001
0010
0100
0100
1000
0001
0100
0000
,
0101
0110
1010
1001
,
1000
0100
0001
0001
0100
1000
0001
0000
,
0021
0130
1020
0130
,
0001
0100
1000
0000
1000
0100
0001
0000
,
0102
1003
2100
3001
,
1000
0000
1000
0000
0001
0001
0001
0000
,
1000
0000
1000
0000
0001
1000
1001
0000
,
0001
0000
0001
0000
1000
1000
1000
0000
,
0001
0000
0001
0000
1000
1000
1001
1001
,
0001
0100
0010
0000
2020
0000
3030
0000
,
0022
0033
2020
3030
,
0010
0100
0001
0001
1000
0001
0010
0000
,
0100
0010
0001
1000
0001
0101
1000
1100
,
0000
0220
0330
0220
0330
0010
0001
0100
,
0000
0220
0330
0220
0330
0010
1000
0001
,
0000
2002
3003
2002
3003
0001
0010
0100
,
1000
0000
0100
0010
0002
0000
0000
0000
1000
0000
1000
0000
1003
0000
0000
0000
,
0000
0000
0000
0010
0010
0010
0010
0000
,
1010
0000
0010
1000
1010
0000
1000
0000
,
1001
0000
1000
0001
1001
0000
0001
0000
,
0011
0000
0010
0001
0011
0000
1000
0000
,
1001
0000
1000
0001
1001
0000
1000
0010
,
0001
0001
0010
1000
0001
0000
0022
0033
,
2020
3030
0001
1000
1001
0000
0001
0010
,
1000
1000
0010
0001
1000
0000
0002
0000
,
0203
0000
0320
2030
3002
0000
1003
0000
,
0100
0000
0010
0010
0001
0001
1000
0000
,
0010
0000
0100
0010
0100
0000
0001
0000
,
0100
0000
0010
0010
1000
1000
0001
0000
,
0010
0000
0100
0010
0100
0000
1000
0000
,
0100
0000
1000
0100
1000
1000
0001
0000
,
0100
0000
0001
0100
0002
0000
1003
0000
,
0010
0000
1000
0010
1000
1000
0001
0000
,
0010
0000
0001
0010
0002
0000
0013
0000
,
0110
0000
0100
0010
0100
1000
0010
0000
,
0110
0000
0100
0010
0100
0000
0010
1000
,
0010
0010
1000
0001
1000
1000
0001
0010
,
0100
1000
0001
0100
0020
0000
0230
0000
,
0300
0000
0000
0000
;

//---------------dance-single - ----------------
#NOTEDATA:;
#CHARTNAME:;
#STEPSTYPE:dance-single;
#DESCRIPTION:;
#CHARTSTYLE:;
#DIFFICULTY:Easy;
#METER:4;
#RADARVALUES:0.236783,0.306453,0.194574,0.100890,0.000000,230.000000,203.000000,27.000000,14.000000,0.000000,0.000000,0.000000,0.000000,0.000000,0.236783,0.306453,0.194574,0.100890,0.000000,230.000000,203.000000,27.000000,14.000000,0.000000,0.000000,0.000000,0.000000,0.000000;
#CREDIT:;
#DISPLAYBPM:110.000000:158.000000;
#NOTES:
// measure 0
0000
0000
0000
0000
,  // measure 1
0000
0000
0000
0000
,  // measure 2
0000
0000
0000
0000
,  // measure 3
0000
0000
0000
0000
,  // measure 4
1000
0100
1000
1000
,  // measure 5
0001
1000
0001
0001
,  // measure 6
0000
1000
0010
0010
,  // measure 7
0100
0100
0001
1000
,  // measure 8
1001
0000
0001
0001
,  // measure 9
1000
0100
1000
0001
,  // measure 10
1001
0000
1000
1000
,  // measure 11
0001
0100
0001
1000
,  // measure 12
0010
0100
0010
0010
,  // measure 13
1000
1000
0001
0001
,  // measure 14
0010
0100
0010
0010
,  // measure 15
0001
0001
1000
1000
,  // measure 16
0002
0000
1000
1003
,  // measure 17
1000
0010
0001
0010
,  // measure 18
2000
0000
0001
3001
,  // measure 19
0001
0010
0100
0000
,  // measure 20
1000
0100
1000
1000
,  // measure 21
0001
0100
0020
0030
,  // measure 22
1000
0010
0100
0100
,  // measure 23
0001
1000
0002
0003
,  // measure 24
1000
0100
0010
0100
,  // measure 25
0001
0100
1000
0001
,  // measure 26
1000
1000
0010
0010
,  // measure 27
0001
0010
1000
1000
,  // measure 28
1010
0000
0010
1000
,  // measure 29
1001
0000
1000
0001
,  // measure 30
0011
0000
0010
0001
,  // measure 31
1001
0000
0001
1001
,  // measure 32
1000
0010
0200
0300
,  // measure 33
0002
0003
0202
0303
,  // measure 34
1000
0100
0010
0110
,  // measure 35
0010
0000
0001
0000
0022
0033
2020
3030
,  // measure 36
0000
0010
0000
1010
0000
1000
0000
0001
,  // measure 37
0000
0010
0000
0011
0000
0010
0000
0100
,  // measure 38
0000
1000
0000
1001
0000
0001
0000
0100
,  // measure 39
0010
1000
0001
1001
,  // measure 40
0000
0000
1000
1000
,  // measure 41
0100
0000
0100
0000
,  // measure 42
0010
0000
0010
0000
,  // measure 43
0001
0000
0001
0000
,  // measure 44
1000
0000
1000
0001
,  // measure 45
0100
1000
1000
0100
,  // measure 46
0001
1000
1000
0001
,  // measure 47
0010
1000
1000
0010
,  // measure 48
0001
1000
0010
0100
,  // measure 49
0100
0001
0001
1000
,  // measure 50
0001
1000
0001
0010
,  // measure 51
0010
0100
0100
1000
,  // measure 52
0001
1000
0001
1000
,  // measure 53
0010
1000
1000
0010
,  // measure 54
1000
1010
1010
0001
,  // measure 55
0010
0001
0001
0010
,  // measure 56
0001
0011
0011
0100
,  // measure 57
1000
1100
1001
0001
,  // measure 58
0100
0101
0110
0100
,  // measure 59
0010
1010
1001
0001
,  // measure 60
0010
0110
0220
0330
;

//---------------dance-single - ----------------
#NOTEDATA:;
#CHARTNAME:;
#STEPSTYPE:dance-single;
#DESCRIPTION:;
#CHARTSTYLE:;
#DIFFICULTY:Beginner;
#METER:3;
#RADARVALUES:0.129716,0.196195,0.021619,0.064858,0.000000,126.000000,123.000000,3.000000,9.000000,0.000000,0.000000,0.000000,0.000000,0.000000,0.129716,0.196195,0.021619,0.064858,0.000000,126.000000,123.000000,3.000000,9.000000,0.000000,0.000000,0.000000,0.000000,0.000000;
#CREDIT:;
#NOTES:
0000
0000
0000
0000
,
0000
0000
0000
0000
,
0000
0000
0000
0000
,
0000
0000
0000
0000
,
0001
0000
0000
0000
,
0001
0000
0001
0000
,
0100
0000
0000
0000
,
0100
0000
0100
0000
,
0010
0010
0010
0000
,
1000
0000
1000
0000
,
0001
0001
0001
0000
,
0010
0000
0010
0000
,
0100
0000
0000
0000
,
0100
0000
0100
0000
,
1000
0000
0000
0000
,
1000
0000
1000
0000
,
1001
0000
0000
0000
,
0001
0000
1000
0000
,
1001
0000
0000
0000
,
1000
0000
0001
0000
,
0100
0000
0100
0000
,
0010
0010
0010
0000
,
1000
0000
1000
0000
,
0001
0001
0001
0000
,
1000
1000
1000
0000
,
0100
0000
0100
0000
,
0010
0010
0010
0000
,
0001
0000
0001
0000
,
1000
0000
0000
0000
,
1000
0000
0000
0000
,
0001
0000
0000
0000
,
0001
0000
0000
0000
,
0100
0000
0100
0000
,
0010
0000
0010
0000
,
1000
0000
1000
0000
,
0001
0001
0001
0000
,
0000
0020
0000
0030
0000
0010
0000
0010
,
0000
0200
0000
0300
0000
0100
0000
0100
,
0000
2000
0000
3000
0000
1000
0000
1000
,
1000
0001
1000
1001
,
0000
0000
0000
0000
,
0001
0000
0001
0000
,
0100
0000
0100
0000
,
0010
0000
0010
0000
,
1000
0000
1000
1000
,
0000
0010
0000
1000
,
1000
1000
0000
0001
,
0000
0010
0000
0001
,
0001
0001
0000
0020
,
0030
0010
0010
0020
,
0030
0020
0030
0200
,
0300
0100
0100
0200
,
0300
0200
0300
1000
,
0000
1000
0000
0001
,
0001
0001
0000
0100
,
0000
0100
0000
0010
,
0010
0010
0000
1000
,
0000
0010
0000
1000
,
1000
1000
0000
0001
,
0000
0010
0000
0001
,
0001
0001
0001
0000
;
