#TITLE:Judas (Goldfrapp Remix);
#SUBTITLE:;
#ARTIST:Lady Gaga;
#TITLETRANSLIT:;
#SUBTITLETRANSLIT:;
#ARTISTTRANSLIT:;
#GENRE:;
#CREDIT:;
#BANNER:[Sloweremix] - Judas (Goldfrapp Remix)-bn.png;
#BACKGROUND:[Sloweremix] - Judas (Goldfrapp Remix)-bg.png;
#LYRICSPATH:;
#CDTITLE:;
#MUSIC:[Sloweremix] - Judas (Goldfrapp Remix).ogg;
#OFFSET:0.616780;
#SAMPLESTART:49.234772;
#SAMPLELENGTH:12.000000;
#SELECTABLE:YES;
#BPMS:0.000000=78.000000
;
#STOPS:111.000000=0.820000
;
#BGCHANGES:;
#KEYSOUNDS:;
#ATTACKS:;

//---------------dance-single - ----------------
#NOTES:
     dance-single:
     :
     Hard:
     8:
     0.342315,0.357749,0.294271,0.142932,0.084077,285.000000,250.000000,35.000000,17.000000,0.000000,0.000000,0.342315,0.357749,0.294271,0.142932,0.084077,285.000000,250.000000,35.000000,17.000000,0.000000,0.000000:
// measure 0
0000
0000
0000
0000
,  // measure 1
0000
0000
0000
0000
,  // measure 2
0000
0012
0010
0010
,  // measure 3
0100
0100
1000
1000
,  // measure 4
0100
0103
2010
0010
,  // measure 5
0010
3100
0100
0010
,  // measure 6
0001
0000
0000
0000
0000
0000
1000
0000
0100
0000
0010
0000
0001
0000
0000
0011
0000
0000
0001
0000
0100
0000
0010
0000
,  // measure 7
1000
1100
2001
0000
0001
0000
0010
0000
,  // measure 8
3001
0000
1000
0010
1000
0001
1000
0100
,  // measure 9
0010
0000
0001
1000
0010
0000
0100
0000
0010
0000
1000
0000
0001
0000
1000
0000
,  // measure 10
0100
0010
0100
1000
0100
0001
0100
0010
,  // measure 11
0001
2000
0000
0000
0000
0000
0000
0000
,  // measure 12
0000
0000
3001
0010
0100
0000
1000
0010
0100
0000
0001
0000
1000
0000
0100
0000
,  // measure 13
1001
0000
0100
0000
1000
0000
0010
0100
0001
0000
1000
0000
0001
0000
0100
0000
,  // measure 14
0011
0000
1000
0000
0001
0000
1000
0001
0010
0000
0100
0000
1000
0000
0001
0000
,  // measure 15
1100
0000
0010
0000
0001
0000
1000
0010
0100
0000
0010
0000
1000
0000
0010
0000
,  // measure 16
0100
0001
1001
1000
0100
0010
0011
0012
,  // measure 17
0000
1003
0100
1000
0010
0100
0110
0220
,  // measure 18
0000
0330
0001
0100
1000
0100
0010
1000
,  // measure 19
0010
0000
0100
0001
0010
0000
0100
0000
1000
0000
0010
0000
0110
0000
0100
0000
,  // measure 20
1001
1000
1100
1000
0001
1000
1010
2010
,  // measure 21
0000
3010
1000
0100
1000
0001
0101
0202
,  // measure 22
0000
0303
0000
0000
1000
0000
0010
0000
0001
0000
0010
0000
0100
0000
0001
0000
,  // measure 23
0100
0000
0010
1000
0100
0000
0010
0000
0001
0000
1000
0000
0001
0000
0010
0000
,  // measure 24
0100
1000
1100
0100
1000
0001
0101
2001
,  // measure 25
0000
3001
0100
1000
0100
0001
0011
2200
,  // measure 26
0000
3300
1000
0100
0001
0100
0010
0001
,  // measure 27
0100
0000
0000
0010
0000
0000
1000
0000
0100
0000
0010
0000
0001
0000
0000
1001
0000
0000
0000
0000
0000
0000
0000
0000
,  // measure 28
1001
0000
0100
1000
0010
0000
0100
0000
0001
0000
0010
0000
1000
0000
0010
0000
,  // measure 29
0011
0000
0001
0100
0010
0000
1000
0000
0001
0000
0100
0000
1000
0000
0100
0000
,  // measure 30
0101
0000
0010
1000
0001
0000
1000
0000
0001
0000
0010
0000
0100
0000
1000
0000
,  // measure 31
1100
0000
1000
0000
0010
0000
0100
0000
0001
0000
0100
0000
0001
1000
0001
0000
,  // measure 32
0110
0000
0100
0001
0010
0000
0001
0000
1000
0000
0100
0000
0001
0000
0100
0000
,  // measure 33
1010
0000
0010
0100
0001
0000
1000
0000
0001
0000
0010
0000
1000
0000
0010
0000
,  // measure 34
0102
0100
0103
0001
1000
0001
0100
0010
,  // measure 35
0210
0010
0310
1000
0100
0001
0010
0100
,  // measure 36
2002
0000
0000
0000
,  // measure 37
3003
0000
0000
0000
;

//---------------dance-single - ----------------
#NOTES:
     dance-single:
     :
     Medium:
     5:
     0.258238,0.264423,0.100893,0.100893,0.025223,215.000000,203.000000,12.000000,12.000000,0.000000,0.000000,0.258238,0.264423,0.100893,0.100893,0.025223,215.000000,203.000000,12.000000,12.000000,0.000000,0.000000:
0000
0000
0000
0000
,
0000
0000
0000
0000
,
0000
2001
0010
0010
,
0010
0010
0010
0100
,
0100
0100
0100
0100
,
0001
0001
0001
0001
,
3001
0000
0000
0100
0100
0100
0100
0000
0000
0010
0010
0010
,
0010
1000
1100
0001
,
0101
0000
2000
3000
0100
0000
0010
0000
,
0010
0001
0200
0000
0301
0100
1000
0000
,
0100
0010
0100
0020
,
0030
1000
0000
0000
0000
0000
0000
0000
,
0000
0000
0001
0100
1000
0100
0001
0010
,
1000
0010
0001
0100
1000
0100
0001
0010
,
1000
0010
0001
0100
0001
0100
0001
1000
,
0001
1000
0100
1000
0100
1000
0010
0100
,
0001
0000
2010
0010
3010
0000
0100
0001
,
0100
0000
0210
0010
0310
0000
1000
0100
,
0010
0000
0001
0100
1000
0000
1000
0100
,
0001
0000
0001
0010
0100
0010
0001
0100
,
1010
0000
2100
0100
3100
0000
0010
0001
,
0100
0000
0201
0001
0301
0000
0100
0010
,
1000
0000
1000
0010
0001
0000
0001
0010
,
1000
0000
0100
0010
0001
0100
0010
1000
,
0100
0010
0201
0001
0301
0000
0001
0100
,
0010
0000
2010
0010
3010
0000
0010
1000
,
0100
0000
1000
0100
0001
0000
0001
0100
,
1000
0000
0000
1000
1000
1000
1000
0000
0000
0000
0000
0000
,
1000
0100
0001
0100
1000
0010
1000
0100
,
1000
0001
0010
0001
0100
0010
0100
0001
,
0100
0010
1000
0100
0010
0001
0100
0010
,
1000
0100
0001
0100
1000
0010
0001
0010
,
1000
0100
0001
0100
1000
0010
0100
0001
,
0010
0001
0100
0001
0010
0100
0010
0001
,
0100
0010
1000
0100
,
0001
0010
1000
1001
,
0220
0000
0000
0000
,
0330
0000
0000
0000
;

//---------------dance-single - ----------------
#NOTES:
     dance-single:
     :
     Easy:
     3:
     0.188574,0.233315,0.126116,0.168155,0.000000,157.000000,142.000000,15.000000,20.000000,0.000000,0.000000,0.188574,0.233315,0.126116,0.168155,0.000000,157.000000,142.000000,15.000000,20.000000,0.000000,0.000000:
0000
0000
0000
0000
,
0000
0000
0000
0000
,
0000
2001
0001
0000
,
0001
0000
0001
0000
,
0100
0000
0100
0000
,
0100
0000
0010
0000
,
3010
2002
3003
0220
,
0330
0000
0001
0000
,
0001
1000
0100
0001
,
0100
1000
0010
0100
,
0001
2001
0001
0000
,
3010
0202
0000
0000
,
0303
0000
0001
0100
0001
0000
0100
0000
,
0010
0000
1000
0100
1000
0000
0100
0000
,
0010
0000
0001
1000
0001
0000
0100
0000
,
0010
0000
1000
0010
1000
0000
0100
0000
,
0010
0000
0002
0000
0103
0000
0100
0001
,
0100
0000
0020
0000
1030
0000
1000
0001
,
1000
0100
0100
0010
,
0010
0000
0001
0100
0010
1000
0001
0000
,
1001
0000
0102
0000
0103
0000
0010
1000
,
0010
0000
2100
0000
3100
0000
0010
0001
,
0010
0001
0100
0010
,
1000
0100
0010
0001
0100
0000
0101
0000
,
1001
0000
2010
0000
3010
0000
1000
0001
,
1000
0000
2100
0000
3100
0000
0010
0100
,
0010
0001
0100
0010
,
1000
2200
3300
0000
,
0101
0000
0001
0000
0100
0010
0100
0010
,
0100
0000
0001
0000
1000
0100
1000
0100
,
1000
0000
0001
0000
0100
0000
0001
0010
,
0001
0100
0010
1000
,
1000
0100
0010
0100
1000
0000
0001
0000
,
0001
0100
0010
0100
0001
0000
0001
0000
,
2000
0001
0001
3001
,
0002
0100
0100
0103
,
0220
0000
0000
0000
,
0330
0000
0000
0000
;

//---------------dance-single - ----------------
#NOTES:
     dance-single:
     :
     Beginner:
     1:
     0.111703,0.151339,0.033631,0.100893,0.000000,93.000000,89.000000,4.000000,12.000000,0.000000,0.000000,0.111703,0.151339,0.033631,0.100893,0.000000,93.000000,89.000000,4.000000,12.000000,0.000000,0.000000:
0000
0000
0000
0000
,
0000
0000
0000
0000
,
0000
2002
0000
0000
,
0000
0000
0000
0000
,
0000
3003
0220
0000
,
0000
0330
0000
0000
,
0000
0000
2000
3000
,
0002
0103
0100
0000
,
0010
0100
0100
0100
,
0000
0001
0000
0001
,
0000
1000
1000
1000
,
0000
0001
0000
0000
,
0000
0100
0100
0100
,
0001
1000
1000
1000
,
0100
0010
0010
0010
,
0001
0100
0100
0100
,
0001
2000
3000
0001
,
0100
0020
0030
0100
,
0100
0001
1000
0000
,
1000
0000
0001
0001
,
0001
0200
0300
0010
,
0010
2000
3000
0100
,
0100
0010
0001
0000
,
0001
0000
0100
0000
,
0100
0010
0010
0010
,
1000
0100
0100
0100
,
0010
0001
1000
0001
,
1000
2002
3003
0000
,
0010
0000
0100
0100
,
0100
0000
0001
0001
,
0001
0000
0000
1000
,
1000
0000
0010
0100
,
0100
0000
0001
0001
,
0001
0000
0010
0010
,
0010
0000
0000
0100
,
0100
0000
0000
0000
,
1001
0000
0000
0000
;
