#TITLE:Icarus;
#SUBTITLE:(Akiba Complex Remix);
#ARTIST:Eagle;
#TITLETRANSLIT:;
#SUBTITLETRANSLIT:;
#ARTISTTRANSLIT:;
#GENRE:;
#CREDIT:;
#BANNER:Icarus Akiba Complex.png;
#BACKGROUND:Icarus Akiba Complex - bg.png;
#LYRICSPATH:;
#CDTITLE:;
#MUSIC:Icarus Akiba Complex.ogg;
#OFFSET:0.019;
#SAMPLESTART:54.841;
#SAMPLELENGTH:13.710;
#SELECTABLE:YES;
#DISPLAYBPM:140.000;
#BPMS:0.000=140.000,194.000=70.000,194.250=210.000,195.375=70.000,195.500=140.000;
#STOPS:;
#BGCHANGES:;
#KEYSOUNDS:;

//---------------dance-single - rikame----------------
#NOTES:
     dance-single:
     rikame:
     Hard:
     11:
     0.880,0.875,0.255,0.036,1.000:
0000
0000
0000
0000
0000
0000
0000
0000
0000
0000
0000
0000
0000
0000
0000
0000
0000
0000
0000
0000
0000
0000
0000
0000
0000
0000
0000
0000
0000
0000
0000
0000
0000
00M0
0000
0000
0000
0000
M000
0000
0000
0000
0000
0000
000M
0000
00M0
0000
,
0000
0000
M000
0000
0000
0000
0M00
0000
000M
0000
0M00
0000
000M
0000
M000
0000
0000
0000
0M00
0000
0000
0000
000M
0000
0000
0000
0000
0000
00M0
0000
0000
0000
0000
000M
0000
0000
0M00
0000
0000
M000
0000
0000
00M0
0000
0000
0000
0M00
0000
,
0000
0000
0000
000M
0000
0000
00M0
0000
0000
0000
0000
0000
M000
0000
0M00
0000
0000
000M
0000
0000
00M0
0000
000M
0000
,
M000
0000
000M
0000
0M00
0000
00M0
0000
0000
0000
0000
000M
0000
0M00
0000
0000
0000
0000
M000
0000
0M00
0000
0000
0000
,
0000
0000
0000
0000
,
0000
0000
0000
0000
,
0000
0000
0000
0000
,
0000
0000
0000
0000
0000
0000
0000
0000
0000
0000
0000
0000
0000
0000
0001
1000
0001
0000
0100
0000
0000
0000
0100
0000
0010
0000
1000
0000
0001
0000
1000
0000
,
0100
0000
1000
0000
0101
0000
0001
0010
0000
0001
1000
0000
1010
0000
0010
0000
,
0100
0001
0100
0010
0000
1000
0100
0000
1000
0000
0000
0001
0000
0001
0100
0000
,
0001
0000
1000
0000
0011
0000
0010
0001
0000
1000
0010
0000
0110
0000
0100
0000
,
0001
1000
0001
0010
0100
1000
0000
1000
0000
0001
0100
0000
0110
0000
0010
0000
,
1000
0000
0100
0000
1010
0000
0010
1000
0000
0001
1000
0000
1100
0000
0100
0000
,
0010
0001
0010
0100
0000
1000
0001
0000
0100
0000
0000
0010
0000
0010
1000
0000
,
0100
0000
1000
0000
0101
0000
0100
0010
0000
1000
0100
0000
0110
0000
0010
0000
,
0001
0100
0010
0100
0001
1000
0000
0001
0000
0001
0000
0001
0000
0000
0100
0000
,
0001
0000
1000
0000
0101
0000
0001
0010
0000
0001
1000
0000
1010
0000
0010
0000
,
0100
0001
0100
0010
0000
1000
0001
0000
0100
0000
0000
0010
0000
0010
1000
0000
,
0100
0000
1000
0000
0011
0000
0010
0100
0000
1000
0010
0000
0110
0000
0100
0000
,
0001
0010
0001
1000
0010
0100
0000
0010
0000
0010
1000
0001
1000
0000
0100
0000
,
1000
0000
0001
0000
0011
0000
0010
0001
0000
0100
0010
0000
1010
0000
1000
0000
,
0100
0010
0001
0010
0000
0001
1000
0000
0010
0000
0000
0100
0000
0100
0001
0000
,
0010
0001
0010
0100
0000
0100
0000
1000
0000
1000
0000
0001
0100
0000
0100
0000
,
0010
1000
0010
0100
0000
0001
0000
0001
0000
0010
0100
0010
0001
0000
0100
0000
,
0010
0000
1000
0000
1100
0000
1000
0001
0000
0010
0001
0000
0101
0000
0100
0000
,
0010
1000
0010
0100
0000
0001
0010
0000
0001
0000
0000
0100
0000
0100
0010
0000
,
1000
0100
1000
0001
0010
0100
0000
0100
0000
1000
0000
1000
0001
0000
0100
0000
,
0001
0010
0001
1000
0010
0100
0000
0100
0000
0001
0000
0001
0010
0000
0001
0000
,
1000
0100
0000
1000
0010
0000
0110
0000
0100
0001
0000
0010
0001
0000
1001
0000
,
1000
0010
0000
1000
0100
0000
0110
0000
0010
0001
0000
0100
0001
0000
1001
0000
,
2000
0000
3100
0010
0002
0000
0103
0010
2000
0000
3100
1000
0001
0100
0001
0100
,
0010
1000
0001
1000
0010
1000
0001
1000
0010
1000
0001
1000
1001
0000
0000
0000
,
0001
0010
0001
0000
0100
0000
0010
1000
0000
1000
0100
1000
0001
0000
0100
0001
,
0000
0001
0010
0001
1000
0000
0010
1000
0000
1001
0000
0001
0010
0000
0001
1000
,
0000
0010
0100
0001
1000
0000
0100
1000
0000
0100
0010
0001
1000
0001
0010
0100
,
0000
1000
0001
0100
0001
0010
0100
1000
0010
0100
0010
1000
0001
0010
0100
0010
,
0000
0001
0010
0000
0001
0000
1000
0010
0000
0010
0100
0001
1000
0000
0100
1000
,
0000
1000
0010
1000
0001
0000
0010
0001
0000
0101
0000
0100
0010
0000
1000
0010
,
0000
0100
0010
1000
0001
0000
0010
0001
0000
0010
0100
1000
0001
1000
0010
0100
,
0000
0001
1000
0010
1000
0100
0010
0001
0100
0010
0100
0001
1000
0010
0100
0010
,
0000
1000
0001
0000
0010
0000
0100
1000
0000
1000
0010
1000
0001
0000
0010
0001
,
0000
0001
0100
0001
1000
0000
0100
1000
0000
1001
0000
0001
0100
0000
0001
1000
,
0000
0100
0010
0001
1000
0000
0010
1000
0000
0010
0100
0001
1000
0001
0100
0010
,
0000
1000
0001
0010
0001
0100
0010
1000
0100
0010
0100
1000
0001
0100
0010
0100
,
0000
0001
0100
0000
0001
0000
1000
0100
0000
0100
0010
0001
1000
0000
0010
1000
,
0000
1000
0100
1000
0001
0000
0100
0001
0000
0011
0000
0010
0100
0000
1000
0100
,
0000
0010
0100
1000
0001
0000
0100
0001
0000
0100
0010
1000
0001
1000
0100
0010
,
0000
0001
1000
0100
1000
0010
0100
0001
0010
0100
0010
0001
0100
0010
1000
0000
,
0000
0001
0100
0001
0100
0001
1000
0000
0021
0000
0000
0000
0100
0000
0031
1000
,
0000
0001
0100
0001
0010
0000
0001
1000
0000
0010
0000
0010
0100
0000
0001
0010
,
0000
0001
1000
0001
0100
0000
0100
0010
0000
1000
0100
1000
0001
0000
0010
0001
,
0000
1000
0001
1000
0000
0010
0100
0001
0010
0100
1000
0100
0010
0001
1000
0010
,
0000
0100
0010
0000
1000
0000
0100
0000
0000
1000
0010
1000
0001
0000
0010
0001
,
0000
1000
0100
1000
0010
0000
1000
0001
0000
0010
0000
0010
0100
0000
1000
0010
,
0000
1000
0001
1000
0100
0000
0100
0010
0000
0001
0100
0001
1000
0000
0010
1000
,
0000
0001
1000
0001
0000
0010
0100
1000
0010
0100
0001
0100
0010
1000
0001
1000
,
0000
0010
0100
0000
0001
0000
0001
0010
0000
0001
0100
0001
1000
0000
0100
1000
,
0000
0001
0010
0001
0100
0000
0001
1000
0000
0100
0000
0100
0010
0000
0001
0100
,
0000
0001
1000
0001
0010
0000
0010
0100
0000
1000
0010
1000
0001
0000
0100
0001
,
0000
0010
0001
0010
0000
0001
1000
0010
0100
0001
0010
0001
1000
0100
1000
0001
,
0000
0010
0001
0000
1000
0000
1000
0010
0000
1000
0100
1000
0001
0000
0100
0001
,
0000
1000
0010
1000
0100
0000
1000
0001
0000
0100
0000
0100
0010
0000
1000
0100
,
0000
1000
0001
1000
0010
0000
0010
0100
0000
0001
0010
0001
1000
0000
0100
1000
,
0000
0010
1000
0010
0000
0100
0010
1000
0100
0010
0001
0010
0100
1000
0001
0100
,
0110
0000
0000
0000
;
