#TITLE:Help me, ERINNNNNN!!;
#SUBTITLE:-Cranky remix-;
#ARTIST:ビートまりお × Cranky;
#TITLETRANSLIT:;
#SUBTITLETRANSLIT:;
#ARTISTTRANSLIT:beatMARIO × Cranky;
#GENRE:;
#CREDIT:;
#BANNER:[SloweRemix] - Help me, ERINNNNNN!! -Cranky remix-.png;
#BACKGROUND:[SloweRemix] - Help me, ERINNNNNN!! -Cranky remix--bg.png;
#LYRICSPATH:;
#CDTITLE:;
#MUSIC:[SloweRemix] - Help me, ERINNNNNN!! -Cranky remix-.ogg;
#OFFSET:-0.669000;
#SAMPLESTART:89.982338;
#SAMPLELENGTH:15.000000;
#SELECTABLE:YES;
#BPMS:0.000000=180.000000
;
#STOPS:
;
#BGCHANGES:;
#KEYSOUNDS:;
#ATTACKS:;

//---------------dance-single - ----------------
#NOTES:
     dance-single:
     :
     Beginner:
     2:
     0.181162,0.296448,0.032939,0.049408,0.000000,154.000000,150.000000,4.000000,6.000000,0.000000,0.000000,0.181162,0.296448,0.032939,0.049408,0.000000,154.000000,150.000000,4.000000,6.000000,0.000000,0.000000:
0000
0000
0000
0000
,
0000
0000
0000
0000
,
0000
0000
0000
0000
,
0000
0000
0000
0000
,
1000
0000
0000
0000
,
0010
0000
0000
0000
,
0100
0000
0000
0000
,
0001
0000
0000
0000
,
1000
0000
1000
0000
,
0001
0000
0001
0000
,
0010
0000
0010
0000
,
0100
0000
0010
0000
,
0001
0000
0001
0000
,
1000
0000
1000
0000
,
0010
0000
0010
0000
,
0100
0000
0010
0000
,
1001
0000
0000
0000
,
0000
0000
0000
0000
,
1000
0000
0000
0000
,
0000
0000
0000
0000
,
0001
0000
0000
0000
,
0000
0000
0000
0000
,
1000
0000
0001
0000
,
1000
1000
1000
0000
,
1000
1000
1000
1000
,
1000
0000
0000
0000
,
0001
0001
0001
0001
,
0001
0000
0000
0000
,
0010
0010
0010
0010
,
0010
0010
0010
0000
,
0100
0100
0100
0100
,
0100
0100
0100
0000
,
1000
0000
0001
0000
,
1000
0000
0001
0000
,
0010
0000
0100
0000
,
0010
0000
0001
0000
,
1000
0000
0001
0000
,
1000
0000
0001
0000
,
0100
0000
0010
0000
,
0100
0000
0001
0000
,
1000
0000
0000
0010
,
0000
0000
0100
0000
,
1001
0000
0000
0000
,
1000
0000
0001
0000
,
0010
0000
0000
0000
,
0001
0000
1000
0000
,
0010
0000
0000
0000
,
1000
0000
0001
0000
,
0100
0000
0001
0000
,
0001
0000
1000
0000
,
0100
0000
0000
0000
,
1000
0000
0001
0000
,
0010
0000
0001
0000
,
0001
0000
1000
0000
,
0010
0000
0000
0000
,
1000
0000
1000
0000
,
0100
0000
1000
0000
,
0001
0000
0001
0000
,
0010
0000
0001
0000
,
0001
0001
0001
0001
,
0001
0000
0000
0000
,
0001
0000
0001
0000
,
1000
0000
1000
0000
,
1000
1000
1000
1000
,
1000
0000
0000
0000
,
1000
0000
0000
0000
,
2002
0000
3003
0000
,
0001
0000
1000
0000
,
0010
0000
0100
0000
,
0010
0000
1000
0000
,
0001
0000
0100
0000
,
0001
0000
1000
0000
,
0100
0000
0010
0000
,
0001
0000
0100
0000
,
0010
0000
0000
0000
,
1000
0000
0001
0000
,
0010
0000
0100
0000
,
0010
0000
0001
0000
,
1000
0000
0100
0000
,
1000
0000
0001
0000
,
0100
0000
0010
0000
,
1000
0000
0100
0000
,
0010
0000
0001
0000
,
2000
0000
0000
0000
,
0000
0000
3000
0000
,
0002
0000
0000
0000
,
0000
0000
0003
0000
,
2002
0000
0000
0000
,
0000
0000
0000
0000
,
0000
0000
0000
0000
,
3003
0000
0000
0000
;

//---------------dance-single - ----------------
#NOTES:
     dance-single:
     :
     Easy:
     4:
     0.337621,0.407615,0.090581,0.288213,0.000000,287.000000,276.000000,11.000000,35.000000,0.000000,0.000000,0.337621,0.407615,0.090581,0.288213,0.000000,287.000000,276.000000,11.000000,35.000000,0.000000,0.000000:
0000
0000
0000
0000
,
0000
0000
0000
0000
,
0000
0000
0000
0000
,
0000
0000
0000
0000
,
1000
0000
0010
0000
,
0100
0000
0001
0000
,
1000
0100
0010
0001
,
2000
0000
0000
3000
,
2000
0000
3020
0000
,
0130
0001
1000
0000
,
0100
0010
0001
0100
,
0010
1000
0001
0000
,
0002
0000
0023
0000
,
0130
1000
0001
0000
,
0100
0010
1000
0100
,
0010
0001
1000
0000
,
1001
0000
0000
0000
,
0000
0000
0000
0000
,
0001
0000
0000
0000
,
0000
0000
0000
0000
,
0010
0000
0000
0000
,
0000
0000
0000
0000
,
0100
0000
1000
0000
,
0001
0010
0100
1000
,
0002
1003
0002
1003
,
0001
0000
1000
0000
,
2000
3001
2000
3001
,
1000
0000
0001
0000
,
0002
1003
0002
1003
,
2000
3001
2000
3001
,
1000
0010
0100
0001
,
0010
0100
1000
0000
,
0001
0100
1000
0010
,
1000
0100
0001
0010
,
0100
1000
0010
0001
,
0010
0100
0001
1001
,
1000
0100
0001
0010
,
0001
0100
1000
0010
,
0100
0001
0010
1000
,
0010
0100
1000
1001
,
0001
0000
0000
0100
0000
0000
0010
0000
,
0000
1000
0000
0000
0001
0000
1000
0000
,
1001
0000
0000
0000
,
2000
3010
2000
3010
,
1000
0001
0010
0100
,
1000
0010
0001
0100
,
0001
0010
1000
0000
,
0002
0013
0002
0013
,
0001
1000
0010
0100
,
0001
0010
1000
0100
,
1000
0010
0001
0000
,
2000
3100
2000
3100
,
1000
0010
0100
0001
,
1000
0100
0001
1000
,
0001
0100
1000
0010
,
1000
0100
0010
0001
,
1000
0010
0100
0001
,
1000
0100
0001
0100
,
1000
0010
0100
0001
,
2000
3010
2000
3010
,
1000
0100
0010
0001
,
1000
0000
0010
0000
,
0100
0001
1000
0000
,
0002
0013
0002
0013
,
0001
0100
0010
1000
,
0001
0010
0100
1000
,
2002
0000
3003
0000
,
0002
0103
0200
1300
,
1000
0010
0001
0100
,
0010
1000
0100
0010
,
0001
1001
1000
1001
,
0002
0013
0020
1030
,
1000
0100
0001
0010
,
0100
1000
0010
0100
,
0001
1000
1001
0000
,
2000
3100
0200
0301
,
0001
0010
1000
0100
,
0010
0001
0100
0010
,
1000
1001
0001
1001
,
2000
3010
0020
0031
,
0001
0100
1000
0010
,
0100
0001
0010
0100
,
1000
0010
0100
0001
,
1000
0100
0001
0010
,
1000
0100
0010
0001
,
0001
0100
1000
0010
,
0001
0100
0010
1000
,
2002
0000
0000
0000
,
0000
0000
0000
0000
,
0000
0000
0000
0000
,
3003
0000
0000
0000
;

//---------------dance-single - ----------------
#NOTES:
     dance-single:
     :
     Medium:
     7:
     0.461141,0.592895,0.321152,0.568191,0.024704,392.000000,353.000000,39.000000,69.000000,0.000000,0.000000,0.461141,0.592895,0.321152,0.568191,0.024704,392.000000,353.000000,39.000000,69.000000,0.000000,0.000000:
0000
0000
0000
0000
,
0000
0000
0000
0000
,
0000
0000
0000
0000
,
0000
0000
0000
0000
,
2000
0000
3020
0000
,
0230
0000
0302
0000
,
1003
0000
0100
0000
0010
0001
0010
0000
,
0200
0000
0000
0300
,
2020
3030
0202
0303
,
0001
0010
0001
0000
0100
0000
0010
1000
,
0010
0000
0100
0010
0100
0000
0001
0100
,
0001
0010
0100
1000
,
0022
0033
2200
3300
,
1000
0010
1000
0000
0100
0000
0010
0001
,
0010
0000
0100
0010
0100
0000
1000
0000
,
0010
0100
0001
1000
,
1001
0000
0000
0000
,
0000
0000
0000
0000
0000
0000
0000
0001
,
0010
0000
0000
0000
,
0000
0000
0000
0000
0000
0000
0000
0000
0000
0000
0000
0010
0000
0000
0010
0000
,
0100
0000
0000
0000
,
0000
0000
0000
0000
0000
0000
0000
0000
0100
0000
0000
0100
0000
0000
0100
0000
,
2000
3000
2002
3003
,
0001
1000
0110
1001
,
2100
3001
2100
3001
,
2100
3020
0230
0301
,
0102
1003
0102
1003
,
0102
0023
0230
1300
,
2100
3001
2100
3001
,
0102
1003
0102
1003
,
2100
3020
0230
0301
,
0001
1000
0001
1000
0001
0000
1001
0000
,
1000
0000
0000
0100
0000
0000
0010
0000
0100
0000
0000
0000
1000
0000
0000
0000
,
0001
0010
0100
1000
,
0001
0000
0000
0100
0000
0000
0010
0000
0100
0000
0000
0000
0001
0000
0000
0000
,
1000
0010
0100
0001
,
1000
0000
0000
0010
0000
0000
0100
0000
0010
0000
0000
0000
1000
0000
0000
0000
,
0001
0000
0000
0010
0000
0000
0100
0000
0010
0000
0000
0000
0001
0000
0000
0000
,
1000
0100
0010
0001
,
1000
0010
1000
0000
0001
0010
0001
0000
,
2000
0000
0000
3020
0000
0000
0230
0000
,
0000
0302
0000
0000
0013
0000
0100
0000
,
1100
0011
0001
1000
,
0001
0011
1000
1010
,
0001
0010
0100
1000
,
0001
0000
0100
0000
0010
0000
1000
0010
,
1000
0100
0010
0001
,
1000
1010
0001
0011
,
1000
0010
0100
0001
,
1000
0000
0100
0000
0010
0000
0001
0010
,
0001
0100
0010
1000
,
0001
0101
1010
1000
,
0100
0001
0010
1000
,
0001
0000
0010
0000
0100
0000
1000
0010
,
1000
0100
0010
0001
,
2000
0010
3020
0100
,
0230
0001
0302
0010
,
0013
0100
1000
0010
,
0100
0001
1000
1001
,
0102
0013
0102
0013
,
0102
1000
0010
1003
,
1000
0100
1000
0000
0010
0000
0110
0000
,
0100
0001
0100
0000
0010
0000
1010
0000
,
2100
3010
2100
3010
,
2100
0001
0010
3001
,
2000
3200
0320
0032
,
1003
0001
1000
0001
1000
0000
1001
0000
,
0001
0000
0100
0010
0100
0000
0001
0010
,
0001
1000
0010
0100
,
0001
0000
0100
0000
0010
1000
0010
1000
,
0200
0320
0032
2003
,
3100
0000
0010
0100
0010
0000
0001
0010
,
0001
0000
1000
0000
0100
0000
0010
0001
,
0010
0000
0001
0000
0100
0010
0100
0010
,
2000
3200
0320
0032
,
1003
0000
0100
0010
0100
0000
1000
0010
,
1000
0001
0010
0100
,
1000
0000
0100
0000
0010
0001
0010
0001
,
0200
0320
2030
3002
,
0103
0000
0010
0100
0010
0000
1000
0010
,
1000
0000
0001
0000
0100
0000
0010
1000
,
0010
0000
1000
0000
0100
0000
0010
0001
,
0020
0230
2300
3002
,
0103
0001
0100
0000
0001
0010
0001
0000
,
0010
0100
0010
0000
0100
1000
0100
0000
,
1000
0010
1000
0010
0100
0010
0100
0000
,
0001
0010
0001
0010
0100
0010
0100
0000
,
2002
0000
0000
0000
,
0000
0000
0000
0000
,
0000
0000
0000
0000
,
3003
0000
0000
0000
;

//---------------dance-single - ----------------
#NOTES:
     dance-single:
     :
     Hard:
     9:
     0.662301,0.778175,0.354090,0.263509,0.185280,563.000000,520.000000,43.000000,32.000000,0.000000,0.000000,0.662301,0.778175,0.354090,0.263509,0.185280,563.000000,520.000000,43.000000,32.000000,0.000000,0.000000:
0000
0000
0000
0000
,
0000
0000
0000
0000
,
0000
0000
0000
0000
,
0000
0000
0000
0000
,
2000
0000
3020
0000
,
0230
0000
0302
2003
,
3200
0000
0310
0001
0100
1000
0100
0001
,
0020
0000
0000
0030
,
2001
3010
1002
0103
,
2001
0000
3100
0010
0002
0000
0103
0010
,
2000
0000
3100
0010
0001
0100
1000
0100
,
0002
0000
0023
0000
0230
0000
1300
0010
,
0200
0000
0301
1000
0020
0000
0230
0000
,
0301
0010
0100
1000
0020
0000
0130
0001
,
2000
0000
3100
0010
0001
0100
1000
0100
,
0002
0010
0100
1003
,
1001
0000
0000
0000
,
0000
0000
0000
0000
0000
0000
0000
1000
,
1000
0000
0000
0000
,
0000
0000
0000
0000
0000
0000
0000
0000
0000
0000
0000
0010
0000
0000
0010
0000
,
0010
0000
0000
0000
,
0000
0000
0000
0000
0000
0000
0000
0000
0100
0000
0000
0100
0000
0000
0100
0000
,
0200
0300
2002
3003
,
0100
0010
1001
0110
,
1001
0000
0000
1000
0100
0000
0000
0000
1001
0000
0000
1000
0010
0000
0000
0000
,
1001
0000
0000
0001
0100
0000
0000
0000
1001
0000
0000
0001
0010
0000
0000
0000
,
0011
0000
0000
0001
0100
0000
0000
0000
0011
0000
0000
0001
1000
0000
0000
0000
,
1010
0000
0000
1000
0100
0000
0000
0000
1010
0000
0000
1000
0001
0000
0000
0000
,
1100
0000
0000
1000
0010
0000
0000
0000
1010
0000
0000
1000
0001
0000
0000
0000
,
0101
0000
0000
0001
0010
0000
0000
0000
0011
0000
0000
0001
1000
0000
0000
0000
,
1010
0110
0101
1001
,
1000
0100
0001
0010
1000
0000
1001
0000
,
0001
0000
0000
0100
0000
0000
1000
0000
0100
0000
0000
0001
0000
0000
0010
0000
,
0100
0000
1000
0000
0000
0010
0000
0000
0001
0000
0000
0010
0000
0000
1000
0000
,
0001
0000
0000
0010
0000
0000
1000
0000
0010
0000
0000
0001
0000
0000
0100
0000
,
0010
0000
1000
0000
0000
0100
0000
0000
0001
0000
0100
0000
1000
0000
0010
0000
,
1000
0000
0000
0100
0000
0000
0001
0000
0100
0000
0000
1000
0000
0000
0010
0000
,
0100
0000
0001
0000
0000
0010
0000
0000
1000
0000
0000
0010
0000
0000
0001
0000
,
1000
0000
0000
0010
0000
0000
0001
0000
0010
0000
0000
1000
0000
0000
0100
0000
,
0010
0001
0100
0010
1000
0100
0010
0001
,
1000
1000
0000
0010
0010
0000
0100
0100
,
0000
0001
0010
0100
1000
0001
0100
0010
,
1010
0101
0011
1100
,
1000
0100
1000
0100
0001
0100
0001
0100
,
1000
0010
0001
0010
0100
0001
0010
1000
,
0010
0100
1000
0010
0001
0010
1000
0001
,
0010
1000
0010
0001
0100
0010
1000
0000
,
0001
0100
0001
0100
1000
0100
1000
0100
,
0001
0010
1000
0010
0100
1000
0010
0001
,
0010
0100
0001
0010
1000
0010
0001
1000
,
0010
0001
0010
1000
0100
0010
0001
0000
,
1000
0010
1000
0010
0001
0010
0001
0010
,
1000
0100
0001
1000
0010
0001
0100
0010
,
1000
0100
0010
1000
0001
0100
0010
0001
,
1000
0010
0001
0010
1000
0100
0010
0000
,
0001
0010
0001
0010
1000
0010
1000
0010
,
0001
0100
1000
0010
1000
0100
0001
0010
,
0100
1000
0010
0001
0010
1000
0100
0010
,
0001
0100
0010
1000
0100
0010
0001
0000
,
1001
1100
0110
0011
,
0001
0100
1000
0100
0002
0000
1003
0000
,
1000
0010
0100
0000
0101
0000
1001
0000
,
1000
0100
0001
0100
1000
0000
0110
0000
,
1001
0101
0110
1010
,
1000
0100
0001
0100
2000
0000
3001
0000
,
0002
0023
0230
2300
,
3001
0010
0100
1000
0001
0000
1001
0000
,
1000
0100
0001
1000
0001
0100
1000
0001
,
1000
0010
0001
0100
0001
0010
1000
0100
,
0010
0000
0001
0000
0100
0000
0010
0000
1000
0000
0100
0010
0100
0000
1000
0000
,
0010
0100
0000
0000
0100
0001
0000
0000
0001
0010
0000
0000
0010
0001
0000
0000
,
0001
0100
1000
0001
1000
0100
0001
1000
,
0001
0010
1000
0100
1000
0010
0001
0100
,
0010
0000
1000
0000
0100
0000
0010
0000
0001
0000
0100
0010
0100
0000
0001
0000
,
0010
0100
1000
0010
0110
0000
1001
0000
,
1000
0010
0100
1000
0001
0010
0100
0001
,
1000
0100
0001
0010
0001
0100
1000
0010
,
0100
0000
0001
0000
1000
0000
0100
0000
0010
0000
0001
0100
0001
0000
0010
0000
,
0100
1000
0000
0000
1000
0010
0000
0000
0010
0100
0000
0000
0100
0001
0000
0000
,
0001
0010
0100
0001
1000
0010
0100
1000
,
0001
0100
1000
0010
1000
0100
0001
0010
,
0100
0000
1000
0000
0001
0000
0100
0000
0010
0000
1000
0000
0010
0000
0100
0001
,
0100
0010
1000
0100
0010
0001
0100
0010
,
1000
0100
1000
0000
0010
0000
0100
0000
0001
0000
0010
0000
0100
0000
1000
0000
,
0001
0100
0001
0000
0010
0000
0100
0000
1000
0000
0010
0000
0100
0000
0001
0000
,
1000
0010
1000
0000
0100
0000
0010
0000
0001
0100
0001
0000
0010
0000
0100
0000
,
1000
0000
0010
0000
0001
0000
0010
0000
1000
0001
1000
0001
1000
0000
0000
0000
,
2002
0000
0000
0000
,
0000
0000
0000
0000
,
0000
0000
0000
0000
,
3003
0000
0000
0000
;

//---------------dance-single - ----------------
#NOTES:
     dance-single:
     :
     Challenge:
     11:
     0.834053,1.075369,0.296448,0.247040,0.551722,709.000000,673.000000,36.000000,30.000000,0.000000,0.000000,0.834053,1.075369,0.296448,0.247040,0.551722,709.000000,673.000000,36.000000,30.000000,0.000000,0.000000:
// measure 0
0000
0000
0000
0000
,  // measure 1
0000
0000
0000
0000
,  // measure 2
0000
0000
0000
0000
,  // measure 3
0000
0000
0000
0000
,  // measure 4
2000
0000
3020
0000
,  // measure 5
0230
0000
0000
0001
0302
0000
1003
0100
,  // measure 6
0020
0000
0000
0000
0031
0000
0100
0000
0010
0000
1000
0100
1000
0000
0010
0000
,  // measure 7
0200
0000
0000
0300
,  // measure 8
2001
0000
3100
0010
0002
0000
0103
1000
,  // measure 9
0010
1000
0100
0001
0200
0000
0310
1000
,  // measure 10
0200
0000
0301
0100
1000
0010
0100
0001
,  // measure 11
1000
0000
0000
1000
0010
0000
0000
0010
0100
0000
0000
0100
0001
0000
0010
0000
,  // measure 12
0002
0000
0103
0010
2000
0000
3100
0010
,  // measure 13
0001
0100
0010
1000
0200
0000
0310
0001
,  // measure 14
0200
0000
1300
0100
0001
0010
0100
1000
,  // measure 15
0001
0100
0010
1000
0100
0010
0001
1000
,  // measure 16
2002
3003
0000
0000
,  // measure 17
0000
0000
0000
0000
0000
0000
0000
0011
,  // measure 18
0022
0033
0000
0000
,  // measure 19
0000
0000
0000
0000
0000
0000
0000
0000
0000
0000
0000
0110
0000
0000
1100
0000
,  // measure 20
2200
3300
0000
0000
,  // measure 21
0000
0000
0000
0000
0000
0000
0000
0000
1010
0000
0000
1010
0000
0000
0110
0000
,  // measure 22
0220
0330
2002
3003
,  // measure 23
0011
1100
1001
0110
,  // measure 24
1001
0000
0000
1000
0100
0000
0010
0000
0100
0000
0000
1000
0010
0000
0100
0000
,  // measure 25
0001
0000
0000
0001
0010
0000
0000
0010
0100
0000
0000
0100
1000
0000
0000
1000
,  // measure 26
0001
0000
0000
0001
0100
0000
0010
0000
0100
0000
0000
0001
0010
0000
0100
0000
,  // measure 27
1000
0000
0000
1000
0010
0000
0000
0010
0100
0000
0000
0100
0001
0000
0010
0000
,  // measure 28
0100
1000
0100
0010
0100
0001
0100
1000
,  // measure 29
0010
0100
0010
0001
0010
0100
0010
1000
,  // measure 30
0100
0100
0010
0010
0001
0001
1000
1000
,  // measure 31
0010
0000
0100
0001
0100
0000
0001
0010
0001
0000
0000
0000
1001
0000
0000
0000
,  // measure 32
1000
0000
0100
1000
0000
0100
0010
0000
0001
0000
0100
0010
0000
0100
0001
0000
,  // measure 33
0010
0000
0100
0000
1000
0010
0000
1000
0100
0000
0010
0001
0000
0000
0100
0000
,  // measure 34
0001
0000
0100
0001
0000
0100
0010
0000
1000
0000
0100
0010
0000
0100
1000
0000
,  // measure 35
0010
0000
0100
0000
0001
0010
0000
0001
0100
0000
0010
1000
0010
0000
0100
0000
,  // measure 36
0001
0000
0010
0100
0000
0010
0001
0000
1000
0000
0100
0010
0000
0100
1000
0000
,  // measure 37
0001
0000
0100
0010
0000
0100
0001
0000
1000
0000
0010
0100
0000
0010
1000
0000
,  // measure 38
0001
0010
0000
0010
0100
0000
0100
1000
0000
1000
0010
0000
0100
0000
0001
0000
,  // measure 39
1000
0100
0001
0010
0001
0100
1000
0010
,  // measure 40
0100
0001
0100
0000
0000
0000
0001
0010
0001
0000
0000
0000
0010
0100
0010
0000
,  // measure 41
0000
0000
0100
0000
0100
0000
1000
0000
1000
0010
1000
0010
0100
0000
0001
0000
,  // measure 42
0011
1010
1100
0101
,  // measure 43
0001
0010
0001
0000
0100
0000
0010
1000
0010
0000
0100
0000
0001
0000
0010
0000
,  // measure 44
0100
1000
0001
0100
1000
0001
1000
0100
,  // measure 45
0001
0100
0001
0000
0010
0000
0100
1000
0100
0000
0010
0000
0001
0000
0100
0000
,  // measure 46
0010
1000
0010
0000
0100
0000
0001
0010
0001
0000
0100
0000
0010
0000
1000
0000
,  // measure 47
0100
0010
0100
0000
1000
0000
0010
0100
0010
0000
1000
0000
0001
0000
0010
0000
,  // measure 48
0100
1000
0010
0001
0010
1000
0100
0010
,  // measure 49
0100
1000
0100
0000
1000
0000
0001
0100
0001
0000
0100
0000
0010
0000
1000
0000
,  // measure 50
0010
0100
0010
0000
1000
0000
0001
0010
0001
0000
0010
0000
0100
0000
1000
0000
,  // measure 51
0001
0010
0001
0000
0010
0000
0100
0000
1000
0010
1000
0000
0010
0000
0100
0000
,  // measure 52
0001
1000
0001
0000
1000
0000
0100
0000
0010
0000
0001
0000
0100
0000
0010
0000
,  // measure 53
1000
0010
1000
0000
0010
0000
0100
0000
0001
0010
0001
0000
0010
0000
0100
0000
,  // measure 54
1000
0001
1000
0000
0001
0000
0100
0000
0010
1000
0010
0000
0100
0000
0001
0000
,  // measure 55
1000
0100
1000
0000
0010
0000
0100
0001
0100
0000
0010
0000
1000
0100
1000
0000
,  // measure 56
0001
0100
0001
0000
0010
0000
0100
1000
0100
0000
0010
0000
0001
0100
0001
0000
,  // measure 57
1000
0100
1000
0000
0100
0010
0100
0000
0010
0000
0001
0000
1000
0000
0100
0000
,  // measure 58
0010
0001
0010
0000
0001
0100
0001
0000
0100
0010
0100
0000
0010
1000
0010
0000
,  // measure 59
1000
0100
0110
0010
0001
0100
0110
0010
,  // measure 60
1000
0100
0001
0100
1000
0010
0210
0000
,  // measure 61
0301
0010
0011
0000
0110
0000
1100
0000
,  // measure 62
1000
0000
0010
0100
0010
0000
1000
0000
1100
0000
0000
0000
0120
0000
0000
0000
,  // measure 63
0031
0100
0110
0010
1000
0100
0110
0010
,  // measure 64
0001
0100
1000
0100
0001
0010
0210
0000
,  // measure 65
1300
0100
0010
1000
0001
0100
1000
0010
,  // measure 66
0001
0100
0001
0010
1000
0000
1001
0000
,  // measure 67
0001
0010
0001
0000
0100
0000
0010
0000
1000
0100
1000
0000
0010
0000
0100
0000
,  // measure 68
0001
0000
0010
0000
1000
0000
0010
0000
0001
0000
0100
0000
0010
1000
0010
0000
,  // measure 69
0100
0001
0100
0000
0010
0000
1000
0000
0100
0010
0100
0010
0001
0000
1000
0000
,  // measure 70
0010
0100
0000
0000
0001
0010
0000
0000
0100
1000
0000
0000
0010
0100
0010
0000
,  // measure 71
1000
0010
1000
0000
0100
0000
0010
0000
0001
0100
0001
0000
0010
0000
0100
0000
,  // measure 72
1000
0000
0010
0000
0100
0000
0001
0000
1000
0000
0100
0000
0010
0001
0010
0000
,  // measure 73
0100
1000
0100
0000
0010
0000
0001
0000
0100
0000
0010
1000
0010
0000
0100
0000
,  // measure 74
0001
0000
0010
0100
0010
0000
0001
0000
1001
0000
0000
0000
1100
0000
0000
0000
,  // measure 75
1000
0010
1000
0000
0010
0100
0010
0000
0100
0001
0100
0000
0001
0000
0010
0000
,  // measure 76
0100
0000
1000
0000
0001
0010
0001
0000
0100
0000
0010
0000
1000
0100
1000
0000
,  // measure 77
0001
0100
0001
0000
1000
0000
0100
0000
0010
0001
0010
0001
0100
0000
0010
0000
,  // measure 78
1000
0100
1000
0000
0100
0010
0100
0000
0010
0001
0010
0000
0001
0000
0100
0000
,  // measure 79
0001
0010
0001
0000
0010
0100
0010
0000
0100
1000
0100
0000
1000
0000
0010
0000
,  // measure 80
0100
0000
0001
0000
1000
0010
1000
0000
0100
0000
0010
0000
0001
0100
0001
0000
,  // measure 81
1000
0000
0100
0000
0001
0000
0010
0000
0001
0000
0100
0000
1000
0000
0010
0100
,  // measure 82
0010
1000
0100
0001
1000
0010
0001
0100
,  // measure 83
0010
1000
0010
0000
1000
0100
1000
0000
0100
0010
0100
0000
0010
0000
0001
0000
,  // measure 84
1000
0010
1000
0000
0010
0100
0010
0000
0100
0001
0100
0000
0001
0000
1000
0000
,  // measure 85
0001
0100
0001
0000
1000
0100
1000
0000
0001
0010
0001
0000
1000
0010
1000
0000
,  // measure 86
0001
0010
0001
0010
0100
1000
0100
1000
0001
0100
0001
0100
0010
1000
0010
2000
,  // measure 87
0002
0000
0000
0000
,  // measure 88
0000
0000
0000
0000
,  // measure 89
0000
0000
0000
0000
0000
0000
0000
0000
0000
0000
0000
3000
0000
0200
0000
0000
,  // measure 90
0000
0303
0000
0000
0000
0000
0000
0000
0000
0000
0000
0000
0000
0000
0000
0000
;
