#TITLE:Hello Happiness;
#SUBTITLE:('Jazzy Electro C&N Style' Remix);
#ARTIST:Camellia feat. Nanahira;
#TITLETRANSLIT:;
#SUBTITLETRANSLIT:;
#ARTISTTRANSLIT:;
#GENRE:;
#CREDIT:;
#BANNER:[SloweRemix] - Hello Happiness ('Jazzy Electro C&N Style' Remix).png;
#BACKGROUND:[SloweRemix] - Hello Happiness ('Jazzy Electro C&N Style' Remix)-bg.png;
#LYRICSPATH:;
#CDTITLE:cdtitle.png;
#MUSIC:[SloweRemix] - Hello Happiness ('Jazzy Electro C&N Style' Remix).mp3;
#OFFSET:0.000000;
#SAMPLESTART:29.767475;
#SAMPLELENGTH:15.000000;
#SELECTABLE:YES;
#BPMS:0.000000=145.000000
;
#STOPS:
;
#BGCHANGES:;
#KEYSOUNDS:;
#ATTACKS:;

//---------------dance-single - ----------------
#NOTES:
     dance-single:
     :
     Hard:
     8:
     0.531226,0.515455,0.215811,0.423321,0.161858,371.000000,26.000000,51.000000,0.000000,0.000000,0.000000,0.531226,0.515455,0.215811,0.423321,0.161858,371.000000,26.000000,51.000000,0.000000,0.000000,0.000000:
0000
0000
0000
0000
,
0000
0000
0000
0000
,
0000
0000
0000
0000
,
0000
0000
0000
0000
,
0000
0000
0000
0000
,
0000
0000
0001
1000
0001
0200
0000
0000
,
0302
0000
0000
2003
0000
0000
3020
0000
0000
0000
0000
0000
0100
0000
0000
0000
,
1000
0001
1000
0100
,
1030
0000
0010
0000
1000
0000
0100
0000
0010
0001
0010
0001
0200
0000
0000
0000
,
0020
0000
0000
0000
0330
0110
1001
0000
,
1000
0000
0100
0000
0010
0000
0000
0010
0001
0000
0100
0000
0001
0000
1000
0000
,
0010
0000
0100
0000
0001
0000
0000
0001
0010
0000
0100
0000
1000
0000
0000
0000
,
0001
0100
1000
0100
0001
0010
1000
0100
,
0001
0000
0000
0000
0100
0000
0000
0010
0000
0000
1000
0000
1000
0000
0000
0000
,
0001
0000
1000
0000
0010
0000
0000
0010
0100
0000
0001
0000
0010
0000
0001
0000
,
0100
0000
0010
0000
1000
0000
0000
1000
0001
0000
0100
0000
0010
0000
0000
2000
,
0000
0100
3001
1000
0100
1000
0001
0100
,
0010
1000
0001
1000
0100
0000
0011
0000
,
1001
0000
1000
0001
1000
0200
0000
0000
,
1300
0000
0000
1100
0000
0000
0022
0000
0000
0000
0000
0000
0000
0000
0000
0000
,
0033
0000
0010
0200
0000
2300
0000
3002
,
0000
0203
0000
0320
0000
0130
0001
0000
,
1001
0000
0001
0010
0001
0200
0000
0000
,
0301
0000
0000
0101
0000
0000
2020
0000
0000
0000
0000
0000
0000
0000
0000
0000
,
3030
0000
1100
0000
0202
0000
0303
0002
,
0000
0003
0100
0000
0020
0000
0000
0000
1000
0000
1030
0000
0002
0000
0000
0000
,
0103
0000
1001
0000
1100
0000
0100
0001
,
0100
1000
0100
0010
0001
0010
0200
0000
,
1300
0000
1001
0000
0011
0000
0010
0001
,
0010
0100
0010
1000
0010
0001
0100
0010
,
1000
0000
0110
0000
0101
0000
0100
0001
,
1000
0100
0010
0001
1000
0010
0200
0000
,
0301
0100
0010
0100
0010
1000
0001
0020
,
0000
0000
0031
1000
0001
0100
0001
0000
,
0020
0000
0000
0001
0000
0000
0130
0000
,
2000
0000
0000
0001
0000
0000
3010
0000
,
1000
0200
0000
0001
0000
0000
1300
0000
,
0010
0000
0000
0001
0000
0000
0100
0000
0000
0001
0000
0000
1000
0000
0000
0000
,
0020
0000
0000
1000
0000
0000
0130
0000
,
0001
0200
0000
1000
0000
0000
0301
0000
,
1000
0001
0000
0100
0000
0001
0000
0010
,
0000
0000
0010
0000
0100
0000
0000
0000
0100
0000
0000
0010
0001
0000
1000
0100
,
1000
0000
0001
0000
1000
0000
0100
0000
1000
0000
0000
1000
0010
0000
0100
0001
,
0000
0000
0001
0000
0100
0000
0001
0000
0010
0000
0000
0010
0100
0000
0000
0000
,
0100
0000
1000
0000
0001
0000
0010
0000
0000
0000
0010
0000
0001
0100
0000
0000
,
0010
0000
0010
0000
1000
0000
0000
1000
0100
0000
0010
0000
0001
0000
0100
0000
,
0002
0023
0230
2300
,
3002
0203
0320
2030
,
3001
0100
0000
0010
0000
1010
0000
1001
,
0000
0100
0010
1000
0001
0010
0100
2000
,
0002
0000
0000
3003
,
0001
0000
0100
0000
1000
0000
0000
1000
0100
0000
0110
0000
1001
0000
0000
0000
,
0001
0000
1000
0100
0000
0100
1000
0000
0100
0000
1000
0000
0001
0000
0000
0000
,
0001
0000
1000
0010
0000
0010
1000
0000
0001
0000
0100
0000
0001
0000
1000
0000
,
0010
0000
0100
0001
0000
0001
0010
0000
0001
0000
1000
0000
0100
0000
0000
0000
,
1000
0100
0001
0100
1000
0010
0100
0001
,
0010
0000
0001
1000
0000
1000
0001
0000
0100
0000
0001
0000
0010
0000
0000
0000
,
0100
0000
1000
0010
0000
0010
1000
0000
0001
0000
1000
0100
0000
0000
0001
0100
,
0010
0100
0010
0000
0001
0020
0000
0130
,
1000
0001
0100
1000
0100
0010
0200
0000
,
0310
0000
0000
0010
1000
0000
0001
0000
0100
0000
0001
0000
2000
0000
0000
0000
,
3001
0000
0000
0001
0100
0000
0010
0000
1000
0000
0001
0000
0010
0000
0100
0000
,
1000
0000
0000
1000
0100
0000
1000
0000
0010
0000
0001
0000
0010
0000
0000
0000
,
1010
0000
0000
1001
0000
0000
0101
0000
0000
0000
0001
0000
0200
0000
0000
0000
,
0310
1000
0001
0010
0100
1000
0001
0100
,
0001
0000
0020
0000
0000
0000
0230
0000
0000
0000
1300
0000
0000
0001
0000
1001
,
0000
0000
2000
0200
0000
0000
3300
0000
,
0010
0001
0010
0001
1000
0010
1000
0010
,
0220
0000
0000
0000
,
0330
0000
0000
0000
;

//---------------dance-single - ----------------
#NOTES:
     dance-single:
     :
     Medium:
     6:
     0.413835,0.400910,0.132807,0.398420,0.029051,285.000000,16.000000,48.000000,0.000000,0.000000,0.000000,0.413835,0.400910,0.132807,0.398420,0.029051,285.000000,16.000000,48.000000,0.000000,0.000000,0.000000:
// measure 0
0000
0000
0000
0000
,  // measure 1
0000
0000
0000
0000
,  // measure 2
0000
0000
0000
0000
,  // measure 3
0000
0000
0000
0000
,  // measure 4
0000
0000
0000
0000
,  // measure 5
0000
0000
0001
1000
0001
0200
0000
0000
,  // measure 6
0302
0000
0000
2003
0000
0000
3020
0000
0000
0000
0000
0000
1000
0000
0000
0000
,  // measure 7
1000
1000
1000
1030
,  // measure 8
1000
0001
1000
0000
1000
0100
1000
0001
,  // measure 9
0020
0000
0030
1001
,  // measure 10
0001
0100
0001
0000
0001
1000
0100
1000
,  // measure 11
0010
0101
0010
1100
,  // measure 12
0010
0100
1000
0000
0100
1000
0001
0100
,  // measure 13
0001
0101
1001
1010
,  // measure 14
0010
0100
0001
0000
0010
0001
1000
0100
,  // measure 15
0010
0000
0000
0000
1001
0000
0000
0000
0100
0000
0000
0000
1001
0000
0000
0001
,  // measure 16
0000
0100
1000
0000
1000
0100
0000
0001
,  // measure 17
0010
0000
0010
0100
2000
0000
3001
0000
,  // measure 18
1000
0000
0001
0010
0001
0200
0000
0000
,  // measure 19
0310
0000
0000
0100
0000
0000
0002
0000
0000
0000
0000
0000
0103
0000
0000
0000
,  // measure 20
1000
0000
1000
0020
0000
2030
0000
3200
,  // measure 21
0000
0320
0000
0032
0000
0013
0100
0000
,  // measure 22
0100
0000
0010
0100
1000
0200
0000
0000
,  // measure 23
1300
0000
0000
0001
0000
0000
0200
0000
0000
0000
0000
0000
0310
0000
0000
0000
,  // measure 24
0100
0000
0100
0000
0020
0000
0000
1030
,  // measure 25
0001
1000
0200
0000
0000
0000
0300
0000
,  // measure 26
1000
0000
0001
0000
0100
1000
0001
0000
,  // measure 27
0100
0000
0001
0000
0010
0100
1000
0000
,  // measure 28
0001
0000
0010
0000
0100
0001
0010
0000
,  // measure 29
0001
0000
0100
0000
0010
1000
0001
0100
,  // measure 30
0010
0000
0100
0000
0001
1000
0010
0000
,  // measure 31
1000
0000
0100
0000
1000
0001
0010
0000
,  // measure 32
0010
0001
1000
0001
0100
0010
1000
0020
,  // measure 33
0000
0100
0130
0000
0100
0000
0100
0000
,  // measure 34
2000
0000
0000
3010
0000
0000
1000
0000
,  // measure 35
0002
0000
0000
0013
0000
0000
0001
0000
,  // measure 36
0100
0200
0000
0310
0000
0000
1000
0000
,  // measure 37
0001
0000
0000
0001
0000
0000
0100
0000
0000
0000
0000
0000
0001
0000
0000
0000
,  // measure 38
0020
0000
0000
0130
0000
0000
0010
0000
,  // measure 39
0001
2000
0000
3100
0000
0000
1000
0000
,  // measure 40
0001
0100
0000
1000
0000
0100
0000
0002
,  // measure 41
0000
0000
0103
0001
0100
0000
0100
0000
,  // measure 42
0001
0000
0100
0020
0000
1030
0100
0000
,  // measure 43
1000
0000
0001
0020
0000
0130
1000
0000
,  // measure 44
0001
0000
1000
0200
0000
0310
0001
0000
,  // measure 45
0100
0000
0000
0100
0000
0000
0010
0000
0000
0000
0000
0000
1000
0000
0000
0000
,  // measure 46
0001
0000
0100
0020
0000
0130
0001
0000
,  // measure 47
0100
0000
0010
2000
0000
3001
0010
0000
,  // measure 48
0100
0010
0000
0001
0000
1000
0000
0020
,  // measure 49
0000
0100
0100
0130
,  // measure 50
0200
0000
0000
0000
,  // measure 51
0020
0300
0130
1001
,  // measure 52
0001
0100
0010
0000
0001
1000
0010
0000
,  // measure 53
0001
0101
1000
1100
,  // measure 54
1000
0001
0010
0000
0100
0001
0010
0000
,  // measure 55
0002
1003
1010
1100
,  // measure 56
0100
1000
0010
0000
0100
0001
0010
0000
,  // measure 57
0002
0023
0230
2300
,  // measure 58
3010
0100
0010
0000
0010
0100
0000
0100
,  // measure 59
0002
0100
1000
0103
,  // measure 60
1000
0000
1000
0000
0100
1000
0100
0000
,  // measure 61
0010
0000
0010
0000
0001
0100
0001
0000
,  // measure 62
0100
1000
0100
0001
,  // measure 63
1000
0000
0000
1000
0000
0000
0010
0000
0000
0000
0010
0000
0100
0000
0000
0000
,  // measure 64
0001
0000
0001
0000
0010
0100
1000
0000
,  // measure 65
0100
0020
0000
0002
0000
0000
0000
0000
,  // measure 66
0033
0000
2000
0200
0000
0000
3300
0000
,  // measure 67
2020
3030
0202
0303
,  // measure 68
2002
0000
0000
0000
,  // measure 69
3003
0000
0000
0000
;

//---------------dance-single - ----------------
#NOTES:
     dance-single:
     :
     Easy:
     3:
     0.253755,0.343637,0.033202,0.224111,0.004150,183.000000,4.000000,27.000000,0.000000,0.000000,0.000000,0.253755,0.343637,0.033202,0.224111,0.004150,183.000000,4.000000,27.000000,0.000000,0.000000,0.000000:
0000
0000
0000
0000
,
0000
0000
0000
0000
,
0000
0000
0000
0000
,
0000
0000
0000
0000
,
0000
0000
0000
0000
,
0000
0001
2000
0000
,
3100
0000
0000
0020
0000
0000
0000
0000
,
0031
0010
0001
1000
,
0100
1000
0001
0100
,
0020
0000
0030
1001
,
1000
0100
0000
1000
,
0001
0010
0000
0001
,
1000
0010
0100
0100
,
0001
0010
0200
0300
,
0001
0010
0000
0100
,
1000
0000
0000
0000
0010
0000
0000
0000
0000
0000
0000
0000
0100
0000
0000
0002
,
0000
0000
0000
0003
,
1000
1000
1000
0100
,
1000
0001
0100
0000
,
0001
0001
0010
0000
,
0001
0100
1000
0100
,
0001
0001
1000
0001
,
0010
0100
1000
0000
,
0100
0100
0010
0000
,
0100
1000
0020
0030
,
0100
0002
0000
0000
,
0003
1000
0100
0000
,
0010
0010
0001
0001
,
1000
0001
0100
0000
,
0100
0100
0010
0010
,
1000
0010
0100
0000
,
0001
0001
1000
1000
,
0100
0010
0001
0010
,
0100
1000
1000
1000
,
0020
0000
0000
0030
0000
0000
1000
0000
,
0020
0000
0000
0030
0000
0000
0100
0000
,
0020
0000
0000
0030
0000
0000
1000
0000
,
0001
0000
0000
0001
0000
0000
1000
0000
,
0200
0000
0000
0300
0000
0000
0010
0000
,
0200
0000
0000
0300
0000
0000
1000
0000
,
0100
0000
0000
0100
0000
0000
0000
0010
,
0000
0000
0001
0001
,
2000
0000
0000
3000
0000
0000
1000
0000
,
0002
0000
0000
0003
0000
0000
0001
0000
,
0020
0000
0000
0030
0000
0000
0010
0000
,
0100
0000
0000
0100
0000
0000
1000
0000
,
0020
0000
0000
0030
0000
0000
0100
0000
,
0002
0000
0000
0003
0000
0000
1000
0000
,
0100
0000
0000
0100
0000
0000
0000
1000
,
0000
0000
0001
1000
,
2002
0000
0000
3003
,
0220
0330
2002
3003
,
0001
0100
0010
0100
,
0001
1000
0100
1000
,
0001
0100
0010
0100
,
0010
1000
0100
0000
,
1000
0001
0010
0001
,
1000
0100
1000
0010
,
1000
1000
0000
0001
,
0100
0001
1000
1000
,
0010
1000
0000
1000
,
0010
0100
0000
0100
,
0001
0010
0000
0010
,
0100
0100
0100
1000
,
0010
0100
0000
0001
,
0100
0000
0000
0010
0000
0000
0100
0000
,
0020
0000
0000
0030
,
2000
0000
3002
0000
,
0203
0000
0000
0000
,
0300
0000
0000
0000
;

//---------------dance-single - ----------------
#NOTES:
     dance-single:
     :
     Beginner:
     1:
     0.122135,0.112886,0.008300,0.000000,0.000000,102.000000,1.000000,0.000000,0.000000,0.000000,0.000000,0.122135,0.112886,0.008300,0.000000,0.000000,102.000000,1.000000,0.000000,0.000000,0.000000,0.000000:
0000
0000
0000
0000
,
0000
0000
0000
0000
,
0000
0000
0000
0000
,
0000
0000
0000
0000
,
0000
0000
0000
0000
,
1000
0000
0000
0000
,
0001
0000
0000
0000
,
0000
0100
0000
0100
,
0000
0100
0000
0100
,
0100
0000
0000
0000
,
0000
0001
0000
0001
,
0000
1000
0000
1000
,
0000
0001
0000
0001
,
0000
0100
0100
0000
,
0000
1000
0000
1000
,
0000
0001
0000
0001
,
0010
0000
0000
0000
,
0010
0010
0010
0000
,
0000
0001
0000
0100
,
0000
0001
0000
0100
,
0000
1000
0000
0100
,
0000
1000
0000
0100
,
0100
0000
0000
0000
,
0010
0000
0000
0000
,
0000
0010
0001
0000
,
0100
0000
0000
0000
,
0000
0001
0000
0100
,
0000
0001
0000
0010
,
0000
1000
0000
0010
,
0000
1000
0000
0100
,
0000
0001
0000
0100
,
0000
0001
0000
0010
,
0000
1000
0000
0010
,
0010
0000
0000
0000
,
1000
0000
0000
0000
,
1000
0000
0000
0000
,
1000
0000
0000
0000
,
0100
0000
0100
0000
,
0001
0000
0000
0000
,
0001
0000
0000
0000
,
0010
0000
0010
0000
,
0100
0000
0000
0000
,
0001
0000
0000
0000
,
0001
0000
0000
0000
,
0001
0000
0000
0000
,
0100
0000
0100
0000
,
1000
0000
0000
0000
,
1000
0000
0000
0000
,
0010
0000
0010
0000
,
0100
0000
0000
0000
,
1001
0000
0000
0000
,
0000
0000
0000
0000
,
0000
0001
0000
0001
,
0000
0010
0000
0010
,
0000
1000
0000
1000
,
0000
0010
0000
0010
,
0000
0001
0000
0001
,
0000
0010
0000
0010
,
0010
0000
0000
0000
,
0010
0000
0000
0000
,
1000
0000
0000
0001
,
0001
0000
0000
1000
,
1000
0000
0000
0001
,
0001
0000
0001
0000
,
0100
0000
0000
0100
,
0100
0000
0010
0000
,
0100
0000
0000
0000
,
1000
0000
0001
0000
,
1000
0000
0000
0000
;
