#TITLE:Grenade;
#SUBTITLE:(Passion Pit Remix);
#ARTIST:Bruno Mars;
#TITLETRANSLIT:;
#SUBTITLETRANSLIT:;
#ARTISTTRANSLIT:;
#GENRE:Pop;
#CREDIT:TiKAL;
#MUSIC:[SloweRemix] - Grenade (Passion Pit Remix).ogg;
#BANNER:[SloweRemix] - Grenade (Passion Pit Remix).png;
#BACKGROUND:[SloweRemix] - Grenade (Passion Pit Remix)-bg.png;
#CDTITLE:;
#SAMPLESTART:52.327;
#SAMPLELENGTH:17.615;
#SELECTABLE:YES;
#OFFSET:-0.032;
#BPMS:0.000=108.996;
#STOPS:;
#DISPLAYBPM:109.000;
#BGCHANGES:;
#FGCHANGES:;

//--------------- dance-single - TiKAL ----------------
#NOTES:
     dance-single:
     TiKAL:
     Beginner:
     1:
     0,0,0,0,0:
0000
0000
0000
0000
,
0000
0000
0000
0000
,
0000
0000
0000
0000
,
0000
0000
0000
0000
,
0001
0000
0000
0000
,
0000
0000
0000
0000
,
1000
0000
0000
0000
,
0000
0000
0000
0000
,
0001
0000
0000
0000
,
0001
0000
0000
0000
,
0010
0000
0000
0000
,
0010
0000
0000
0000
,
0100
0000
0000
0000
,
0100
0000
0000
0000
,
1000
0000
0000
0000
,
1000
0000
0000
0000
,
0001
0000
0000
0000
,
0100
0000
0000
0000
,
0100
0000
0000
0000
,
0000
0000
0000
0000
,
0001
0000
0000
0000
,
1000
0000
0000
0000
,
1000
0000
0000
0000
,
0001
0000
0000
0000
,
1001
0000
0000
0000
,
0001
0000
0000
0000
,
0001
0000
0000
0000
,
0001
0000
0000
0000
,
1001
0000
0000
0000
,
1000
0000
0000
0000
,
1000
0000
0000
0000
,
1000
0000
0000
0000
,
0010
0000
0000
0000
,
0010
0000
0000
0000
,
0100
0000
0000
0000
,
0100
0000
0000
0000
,
0001
0000
0000
0000
,
0001
0000
0000
0000
,
1000
0000
0000
0000
,
0001
0000
0000
1001
,
0000
0000
0000
0000
,
0000
0000
0000
0000
,
1000
0000
0000
0000
,
1000
0000
0000
0000
;

//--------------- dance-single - TiKAL ----------------
#NOTES:
     dance-single:
     TiKAL:
     Easy:
     3:
     0,0,0,0,0:
0000
0000
0000
0000
,
0000
0000
0000
0000
,
0000
0000
0000
0000
,
0000
0000
0000
0000
,
1001
0000
0001
0000
,
0010
0000
0100
0000
,
1000
0000
0100
0000
,
0010
0000
0001
0000
,
1000
0000
1000
0000
,
2000
0000
0000
3000
,
0001
0000
0000
0000
0001
0000
0002
0003
,
0002
0000
0000
0003
,
0100
0000
0100
0000
,
0200
0000
0000
0300
,
0010
0000
0010
0000
,
0000
0010
0010
0000
,
1000
0000
0001
0000
,
0100
0000
0010
0000
,
0100
0000
0010
0000
,
2000
0000
0000
3000
,
0001
0000
1000
0000
,
0100
0000
0010
0000
,
0100
0000
0010
0000
,
0002
0000
0000
1003
,
1001
0000
1000
0000
,
0001
0000
0100
0000
,
0110
0000
0010
0000
,
1000
0000
0001
0000
,
1001
0000
1000
0000
,
0001
0000
0010
0000
,
0110
0000
0100
0000
,
1000
0000
0001
0000
,
2000
3000
2000
3000
,
0002
0000
0000
0003
,
0200
0300
0200
0300
,
0020
0000
1000
0030
,
1000
0000
0001
0000
,
0200
0000
0000
0300
,
0001
0000
0010
0000
,
0100
0000
1000
0002
,
1003
0000
0000
0000
,
1000
0000
0000
0000
,
0001
0000
0000
0000
,
0001
0000
0000
0001
;

//--------------- dance-single - TiKAL ----------------
#NOTES:
     dance-single:
     TiKAL:
     Medium:
     5:
     0,0,0,0,0:
0000
0000
0000
0000
,
0000
0000
0000
0000
,
0000
0000
0000
0000
,
0000
0000
0000
0000
,
1001
0000
0000
0100
0000
0100
0010
0000
,
0110
0000
0000
0001
0000
0001
1000
0000
,
0001
1000
0100
0010
,
0001
0010
0100
1000
,
0002
0003
2000
3000
,
0001
0010
0100
1000
,
0001
0001
0001
0000
,
1000
1000
1000
0000
,
0020
0030
0200
0300
,
0010
1000
0001
0100
,
0010
0010
0010
0000
,
0100
0100
0100
0000
,
0001
0000
0100
0000
0001
0000
0000
1000
,
0000
0000
0100
0000
1000
0000
0000
0001
,
0000
0000
0010
0000
0001
0000
0000
2000
,
0000
0100
0000
3100
,
1000
0000
0010
0000
1000
0000
0000
0001
,
0000
0000
0010
0000
0001
0000
0000
1000
,
0000
0100
1000
0001
,
1000
0100
0010
0001
,
1001
0000
0000
1000
0000
1000
0001
0000
,
1000
0010
0100
0001
,
0110
0000
0000
0100
0000
0100
0010
0000
,
1000
0100
0010
0001
,
1001
0000
0000
0001
0000
0001
1000
0000
,
0001
0100
0010
1000
,
0110
0000
0000
0010
0000
0010
0100
0000
,
0001
0010
0100
1000
,
1001
0001
0001
0000
,
0200
0000
0010
0310
,
1000
0100
0010
0001
,
2000
0000
0001
3001
,
0100
0010
1000
0001
,
0020
0000
0100
0130
,
0110
0000
0000
0100
0000
0100
1000
0000
,
0110
0000
0000
0010
0000
0010
0002
0000
,
0003
1000
0000
1000
,
0000
0001
0000
0001
,
0000
0100
0000
0100
,
0000
0010
0000
0010
;

//--------------- dance-single - TiKAL ----------------
#NOTES:
     dance-single:
     TiKAL:
     Hard:
     6:
     0.324005,0.357573,0.071515,0.59255,0,222,215,7,58,0,0,0.324005,0.357573,0.071515,0.59255,0,222,215,7,58,0,0:
0000
0000
0000
0000
,
0000
0000
0000
0000
,
0000
0000
0000
0000
,
0000
0000
0000
0000
,
1000
0001
0001
0020
0000
0230
0000
2300
,
0000
3020
0000
0230
0000
0302
0000
0013
,
0010
0200
0000
2300
0000
3200
0000
0320
,
0000
0032
0000
0203
0000
0320
0000
1030
,
0001
0010
1000
0000
0001
0100
1000
0000
,
0001
0100
0010
1000
0001
0000
2000
0000
,
3002
0000
0203
0000
0310
0100
0001
0000
,
0010
0100
1000
0001
0100
0000
0110
0000
,
1000
0100
0001
0000
1000
0010
0001
0000
,
1000
0010
0200
0000
0302
0000
1003
0001
,
2000
0000
3020
0000
0130
0001
0010
0000
,
0000
0001
0100
0001
1000
0001
1001
0000
,
1000
0001
0100
0010
1000
0100
0010
0002
,
0000
0103
0010
1000
0200
0000
1300
0002
,
0000
1003
0010
0100
0002
0000
2003
0000
,
0000
0000
0100
0000
0000
0000
3001
2000
,
0000
3001
0100
0010
2000
0000
3100
0020
,
0000
0031
0010
0100
2000
0000
3001
0200
,
0000
0300
0001
0010
0100
1000
0001
2000
,
0000
3100
0010
0000
0001
1000
1001
0000
,
0001
1000
1000
0200
0000
0320
0000
0032
,
0000
0103
0001
0010
0010
0100
1000
0020
,
0000
0130
0001
0020
0000
0230
0000
2300
,
0000
3001
1000
0010
0100
0010
1000
0002
,
0000
1003
0100
0020
0000
0230
0000
2300
,
0000
3001
0100
0010
1000
0001
1000
0020
,
0000
0130
0001
2000
0000
3200
0000
0320
,
0000
0031
0001
1000
1000
0000
0001
1000
,
1001
0000
0110
0000
0100
0001
1000
0020
,
0000
0230
0000
0302
0000
1003
0100
1000
,
0001
0001
0020
0000
0130
1000
0001
2000
,
0000
3020
0000
0130
0001
0010
0100
2000
,
0000
3010
0010
2000
0000
3200
0000
0320
,
0000
0031
0100
0001
1000
0100
1000
0002
,
0000
0023
0000
0230
0000
2300
0000
3002
,
0000
0203
0000
0320
0000
1030
1001
0000
,
0000
0001
0000
0001
,
0000
1000
0000
1000
,
0000
0010
0000
0010
,
0000
0100
0000
0110
;
