#VERSION:0.83;
#TITLE:Flow;
#SUBTITLE:(The Acolyte's Zero Tolerance Remix);
#ARTIST:Scotty D. revisits U1;
#TITLETRANSLIT:;
#SUBTITLETRANSLIT:;
#ARTISTTRANSLIT:;
#GENRE:;
#ORIGIN:;
#CREDIT:;
#BANNER:;
#BACKGROUND:;
#PREVIEWVID:;
#JACKET:;
#CDIMAGE:;
#DISCIMAGE:;
#LYRICSPATH:;
#CDTITLE:;
#MUSIC:Flow (The Acolyte's Zero Tolerance Remix).ogg;
#OFFSET:0.000000;
#SAMPLESTART:81.199997;
#SAMPLELENGTH:15.000000;
#SELECTABLE:YES;
#BPMS:0.000=130.003;
#STOPS:;
#DELAYS:;
#WARPS:;
#TIMESIGNATURES:0.000=4=4;
#TICKCOUNTS:0.000=4;
#COMBOS:0.000=1;
#SPEEDS:0.000=1.000=0.000=0;
#SCROLLS:0.000=1.000;
#FAKES:;
#LABELS:0.000=Song Start;
#BGCHANGES:;
#KEYSOUNDS:;
#ATTACKS:
;

//---------------dance-single - ----------------
#NOTEDATA:;
#CHARTNAME:;
#STEPSTYPE:dance-single;
#DESCRIPTION:;
#CHARTSTYLE:;
#DIFFICULTY:Beginner;
#METER:1;
#RADARVALUES:0.152531,0.241106,0.030948,0.270797,0.000000,138.000000,134.000000,4.000000,35.000000,0.000000,0.000000,0.000000,0.000000,0.000000,0.152531,0.241106,0.030948,0.270797,0.000000,138.000000,134.000000,4.000000,35.000000,0.000000,0.000000,0.000000,0.000000,0.000000;
#CREDIT:;
#NOTES:
0000
0000
0000
0000
,
0000
0000
0000
0000
,
0000
0000
0000
0000
,
0000
0000
0000
0000
,
1000
0000
1000
0000
,
0001
0000
0001
0000
,
0100
0000
0100
0000
,
0010
0000
0010
0000
,
1000
0000
0100
0000
,
1000
0000
0001
0000
,
0010
0000
0001
0000
,
0100
0000
0010
0000
,
2002
0000
0000
0000
,
0000
0000
0000
3003
,
0002
0000
0000
0003
,
2000
0000
0000
3000
,
0020
0000
0000
0030
,
2000
0000
0000
3000
,
0002
0000
0000
0003
,
0200
0000
0000
0300
,
0002
0000
0000
0003
,
2000
0000
0000
3000
,
0200
0000
0000
0300
,
0002
0000
0000
0003
,
0020
0000
0000
0030
,
2000
0000
0000
3000
,
0002
0000
0000
0003
,
2002
0000
0000
3003
,
1000
0000
0100
0000
,
1000
0000
0001
0000
,
0100
0000
0010
0000
,
0100
0000
0001
0000
,
1000
0000
0001
0000
,
0100
0000
0010
0000
,
1000
0000
0100
0000
,
1000
0000
0001
0000
,
0001
0000
0001
0001
,
0100
0000
0100
0100
,
0010
0000
0010
0010
,
1000
0000
1000
1000
,
0002
0003
2000
3000
,
0002
0003
2000
3000
,
0001
1000
0001
1000
,
0010
0100
0010
1000
,
0002
0000
1003
0010
,
1000
0000
0100
1000
,
0020
0000
0130
0010
,
0100
0000
0100
1000
,
0200
0000
1300
0100
,
1000
0000
1000
0001
,
2000
0000
3001
0100
,
0001
0000
1000
1001
,
0001
0001
0100
0000
,
0010
1000
0010
0000
,
0100
1000
0100
0000
,
0001
1000
0001
0000
,
0010
1000
0010
0000
,
0001
0100
0001
0000
,
1000
1000
0001
0001
,
0100
0010
0100
0010
,
2000
0000
3010
0000
,
0200
0000
0301
0000
,
0020
0000
1030
0000
,
0002
0000
0103
0000
,
2000
0000
0000
3000
,
0002
0000
0000
0003
,
0200
0000
0000
0300
,
0020
0000
0000
0030
,
0220
0000
0000
0000
,
0000
0330
0000
0000
;

//---------------dance-single - ----------------
#NOTEDATA:;
#CHARTNAME:;
#STEPSTYPE:dance-single;
#DESCRIPTION:;
#CHARTSTYLE:;
#DIFFICULTY:Easy;
#METER:4;
#RADARVALUES:0.229901,0.267896,0.038685,0.177952,0.000000,208.000000,203.000000,5.000000,23.000000,0.000000,0.000000,0.000000,0.000000,0.000000,0.229901,0.267896,0.038685,0.177952,0.000000,208.000000,203.000000,5.000000,23.000000,0.000000,0.000000,0.000000,0.000000,0.000000;
#CREDIT:;
#NOTES:
0000
0000
0000
0000
,
0000
0000
0000
0000
,
0000
0000
0000
0000
,
0000
0000
0000
0000
,
0001
0100
0001
1000
,
0010
1000
0001
1000
,
0001
0001
0100
0100
,
0001
0001
1000
1000
,
0010
1000
0010
0100
,
0001
1000
0001
0100
,
0001
1000
0010
0100
,
0010
1000
0001
1000
,
2002
0000
0000
0000
,
0000
0000
0000
3003
,
0002
0000
0000
0000
,
0203
0000
0000
0000
,
0320
0000
0000
0000
,
2030
0000
0000
0000
,
3002
0000
0000
0000
,
0203
0000
0000
0000
,
0302
0000
0100
0000
,
2003
0000
0001
0000
,
3020
0000
1000
0000
,
0230
0000
0001
0000
,
0302
0000
1000
0000
,
0023
0000
0100
0000
,
0230
0000
0010
0300
,
2002
0000
0000
3003
,
1000
0000
0001
0100
,
0001
0000
1000
0001
,
1000
0000
0010
0100
,
0010
0000
0100
0001
,
0100
0000
0001
1000
,
0001
0000
0010
1000
,
0010
0000
0100
0001
,
0100
0000
0001
1000
,
0001
0001
1000
1000
,
0001
0001
1000
1000
,
0001
0100
0001
0100
,
0010
1000
0010
1000
,
0002
1003
2000
3001
,
0002
1003
2000
3001
,
0001
0100
0010
1000
,
0100
0010
0001
1000
,
1001
0001
0100
0010
,
0100
0001
1000
0100
,
1000
0010
0100
0010
,
1000
0001
1000
0100
,
1000
0001
1000
0001
,
0010
0100
0010
0001
,
0100
0001
1000
0010
,
0100
0010
1000
0001
,
1000
1000
0010
0100
,
0001
0010
0100
0010
,
0001
1000
0010
0100
,
0010
1000
0001
1000
,
0001
0100
0001
1000
,
0010
0100
0010
1000
,
0001
0100
0010
1000
,
0100
1000
0001
1000
,
1001
0001
0001
0100
,
1000
1000
1000
0010
,
0100
0100
0100
0001
,
0010
0010
0010
0001
,
0100
0001
0100
0000
,
0010
1000
0010
0000
,
1000
0000
0001
0000
,
1000
0001
1000
0001
,
2002
0000
0000
0000
,
0000
3003
0000
0000
;

//---------------dance-single - ----------------
#NOTEDATA:;
#CHARTNAME:;
#STEPSTYPE:dance-single;
#DESCRIPTION:;
#CHARTSTYLE:;
#DIFFICULTY:Medium;
#METER:6;
#RADARVALUES:0.375800,0.455423,0.232112,0.139267,0.000000,340.000000,310.000000,30.000000,18.000000,0.000000,0.000000,0.000000,0.000000,0.000000,0.375800,0.455423,0.232112,0.139267,0.000000,340.000000,310.000000,30.000000,18.000000,0.000000,0.000000,0.000000,0.000000,0.000000;
#CREDIT:;
#NOTES:
0000
0000
0000
0000
,
0000
0000
0000
0000
,
0000
0000
0000
0000
,
0000
0000
0000
0000
,
1000
0001
1000
0000
0010
0000
0100
0000
,
0001
0010
0100
0010
,
1000
1100
0001
0101
,
1000
1010
0001
0011
,
1000
1001
0001
1001
,
1000
1001
0001
1001
,
0101
1010
1100
0011
,
1001
0000
1000
0000
0001
1000
0001
0000
,
2002
0000
0000
3003
,
0010
0000
0100
0001
,
0100
0000
0000
0000
0010
0000
0001
0001
,
0100
0010
2000
0001
,
3001
0100
0010
0000
,
0100
0000
0001
0000
0100
0000
0001
0100
,
0001
0100
0010
0000
,
0100
0000
0010
0000
1000
0000
0001
1000
,
0002
0000
0103
0010
,
2000
0000
3010
1000
,
0002
0000
0103
0001
,
0020
0000
0031
0100
,
0020
1000
1030
0100
,
0002
0100
0103
0010
,
2000
0100
3100
0010
,
0001
0000
0100
0010
1000
0000
0001
1000
,
0001
0000
0100
0001
0100
0000
0010
0000
,
1000
0000
0100
0000
1000
0001
1000
0000
,
0010
0000
0100
0000
0001
0100
0001
0000
,
1000
0000
0100
0000
1000
0001
1000
0000
,
0020
0000
0100
0000
1030
0000
0001
1000
,
0002
0000
1000
0000
0013
0000
0100
0010
,
0200
0000
0001
0000
0310
0000
1000
0010
,
2000
0000
0100
0000
3001
0000
0001
0100
,
0001
0100
0001
0000
1000
0001
1000
0000
,
0010
1000
0010
0000
0100
0010
0100
0000
,
0001
0100
0001
0000
1000
0010
1000
0000
,
0001
1000
0001
0000
0100
0010
0100
0000
,
0001
0100
0001
0000
1000
0010
1000
0000
,
0001
0010
0001
0000
1000
0100
1000
0000
,
1001
0110
1100
0011
,
1001
0000
0001
0000
0100
0010
0100
0000
,
0110
0000
0100
0000
0001
0000
0100
0001
,
0100
0000
0010
1000
0010
1000
0010
0100
,
0010
0000
0100
0000
0001
0000
1000
0001
,
1000
0000
0010
0000
0100
0001
0100
0001
,
0100
0000
0010
0000
0100
0000
0010
1000
,
0010
0000
1000
0001
1000
0001
1000
0100
,
1000
0000
0010
1000
0010
0000
0100
0001
,
0100
0000
0100
0000
0010
0100
0010
0100
,
0010
0010
1000
0000
0100
0000
1000
0001
,
1000
0000
0010
0100
0010
0100
0010
1000
,
0010
0000
1000
0000
0001
0000
0100
0001
,
0100
0000
0010
1000
0001
1000
0010
1000
,
0010
0000
0100
0000
0001
0000
1000
0001
,
1000
0000
0100
0001
1000
0001
0100
0000
,
0101
1010
1100
0011
,
1001
0000
0110
0000
1000
0001
1000
0000
,
1001
0000
1000
0000
0010
0000
1000
0010
,
1000
0000
0001
1000
0001
1000
0001
1000
,
0001
0000
0100
0000
0001
0000
0100
0010
,
0100
0000
0001
0000
0100
0000
0010
0100
,
0010
1000
0010
0001
,
0100
0001
1000
0010
,
2000
3001
0002
1003
,
1001
0000
1001
0000
1000
0001
1000
0001
,
2002
0000
0000
0000
,
0000
3003
0000
0000
;

//---------------dance-single - ----------------
#NOTEDATA:;
#CHARTNAME:;
#STEPSTYPE:dance-single;
#DESCRIPTION:;
#CHARTSTYLE:;
#DIFFICULTY:Hard;
#METER:9;
#RADARVALUES:0.589122,0.803687,0.208901,0.208901,0.394590,533.000000,506.000000,27.000000,27.000000,0.000000,0.000000,0.000000,0.000000,0.000000,0.589122,0.803687,0.208901,0.208901,0.394590,533.000000,506.000000,27.000000,27.000000,0.000000,0.000000,0.000000,0.000000,0.000000;
#CREDIT:;
#NOTES:
// measure 0
0000
0000
0000
0000
,  // measure 1
0000
0000
0000
0000
,  // measure 2
0000
0000
0000
0000
,  // measure 3
0000
0000
0000
0000
,  // measure 4
1000
0001
1000
0000
0001
0000
0100
0001
,  // measure 5
0100
0000
0010
0000
1000
0000
0010
1000
,  // measure 6
0010
0000
0110
0000
0100
0001
0101
0000
,  // measure 7
0001
0000
1001
0000
1000
0010
1010
0000
,  // measure 8
1000
0100
1100
0000
0001
0100
0101
0000
,  // measure 9
0001
0010
0011
0000
1000
0010
1010
0000
,  // measure 10
1000
0100
1000
0010
0100
0001
0010
0001
,  // measure 11
0100
0010
1000
0100
0010
0001
1000
0001
,  // measure 12
2002
0000
0000
3000
,  // measure 13
1003
0000
0000
0000
0010
0000
1000
0000
0010
0000
0000
0000
0100
0001
0000
0100
,  // measure 14
0000
0010
1000
0010
0100
0001
0100
0100
,  // measure 15
0010
0000
1000
0000
0010
0000
1000
0000
0002
0000
0003
0000
0100
0001
0100
0000
,  // measure 16
0001
0000
0001
0000
0100
0000
0010
0000
0001
1000
0000
0000
1000
0100
0000
1000
,  // measure 17
0000
0000
0100
0000
1000
0000
0001
1000
0001
0000
0000
0100
0001
0000
0100
0000
,  // measure 18
0010
0000
1000
0000
0010
0000
1000
0000
0100
1000
0000
0000
0100
0010
0000
0100
,  // measure 19
0000
0000
0010
0000
0100
0000
1000
0000
0001
0000
0100
0000
0001
0000
0100
0001
,  // measure 20
0200
0000
0001
0000
0001
0000
0000
0000
0020
0000
0030
0000
1300
0000
0000
1000
,  // measure 21
0002
0000
1000
0000
1000
0000
0000
0000
0200
0000
0300
0000
1003
0000
0000
1000
,  // measure 22
0020
0100
0100
0000
2000
3000
0130
0010
,  // measure 23
2000
0000
0100
0000
0100
0000
0000
0000
0001
0000
0000
0000
3001
1000
0001
0000
,  // measure 24
2000
0000
0001
0000
0001
0000
0000
0000
0020
0000
0030
0000
3100
0000
0000
0100
,  // measure 25
0020
0000
1000
1000
1000
0000
0130
0000
,  // measure 26
0002
0000
0100
0000
0100
0000
0000
0000
0020
0000
0030
0000
1003
0000
0000
1000
,  // measure 27
0002
0203
0302
0203
0320
2030
3020
2030
,  // measure 28
3001
0000
0000
1000
0001
0000
0100
0000
0010
0000
0100
0000
0010
0000
1000
0000
,  // measure 29
0001
0000
0000
1000
0001
0000
0100
0000
0010
0000
1000
0000
0010
0000
0100
0000
,  // measure 30
0001
0000
0000
1000
0100
0000
1000
0000
0100
0000
1000
0000
0001
0000
1000
0000
,  // measure 31
0010
0000
0000
0100
0010
0000
0100
0000
0001
0000
0100
0000
0010
0000
1000
0000
,  // measure 32
0001
0000
0100
0001
0000
0100
0000
0000
0001
0000
0100
0000
0010
0000
1000
0000
,  // measure 33
0001
0000
0100
0000
0100
0000
0010
0000
1000
0001
0000
0000
1000
0100
0000
1000
,  // measure 34
0001
0000
0010
0000
0010
0000
0001
0000
1000
0001
0000
0000
0001
0010
0000
0001
,  // measure 35
1000
0000
0001
0000
0001
0000
0100
0000
0010
0100
0000
0000
0010
1000
0000
1000
,  // measure 36
0001
0100
0000
0001
0100
0000
0001
0000
0100
0010
0000
0100
0010
0000
0100
0000
,  // measure 37
0010
1000
0000
0010
1000
0000
0010
0000
1000
0001
0000
1000
0001
0000
1000
0000
,  // measure 38
0100
1000
0000
0100
1000
0000
0100
0000
0010
0100
0000
0010
0100
0000
0010
0000
,  // measure 39
0001
0010
0000
0001
0010
0000
0001
0000
1000
0001
0000
1000
0001
0000
1000
0000
,  // measure 40
0001
1000
0001
1000
0001
1000
0001
0000
1000
0001
1000
0001
1000
0001
1000
0000
,  // measure 41
0001
1000
0001
1000
0001
1000
0001
0000
1000
0001
1000
0001
1000
0001
1000
0000
,  // measure 42
1001
1000
1001
0001
1001
1000
1100
0100
,  // measure 43
0110
0010
0001
0100
0010
2000
0002
3003
,  // measure 44
1001
0000
0000
0100
0001
0000
0100
0000
0010
0000
0000
1000
0010
0000
1000
0000
,  // measure 45
0001
0000
0000
1000
0100
0000
0010
0000
0100
0000
0001
0000
0100
0000
1000
0000
,  // measure 46
0001
0100
0000
0001
0100
0000
0001
1000
0000
0001
1000
0000
0100
0000
1000
0000
,  // measure 47
0010
0000
0000
0010
1000
0000
0010
0000
1000
0000
1000
0000
0001
0000
0001
0000
,  // measure 48
1000
0100
0000
1000
0100
0000
1000
0001
0000
1000
0001
0000
1000
0000
0010
0000
,  // measure 49
1000
0000
0000
0001
1000
0000
0010
0000
0100
0000
0100
0000
0010
0000
0010
0000
,  // measure 50
1000
0010
0000
1000
0010
0000
1000
0001
0000
1000
0001
0000
1000
0000
0001
0000
,  // measure 51
1000
0000
0001
0100
0000
0000
0001
0000
0100
0000
0100
0000
0010
0000
0110
0000
,  // measure 52
0010
1010
1000
0100
1000
0010
0100
0001
,  // measure 53
0100
0010
0100
0001
0010
1000
0100
1000
,  // measure 54
0001
1000
0000
0001
1000
0000
0001
0010
0000
0001
0010
0000
0100
0000
0010
0000
,  // measure 55
0100
0001
0100
0010
1000
1000
0001
0001
,  // measure 56
1000
0100
0000
1000
0100
0000
1000
0001
0000
1000
0001
0000
0100
0000
0010
0000
,  // measure 57
1000
0001
0100
0010
0100
0001
0100
0010
,  // measure 58
0110
0101
1010
0011
,  // measure 59
1001
0000
0110
0000
1100
1000
1001
0001
,  // measure 60
1001
0000
0001
0100
0001
0000
0100
0010
,  // measure 61
1000
0000
0100
1000
0010
0100
0001
0100
,  // measure 62
0010
0100
0000
0010
0100
0000
0001
0100
0000
0001
0100
0000
0010
0000
1000
0000
,  // measure 63
0001
0000
0000
1000
0001
0000
1000
0000
0010
0000
0010
0000
0100
0000
0100
0000
,  // measure 64
0001
0100
0000
0001
0100
0000
0001
1000
0000
0001
1000
0000
0010
0000
0100
0000
,  // measure 65
0001
0000
0000
1000
0001
0000
0100
0000
0010
0000
1000
0000
0010
0000
0100
0000
,  // measure 66
0001
1000
0000
0001
1000
0000
0001
1000
0000
0001
1000
0000
0001
0000
1000
0000
,  // measure 67
0001
0000
0000
0001
1000
0000
0000
1000
0001
0000
0001
0000
1000
0000
1000
0000
,  // measure 68
2002
0000
0000
0000
,  // measure 69
0000
3003
0000
0000
;
