#TITLE:Drowning (Avicii Remix);
#SUBTITLE:;
#ARTIST:Armin van Buuren feat. Laura V;
#TITLETRANSLIT:;
#SUBTITLETRANSLIT:;
#ARTISTTRANSLIT:;
#GENRE:;
#CREDIT:;
#BANNER:[SloweRemix] - Drowning (Avicii Remix).png;
#BACKGROUND:[SloweRemix] - Drowning (Avicii Remix)-bg.png;
#LYRICSPATH:;
#CDTITLE:;
#MUSIC:[SloweRemix] - Drowning (Avicii Remix).ogg;
#OFFSET:0.000000;
#SAMPLESTART:62.361000;
#SAMPLELENGTH:14.634008;
#SELECTABLE:YES;
#DISPLAYBPM:126.000000;
#BPMS:0.000000=125.999992
;
#STOPS:
;
#BGCHANGES:0.000=[SloweRemix] - Drowning (Avicii Remix).avi=1.000=0=0=0=StretchNoLoop====,
99999=-nosongbg-=1.000=0=0=0 // don't automatically add -songbackground-
;
#KEYSOUNDS:;
#ATTACKS:;

//---------------dance-single - ----------------
#NOTES:
     dance-single:
     :
     Hard:
     8:
     0.438301,0.585185,0.052382,0.179596,0.430283,410.000000,403.000000,7.000000,24.000000,0.000000,0.000000,0.438301,0.585185,0.052382,0.179596,0.430283,410.000000,403.000000,7.000000,24.000000,0.000000,0.000000:
0000
0000
0000
0000
,
0000
0000
0000
0000
,
2000
0000
0000
3000
,
0200
0000
0000
0300
,
0020
0000
0000
0030
,
0002
0000
0000
0003
,
0002
0000
0103
0000
,
0200
0000
0310
0000
,
0020
0000
1030
0000
,
2000
0000
3100
0000
,
1000
0010
1000
0000
,
1000
0001
0100
0000
,
0002
0000
0013
0000
,
0002
0000
0000
0100
0000
0100
0003
0000
,
0200
0000
0310
0000
,
0020
0000
0000
1000
0000
1030
0000
0000
,
0010
0100
0010
0100
,
0020
0000
0000
0100
0000
0130
0100
0100
,
0001
0000
0010
0001
0010
0000
0001
0100
,
0001
0000
1000
0010
0100
0000
0100
0010
,
0100
0100
0001
0001
,
0010
0001
0100
0001
0010
0000
0010
0001
,
0011
0011
0100
0110
,
0010
1000
0100
0000
0100
1000
0010
0000
,
0200
0301
0002
0013
,
0020
0000
0130
2000
0000
3200
0000
0300
,
1000
0100
1000
0000
0010
0100
0001
0000
,
0001
0010
0001
0000
0010
0100
1000
0000
,
0001
1000
0001
0000
0100
0010
1000
0000
,
0100
0010
0001
0000
0001
0010
0100
0000
,
1000
0001
1000
0000
0001
1000
0001
0000
,
0100
0010
0100
0000
0010
0100
0010
0000
,
2000
0000
0000
0000
0000
0000
3001
0100
,
0000
0100
0000
0001
0000
0010
0000
0010
,
0011
0000
0001
1000
0000
0000
1000
0000
1000
0001
0000
0000
0001
0000
0001
0100
,
0000
0100
0001
0000
0001
0010
0000
0001
0010
0000
0001
1000
0000
0001
1000
0000
,
1001
0000
0010
1000
0000
0000
1000
0000
1000
0010
0000
0000
0010
0000
0010
0100
,
0000
0100
0001
0000
0001
0010
0000
0010
0001
0000
0001
1000
0000
1000
0001
0000
,
0001
0000
0001
1000
0000
1000
0001
0000
0001
0010
0000
0010
0001
0000
0001
0100
,
0000
0100
0010
0000
0010
1000
0000
1000
0100
0000
0100
1000
0000
1000
0001
0000
,
0001
0000
0001
1000
0000
1000
0010
0000
0010
1000
0000
1000
0010
0000
0100
0001
,
0000
0001
0010
0000
0010
0001
0000
0100
0001
0000
0001
0100
0000
0000
0100
0000
,
0010
0000
0010
0100
0000
0100
0001
0000
0001
1000
0000
1000
0010
0000
0100
0001
,
0000
0001
0010
0000
0010
0001
0000
0001
0100
0000
0100
0001
0000
0001
0010
0000
,
0001
0000
0001
1000
0000
1000
0001
0000
0001
0010
0000
0010
0100
0000
0100
1000
,
0000
1000
0010
0000
0100
0001
0000
0100
0001
0000
0001
0010
0000
0010
0001
0000
,
1000
0000
0000
1000
0000
0000
1000
0000
0000
0100
0000
0000
0100
0000
0000
1000
,
0000
0000
1000
0000
0000
0001
0000
0000
0001
0000
0000
0001
0000
0000
0100
0000
,
0001
0000
0000
0001
0000
0000
0001
0000
0000
0010
0000
0000
0010
0000
0000
0100
,
0000
0000
0100
0000
0000
1000
0000
0000
1000
0000
0000
0001
0000
0000
0100
0000
,
0101
0000
0001
0100
0000
0100
0001
0000
0100
0010
0100
0000
0010
0000
1000
0000
,
0100
0000
0100
1000
0000
1000
0100
0000
0010
0001
0000
0100
0010
0100
0010
0000
,
0100
0001
0000
0001
0010
0000
0010
0001
0000
0100
0001
0000
0001
0010
0001
0000
,
0100
0000
0010
1000
0000
1000
0100
0000
0100
1000
0000
1000
0010
0000
0010
0000
,
0100
0000
0100
0001
0000
0001
0100
0000
0001
1000
0000
1000
0001
0000
0001
0000
,
0100
0000
0010
0100
0000
0100
0010
0000
0010
1000
0000
1000
0100
0000
0100
0000
,
1000
0000
0001
0100
0000
0001
0010
0000
0001
0100
0000
0010
0100
0000
0100
0000
,
0001
0000
0010
0000
0001
0100
0000
0100
0001
0000
0001
1000
0000
0000
1000
0000
,
0001
0000
0100
0001
0000
0001
0010
0000
0010
0001
0000
0001
0100
0000
0100
0000
,
0010
0000
1000
0010
0000
0010
0100
0000
0100
0001
0000
0001
0010
0000
0010
0000
,
0010
0000
0010
0100
0000
0100
1000
0000
1000
0001
0000
0001
1000
0000
1000
0000
,
0001
0000
0100
0000
0001
0000
0010
0000
0001
1000
0000
1000
0001
0000
0001
0000
,
0100
0000
0000
0100
0000
0000
0200
0000
0000
0000
0000
0000
0301
0000
0000
0000
,
0010
0000
0001
0000
0000
0100
0000
0000
0020
0000
0000
0000
0130
0000
0000
0000
,
0010
0000
0000
1000
0000
0000
0200
0000
0000
0000
0000
0000
1300
0000
0000
0000
,
0100
0000
0001
0000
0000
0010
0000
0000
1000
0000
0000
0000
0100
0000
0000
0000
,
2002
0000
0000
0000
,
0000
0000
0000
0000
,
3003
0000
0000
0000
;

//---------------dance-single - ----------------
#NOTES:
     dance-single:
     :
     Medium:
     5:
     0.222357,0.381642,0.044899,0.179596,0.000000,208.000000,202.000000,6.000000,24.000000,0.000000,0.000000,0.222357,0.381642,0.044899,0.179596,0.000000,208.000000,202.000000,6.000000,24.000000,0.000000,0.000000:
0000
0000
0000
0000
,
0000
0000
0000
0000
,
2000
0000
0000
0000
,
0000
0000
0000
3000
,
0200
0000
0000
0000
,
0000
0000
0000
0300
,
0020
0000
0000
0000
,
0000
0000
0000
0030
,
0002
0000
0000
0000
,
0000
0000
0000
0003
,
0100
0000
0100
0000
,
0010
0000
0010
0000
,
2000
0000
0000
3000
,
0002
0000
0000
0003
,
1000
0000
0100
0000
,
1000
0000
1000
0000
,
0010
0000
0100
0000
,
0002
0000
2000
3003
,
0100
0100
0100
0000
,
0010
0010
0010
0000
,
2000
0000
3001
0000
,
0002
0000
0103
0000
,
0100
0001
0100
0000
,
0010
1000
0100
0000
,
2000
0000
3001
0000
,
0002
0000
0103
0000
,
0100
0010
1000
0000
,
1000
0100
0010
0000
,
0010
0001
0100
0000
,
0001
0100
1000
0100
,
0001
0000
0001
0000
,
0001
0010
1000
0010
,
0001
0000
1000
0000
,
0010
0100
0001
1000
,
1001
0101
1010
1100
,
0001
1000
0001
0000
0100
0000
0110
0000
,
0010
1000
0100
1000
,
0001
0001
1000
1000
,
0010
0100
0001
0010
,
0001
0001
1000
1000
,
0010
0100
0001
0010
,
0002
0000
2000
3003
,
0001
0000
0100
0000
0010
1000
0100
0000
,
1000
0000
0010
0000
0100
0001
0010
0000
,
0001
0000
0100
0000
0001
0010
0100
0000
,
1000
0100
1000
1000
,
0002
0100
0100
0103
,
2000
0010
0010
3010
,
0200
0010
0010
0310
,
0200
0001
0001
0301
,
0001
0010
0100
0100
,
1000
0010
0100
0100
,
0001
0010
0100
0100
,
1000
0000
0001
0000
1000
0001
1000
0000
,
0001
0100
0010
0010
,
1000
0100
1000
1000
,
0010
1000
0100
0100
,
0010
0001
0100
0000
0002
0000
0103
0000
,
0100
0000
0010
0000
1000
0100
1000
0000
,
1000
0000
0001
0000
0010
0001
0100
0000
,
0100
0000
0100
0000
0010
1000
0100
0000
,
1000
0000
1000
0000
0001
1000
0001
0000
,
0200
0010
0010
0310
,
0020
1000
1000
1030
,
2000
0001
0001
3001
,
0100
0000
0010
0000
0010
1000
0100
0010
,
0022
0000
0000
0000
,
0000
0000
0000
0000
,
0033
0000
0000
0000
;

//---------------dance-single - ----------------
#NOTES:
     dance-single:
     :
     Easy:
     3:
     0.182803,0.330757,0.097281,0.179596,0.000000,171.000000,158.000000,13.000000,24.000000,0.000000,0.000000,0.182803,0.330757,0.097281,0.179596,0.000000,171.000000,158.000000,13.000000,24.000000,0.000000,0.000000:
// measure 0
0000
0000
0000
0000
,  // measure 1
0000
0000
0000
0000
,  // measure 2
2000
0000
0000
0000
,  // measure 3
0000
0000
0000
3000
,  // measure 4
0200
0000
0000
0000
,  // measure 5
0000
0000
0000
0300
,  // measure 6
0020
0000
0000
0000
,  // measure 7
0000
0000
0000
0030
,  // measure 8
0002
0000
0000
0000
,  // measure 9
0000
0000
0000
0003
,  // measure 10
0100
0000
0100
0000
,  // measure 11
0010
0000
0010
0000
,  // measure 12
2000
0000
0000
3000
,  // measure 13
0002
0000
0000
0003
,  // measure 14
2000
0000
3100
0000
,  // measure 15
0020
0000
0031
0000
,  // measure 16
0001
0000
0100
0000
,  // measure 17
0220
0000
0000
0330
,  // measure 18
0010
0000
1000
0000
,  // measure 19
0100
0000
0100
0000
,  // measure 20
1000
0000
0001
0000
,  // measure 21
0100
0000
0100
0000
,  // measure 22
0220
0000
0000
0330
,  // measure 23
2020
0000
0000
3030
,  // measure 24
0202
0000
0000
0303
,  // measure 25
0022
0000
0000
0033
,  // measure 26
0001
0000
0100
0000
,  // measure 27
1000
0000
0100
0000
,  // measure 28
0001
0000
0010
0000
,  // measure 29
1000
0000
0010
0000
,  // measure 30
0002
0000
0000
0003
,  // measure 31
1000
0000
0001
0000
,  // measure 32
2002
0000
0000
3003
,  // measure 33
0100
0000
0010
0000
,  // measure 34
0110
0100
1010
0010
,  // measure 35
0101
0001
0011
0001
,  // measure 36
1000
0001
0100
0100
,  // measure 37
0010
0010
0010
0000
,  // measure 38
0010
0010
1000
0000
,  // measure 39
0100
0100
1000
0000
,  // measure 40
0001
0001
1000
0000
,  // measure 41
0020
0000
0000
0000
0100
0000
0100
0030
,  // measure 42
0100
0010
1000
1000
,  // measure 43
0100
1000
0001
0001
,  // measure 44
0100
0010
1000
1000
,  // measure 45
0100
1000
0001
1000
,  // measure 46
0001
0001
0100
0100
,  // measure 47
1000
1000
0010
0010
,  // measure 48
1000
1000
0100
0100
,  // measure 49
0001
0001
0010
0000
,  // measure 50
0010
1010
0100
0101
,  // measure 51
0001
0010
0100
0100
,  // measure 52
1000
0001
1000
1000
,  // measure 53
0001
0100
0010
0010
,  // measure 54
0100
0001
0010
0010
,  // measure 55
0001
1000
0010
0010
,  // measure 56
0100
0001
0010
0010
,  // measure 57
0001
0100
1000
0100
,  // measure 58
0001
0001
1000
1000
,  // measure 59
0010
0100
0001
0001
,  // measure 60
1000
1000
0100
0100
,  // measure 61
1000
0010
0100
0001
,  // measure 62
1000
0000
0001
0000
,  // measure 63
1000
0000
0001
0000
,  // measure 64
0100
0000
0010
0000
,  // measure 65
0100
0000
0001
0000
,  // measure 66
2002
0000
0000
0000
,  // measure 67
0000
0000
0000
0000
,  // measure 68
3003
0000
0000
0000
;

//---------------dance-single - ----------------
#NOTES:
     dance-single:
     :
     Beginner:
     2:
     0.111179,0.178100,0.037416,0.059865,0.000000,104.000000,99.000000,5.000000,8.000000,0.000000,0.000000,0.111179,0.178100,0.037416,0.059865,0.000000,104.000000,99.000000,5.000000,8.000000,0.000000,0.000000:
0000
0000
0000
0000
,
0000
0000
0000
0000
,
1000
0000
0000
0000
,
0000
0000
0000
0000
,
0100
0000
0000
0000
,
0000
0000
0000
0000
,
0010
0000
0000
0000
,
0000
0000
0000
0000
,
0001
0000
0000
0000
,
0000
0000
0000
0000
,
1000
0000
0000
0000
,
0001
0000
0000
0000
,
2002
0000
0000
3003
,
0000
0000
0000
0000
,
0100
0000
0000
0000
,
0010
0000
0000
0000
,
0220
0000
0000
0330
,
0000
0000
0000
0000
,
0010
0000
0010
0000
,
0010
0000
0000
0000
,
1000
0000
1000
0000
,
1000
0000
0000
0000
,
0001
0000
0001
0000
,
0001
0000
0000
0000
,
0100
0000
0100
0000
,
0100
0000
0000
0000
,
0002
0000
0000
0003
,
1000
0000
0000
0000
,
2000
0000
0000
3000
,
0001
0000
0000
0000
,
0100
0000
0100
0000
,
0100
0000
0000
0000
,
0010
0000
0010
0000
,
0010
0000
0000
0000
,
0001
0000
0001
0000
,
0001
0000
0001
0000
,
1000
0000
1000
0000
,
1000
0000
1000
0000
,
0010
0000
0100
0000
,
0010
0000
0000
0000
,
1000
0000
0001
0000
,
1000
0000
0000
0000
,
0001
0001
0001
0000
,
1000
0000
0100
0000
,
1000
1000
1000
0000
,
0010
0000
0100
0000
,
0010
0010
0010
0000
,
0100
0000
0001
0000
,
0100
0100
0100
0000
,
0001
0000
0010
0000
,
0110
0000
1001
0000
,
1000
0000
0100
0000
,
1000
0000
1000
0000
,
0001
0000
0010
0000
,
0001
0000
0100
0000
,
0010
0000
0010
0000
,
0100
0000
0001
0000
,
1000
0000
0001
0000
,
0100
0100
0100
0000
,
0001
0001
0001
0000
,
1000
1000
1000
0000
,
0010
0010
0010
0000
,
1000
0000
0000
0000
,
0001
0000
0000
0000
,
0100
0000
0000
0000
,
0010
0000
0000
0000
,
2002
0000
0000
0000
,
0000
0000
0000
0000
,
3003
0000
0000
0000
;
