#TITLE:Clear;
#SUBTITLE:(Sean Wasabi Remix);
#ARTIST:Pusher feat. Mothica vs. Sean Wasabi;
#TITLETRANSLIT:;
#SUBTITLETRANSLIT:;
#ARTISTTRANSLIT:;
#GENRE:;
#CREDIT:;
#BANNER:bn.png;
#BACKGROUND:bg.png;
#LYRICSPATH:;
#CDTITLE:;
#MUSIC:Clear.ogg;
#OFFSET:-0.053;
#SAMPLESTART:58.824;
#SAMPLELENGTH:12.000;
#SELECTABLE:YES;
#DISPLAYBPM:51.000:102.000;
#BPMS:0.000=101.990,96.000=50.995,99.750=101.990,196.000=50.995,203.750=101.990,204.000=50.995;
#STOPS:99.750=0.147
,203.750=0.147
;
#BGCHANGES:;
#KEYSOUNDS:;

//---------------dance-single - brackets!----------------
#NOTES:
     dance-single:
     brackets!:
     Challenge:
     9:
     0.489,0.480,0.149,0.227,0.465:
0000
0000
0000
0000
,
0000
0000
0000
0000
,
0000
0000
0000
0000
,
0000
0000
0000
0000
,
1000
0000
0000
1000
0000
0000
1000
0000
0010
0000
0000
0010
0000
0000
0020
0000
,
0130
0000
0000
0100
0000
0000
0100
0000
0001
0000
1000
0100
0001
0100
2000
3000
,
0100
0000
0000
0100
0000
0000
0100
0000
0010
0000
0000
0010
0000
0000
0010
0001
,
1000
0000
0000
1000
0000
0000
1000
0000
0100
0000
0000
0100
0000
0100
1000
0000
,
0002
0003
0000
1000
0M11
0000
1000
0000
1000
0000
0001
0000
11M0
0000
0001
0000
,
2000
3000
0000
0001
1M10
0000
0001
0010
0000
0010
0001
0000
1M10
0000
0001
0000
,
2000
3000
0000
0001
11M0
0000
0001
0000
0001
0000
1000
0000
0M11
0000
1000
0000
,
0002
0003
0000
1000
01M1
0000
1000
0100
0000
0100
1000
0000
01M1
0000
1000
0001
,
1000
0000
0000
0100
1000
0000
0100
0000
0000
0010
0100
0000
1000
0000
0000
0000
,
0001
0000
0000
1000
0001
0000
0100
0000
0000
0001
1000
0100
0001
0100
1000
0000
,
0001
0000
0000
1000
0100
0000
0010
0000
0000
0100
1000
0000
0001
0000
0000
0000
,
1000
0000
0000
0001
0100
0000
0010
0000
1000
0001
0010
0001
1000
0000
0001
0000
,
0200
0000
0300
0010
1000
0000
1000
0000
1000
0000
1000
0100
0010
0000
0000
0000
,
0001
0000
0001
0000
0001
0000
0001
0010
0100
0000
0000
0000
0010
0000
0001
1000
,
0020
0000
0030
0100
0001
0000
0001
0000
0001
0000
0001
1000
0010
0000
0000
0000
,
1000
0000
1000
0000
1000
0000
1000
0000
0100
0010
0001
1000
0001
0000
1000
0000
,
0020
0000
0030
1000
0001
0000
0001
0000
0001
0000
0001
0010
0100
0000
0000
0000
,
1000
0000
1000
0000
1000
0000
0000
0000
0001
0100
0010
0100
0001
0000
1000
0000
,
0002
0000
0003
1000
0100
0000
0100
0000
0100
0000
0000
0000
1100
0000
0000
0000
,
1000
0000
0000
0001
0100
0000
0100
0010
1000
0001
0010
0100
1000
0000
0001
0000
,
M2M0
0000
0000
0300
0000
0000
0000
0010
0200
0000
0302
0000
2003
0000
3000
1MM1
,
0001
0000
0000
0001
0000
0000
0001
0000
0010
0000
0000
0010
0000
0000
0010
0000
,
0001
0000
0000
0001
0000
0000
0001
0000
1000
0000
0001
0100
1000
0100
0002
0003
,
1000
0000
0000
1000
0000
0000
1000
0000
0001
0000
0000
0001
0000
0000
0001
0000
,
0100
0000
0000
0100
0000
0000
0100
0000
0001
0000
0000
0001
0000
0000
0002
0000
,
1003
0000
0000
1000
0000
0000
1000
0000
0001
0000
0000
0001
0000
0000
0002
0000
,
0013
0000
0000
0010
0000
0000
0010
0000
0001
0000
1000
0010
0001
0010
2000
3000
,
0001
0000
0000
0001
0000
0000
0001
0000
0100
0000
0000
0100
0000
0000
0100
0010
,
1000
0000
0000
1000
0000
0000
1000
0000
0010
0000
0000
1000
0000
1000
0001
0000
,
2000
0000
3000
0000
0000
0000
0000
0000
0000
0001
0000
0000
1M10
0000
0000
0000
0000
0000
0001
0000
0000
0000
0000
0000
0001
0000
0000
0000
0000
0000
1000
0000
0000
0000
0000
0000
01M1
0000
0000
0000
0000
0000
1000
0000
0000
0000
0000
0000
,
0002
0003
0000
1000
0M11
0000
1000
0010
0000
0010
1000
0000
0M11
0000
1000
0000
,
0002
0003
0000
1000
01M1
0000
1000
0000
1000
0000
0001
0000
1M10
0000
0001
0000
,
2000
3000
0000
0001
11M0
0000
0001
0100
0000
0100
0001
0000
11M0
0000
0001
1000
,
0010
0000
0000
0100
0001
0000
1000
0000
0000
0001
0100
0000
0010
0000
0000
0000
,
1000
0000
0000
0001
1000
0000
0100
0000
0000
1000
0001
0100
1000
0100
0001
0000
,
1000
0000
0000
0100
0010
0000
0100
0000
0000
1000
0001
0000
1000
0000
0000
0000
,
0001
0000
0000
0100
0010
0000
0100
0000
0001
1000
0001
0010
0100
0000
1000
0000
,
0002
0000
0003
0010
0001
0000
0001
0000
0001
0000
0001
0010
1000
0010
0001
0000
,
1000
0000
1000
0000
1000
0000
1000
0000
0010
0100
0000
0100
0001
0000
1000
0000
,
0002
0000
0003
0010
0001
0000
0001
0000
0001
0000
0001
0010
1000
0010
0001
0000
,
1000
0000
1000
0000
1000
0000
1000
0000
0010
0100
0001
0100
0010
0000
1000
0000
,
0002
0000
0003
0010
0001
0000
0001
0000
0001
0000
0001
0010
1000
0010
0001
0000
,
1000
0000
1000
0000
1000
0000
0000
0000
0010
1000
0010
0100
0001
0000
1000
0000
,
0002
0000
0003
1000
0100
0000
0100
0000
0100
0000
1000
0100
0001
0100
1000
0000
,
0001
0000
0000
1000
0010
0000
0100
0000
0010
1000
0001
1000
0100
0000
0010
0000
,
M20M
0000
0000
0000
0000
0000
0000
0000
0000
0000
0000
0000
0000
0000
0000
0000
2300
0000
0000
0000
0000
0000
0000
0000
3001
0100
0010
0100
0001
0000
1000
0000
,
0002
0000
0000
0000
0000
0000
0003
1000
0100
0000
0010
0000
0100
0000
0000
1100
,
000M
0000
0000
00M0
000M
00M0
0000
0000
0000
0000
0000
0000
0000
0000
0000
0000
0000
0000
0000
0000
0000
0000
0000
0000
0000
0000
0000
0000
0000
0000
0000
0000
;
