#TITLE:CANDY CANDY - Quick Remix;
#SUBTITLE:;
#ARTIST:きゃりーぱみゅぱみゅ;
#TITLETRANSLIT:;
#SUBTITLETRANSLIT:;
#ARTISTTRANSLIT:Kyary Pamyu Pamyu;
#GENRE:;
#CREDIT:mf32892;
#BANNER:;
#BACKGROUND:;
#LYRICSPATH:;
#CDTITLE:;
#MUSIC:[SloweRemix] - Candy Candy - Quick Remix.ogg;
#OFFSET:0.929203;
#SAMPLESTART:62.941761;
#SAMPLELENGTH:15.000000;
#SELECTABLE:YES;
#BPMS:0.000000=124.000000
;
#STOPS:
;
#BGCHANGES:;
#KEYSOUNDS:;
#ATTACKS:;

//---------------dance-single - ----------------
#NOTES:
     dance-single:
     :
     Hard:
     8:
     0.485868,0.495672,0.266901,0.373661,0.118199,446.000000,411.000000,35.000000,49.000000,0.000000,0.000000,0.485868,0.495672,0.266901,0.373661,0.118199,446.000000,411.000000,35.000000,49.000000,0.000000,0.000000:
// measure 0
0000
0000
0000
0000
,  // measure 1
0000
0000
0000
0000
,  // measure 2
0000
0000
0000
0000
,  // measure 3
0000
0000
0000
0000
,  // measure 4
0000
0000
0000
0000
,  // measure 5
1000
0100
1000
0001
1000
0100
1000
0001
,  // measure 6
0100
0010
0100
0001
0100
0010
0100
0001
,  // measure 7
0010
0010
0010
0010
,  // measure 8
0100
0000
0000
0000
1001
0000
0000
0000
0100
0000
0010
0000
1001
0000
1000
0100
,  // measure 9
1000
0000
0100
0000
0100
0000
0010
0000
0001
0000
1000
0000
0010
0000
0100
0001
,  // measure 10
0100
0000
0010
0000
0010
0000
1000
0000
0001
0000
0010
0000
0100
0000
1000
0001
,  // measure 11
1000
0000
0010
0000
0010
0000
1000
0000
0001
0000
0010
0000
0100
0000
0010
0001
,  // measure 12
0010
0000
0001
0000
0001
0000
1000
0000
0001
0000
0100
0000
0010
0000
1000
0001
,  // measure 13
1000
0000
0100
0000
0100
0000
0010
0000
0100
0000
1000
0000
0010
0000
0100
0001
,  // measure 14
0100
0000
0010
0000
0010
0000
1000
0000
0001
0000
0010
0000
0100
0000
1000
0100
,  // measure 15
1000
0000
0001
0000
0001
0000
1000
0000
0010
0000
1000
0000
0001
0000
0010
0100
,  // measure 16
0010
0100
0100
0010
0001
0100
0010
0000
,  // measure 17
2010
0000
3100
0010
0002
0000
1003
0001
,  // measure 18
0100
1000
0100
0001
0010
0100
1000
0000
,  // measure 19
1020
0000
0130
0001
0020
0000
0130
0010
,  // measure 20
0001
0100
0010
1000
0001
1000
1001
0000
,  // measure 21
0002
0000
0013
0100
2000
0000
3010
1000
,  // measure 22
0100
0001
0100
1000
0010
0100
0001
0000
,  // measure 23
0021
0000
0130
0010
0002
0000
1003
0010
,  // measure 24
0001
0010
1000
0001
1000
0100
0110
0000
,  // measure 25
2000
0000
0000
0000
3000
0000
0000
1000
0002
0000
0000
0000
0013
0000
0000
0010
,  // measure 26
0200
0000
0000
0000
0300
0000
0000
0100
2000
0000
0000
0000
3001
0000
0000
1000
,  // measure 27
0020
0000
0000
0000
0030
0000
0000
0100
0002
0000
0000
0000
1003
0000
0000
0001
,  // measure 28
0020
0000
0000
0000
0030
0000
0000
0100
1000
0000
0001
0000
1000
0000
0000
0010
,  // measure 29
0200
0000
0000
0000
0300
0000
0000
0100
0002
0000
0000
0000
1003
0000
0000
1000
,  // measure 30
0200
0000
0000
0000
0300
0000
0000
0100
0020
0000
0000
0000
0031
0000
0000
1000
,  // measure 31
0020
0000
0001
0000
1000
0000
0130
0001
,  // measure 32
1000
0100
0010
0001
1000
0000
1001
0000
,  // measure 33
0012
0000
1003
0010
2010
0000
3001
0000
,  // measure 34
0001
0010
0100
0010
0001
1000
0010
0000
,  // measure 35
1020
0000
0130
0010
0210
0000
0301
0000
,  // measure 36
1000
0000
0100
0000
0010
0000
0001
0000
1000
0000
0001
1000
0001
0000
1000
0000
,  // measure 37
2100
0000
3001
0100
0102
0000
1003
0000
,  // measure 38
1000
0010
0100
0010
1000
0100
0010
0000
,  // measure 39
0021
0000
0130
0010
0210
0000
1300
0000
,  // measure 40
0001
1000
1000
1000
0001
1000
0001
0000
,  // measure 41
0021
0000
0130
1000
2100
0000
3001
0000
,  // measure 42
0100
1000
0100
0001
0200
0010
0310
0000
,  // measure 43
1020
0000
0130
0001
0102
0000
1003
0000
,  // measure 44
0001
0000
0010
0000
0100
0000
1000
0000
0001
0000
1000
0001
1000
0000
0001
0000
,  // measure 45
1200
0000
0310
0001
0012
0000
1003
0000
,  // measure 46
0010
0001
0010
1000
0020
0100
0130
0000
,  // measure 47
0201
0000
0310
1000
2010
0000
3001
0000
,  // measure 48
1000
0000
0000
0000
0100
0000
1000
0000
0001
0000
0001
0000
0001
0000
1000
0100
,  // measure 49
1000
0000
0100
0000
0100
0000
0010
0000
0001
0000
1000
0000
0010
0000
0100
0001
,  // measure 50
0100
0000
0010
0000
0010
0000
1000
0000
0001
0000
1000
0000
0010
0000
1000
0001
,  // measure 51
1000
0000
0100
0000
0100
0000
0010
0000
0100
0000
0010
0000
0001
0000
0100
0001
,  // measure 52
0100
0000
0010
0000
0010
0000
1000
0000
0001
0000
1000
0000
0010
0000
1000
0100
,  // measure 53
1000
0000
0100
0000
0100
0000
0010
0000
0001
0000
1000
0000
0100
0000
0010
0001
,  // measure 54
0010
0000
0100
0000
0100
0000
0010
0000
0001
0000
0100
0000
0010
0000
1000
0001
,  // measure 55
1000
0000
0010
0000
0010
0000
0100
0000
0001
0000
1000
0000
0100
0000
0010
0100
,  // measure 56
0010
0100
0100
1000
0001
0100
0010
0000
,  // measure 57
2100
0000
3001
0100
0102
0000
1003
0000
,  // measure 58
0001
0010
1000
0010
0002
0100
1003
0000
,  // measure 59
2010
0000
3001
0010
0012
0000
1003
0000
,  // measure 60
0001
0000
0100
0000
0010
0000
1000
0000
0001
0000
1000
0001
1000
0000
0001
0000
,  // measure 61
0012
0000
1003
0010
2010
0000
3001
0000
,  // measure 62
1000
0010
0001
0010
2000
0100
3001
0000
,  // measure 63
0102
0000
1003
0100
2100
0000
3001
0000
,  // measure 64
0200
0000
0310
0100
0110
0000
1001
0000
,  // measure 65
0110
0000
0000
0000
;
