#TITLE:Babaroque;
#SUBTITLE:(Nhato Remix);
#ARTIST:cYsmix;
#TITLETRANSLIT:;
#SUBTITLETRANSLIT:;
#ARTISTTRANSLIT:;
#GENRE:;
#CREDIT:;
#BANNER:babaroque-bn.png;
#BACKGROUND:generic-bg.png;
#LYRICSPATH:;
#CDTITLE:;
#MUSIC:babaroque.ogg;
#OFFSET:-0.461538;
#SAMPLESTART:44.760742;
#SAMPLELENGTH:14.769230;
#SELECTABLE:YES;
#BPMS:0.000000=130.000000
;
#STOPS:
;
#BGCHANGES:;
#KEYSOUNDS:;
#ATTACKS:;

//---------------dance-single - ----------------
#NOTES:
     dance-single:
     Mu-box:
     Challenge:
     10:
     0.637188,0.736508,0.253968,0.214286,0.793651,562.000000,530.000000,32.000000,27.000000,3.000000,0.000000,0.637188,0.736508,0.253968,0.214286,0.793651,562.000000,530.000000,32.000000,27.000000,3.000000,0.000000:
// measure 0
0000
0000
0000
0000
,  // measure 1
0000
0000
0000
0000
,  // measure 2
0000
0000
0000
0000
,  // measure 3
0000
0000
0000
0000
,  // measure 4
0001
0100
0001
1000
0100
1000
0001
1000
,  // measure 5
0010
0100
0001
0100
0010
1000
0100
1000
,  // measure 6
0001
0010
0001
0100
0001
1000
0100
1000
,  // measure 7
0100
0010
0001
0010
0100
1000
0010
0100
,  // measure 8
0101
0000
0000
0000
1001
0000
0000
1000
0000
1000
0000
1000
0000
1000
0100
1000
,  // measure 9
0001
0000
0000
0000
0101
0000
0000
0001
0000
0100
0000
0100
0000
0100
0010
1000
,  // measure 10
0010
0000
0000
0000
1010
0000
0000
1000
0000
0001
0000
0001
0000
0001
0100
0001
,  // measure 11
0010
0000
0000
0000
0011
0000
0000
0010
0001
1000
0001
0100
0010
0100
0001
1000
,  // measure 12
0100
0000
0000
0000
0110
0000
0000
0010
0000
0010
0000
0010
0000
0100
0010
0100
,  // measure 13
1000
0000
0000
0000
1010
0000
0000
1000
0000
1000
0000
0001
0000
1000
0100
1000
,  // measure 14
0010
0000
0000
0000
0110
0000
0000
0010
0000
0100
0000
0100
0000
0001
1000
0001
,  // measure 15
0100
0000
0000
0000
0110
0000
0000
0010
0100
0010
1000
0100
0001
0100
1000
0010
,  // measure 16
0100
0000
0000
0000
1010
0000
0000
0010
0000
0010
0000
0010
0000
1000
0100
1000
,  // measure 17
0001
0000
0000
0000
0011
0000
0000
0010
0000
0010
0000
0010
0000
0001
0100
0001
,  // measure 18
1000
0000
0000
0000
1100
0000
0000
0100
0000
0100
0000
0100
0000
1000
0010
1000
,  // measure 19
0001
0000
0000
0000
0101
0000
0000
0100
0000
0100
0000
0100
0000
0001
1000
0001
,  // measure 20
0020
0031
2000
3010
0200
0301
0020
0130
,  // measure 21
2000
3100
0020
0031
0200
0310
2000
3001
,  // measure 22
0010
0001
0010
0001
1000
0010
1000
0010
0100
0001
0100
0001
1000
0100
1000
0100
,  // measure 23
1000
0001
0100
0010
0100
0000
0000
0000
1001
0000
0000
0000
0020
0000
0000
0030
,  // measure 24
1001
0000
0011
0000
1100
2000
0020
3030
,  // measure 25
1010
0000
1001
0000
0011
0002
0200
0303
,  // measure 26
0101
0000
1001
0000
1100
2000
0020
3030
,  // measure 27
1010
1000
1001
0001
0011
0002
0200
0303
,  // measure 28
1001
0000
0000
0000
1010
0000
0000
0010
0000
0010
0000
0010
0M00
0010
0001
1000
,  // measure 29
0010
0000
0000
0000
0101
0000
0000
0001
0000
0001
0000
0100
00M0
0100
1000
0010
,  // measure 30
0100
0000
0000
0000
0110
0000
0000
0001
0000
0010
0000
0010
0M00
0010
1000
0100
,  // measure 31
1000
0010
1000
0001
0010
0100
0010
0001
0000
1000
0000
0010
0001
0010
1000
0001
,  // measure 32
1000
0000
1000
0100
1000
0000
0010
0000
0100
0001
2000
3001
0020
0000
0100
0030
,  // measure 33
0010
0000
0001
0100
0001
0000
0100
0000
0010
1000
0002
1003
0200
0000
0010
0300
,  // measure 34
0100
0000
1000
0010
1000
0000
0100
0000
0010
0001
2000
3001
0200
0000
0010
0300
,  // measure 35
0100
0000
0001
1000
0001
0000
0010
0000
0100
1000
0002
1003
0200
0000
0310
0000
,  // measure 36
0001
0000
0100
0001
0100
0000
0010
0000
1000
0100
1000
0010
0100
0000
0001
0000
,  // measure 37
0010
0000
0100
1000
0100
0000
0010
0000
0001
0010
0001
0100
0010
0000
1000
0000
,  // measure 38
0100
1000
0001
0100
0010
0100
0001
1000
0100
1000
0010
1000
0001
0100
0010
1000
,  // measure 39
0100
0000
0000
0000
1001
0000
0000
1000
0010
1000
0001
0100
1000
0100
0001
1000
,  // measure 40
0100
0000
0000
0100
1000
0000
0010
0000
0100
0001
0000
0001
0100
0000
0010
0000
,  // measure 41
1000
0000
0000
1000
0100
0000
0010
0000
0001
0010
0000
0010
0001
0000
0100
0000
,  // measure 42
0010
0000
0000
0010
1000
0000
0001
0000
1000
0100
0000
0100
1000
0000
0010
0000
,  // measure 43
0100
0000
0000
0100
0001
0000
1000
0000
0100
0010
0000
0010
0100
0000
1000
0000
,  // measure 44
0001
0100
0001
1000
0100
0010
0100
1000
,  // measure 45
0010
0100
0010
1000
0001
0010
0100
0010
,  // measure 46
0001
0100
0001
1000
0100
1000
0010
0100
0001
0100
0010
1000
0100
0010
0100
1000
,  // measure 47
0001
0000
0001
0010
0100
1000
0100
0001
,  // measure 48
0100
0000
1000
0000
1000
0000
0000
1000
0000
0001
0000
0010
0000
0000
0010
0000
,  // measure 49
0001
0000
0001
0000
0100
0000
0000
0100
0000
0010
0000
1000
0000
0000
1000
0000
,  // measure 50
0100
0000
0100
0000
0010
0000
0000
0010
0000
0001
0000
0100
0000
0000
0100
0000
,  // measure 51
0001
0000
0001
0000
0010
0000
0000
0010
0000
1000
0000
0010
0000
0001
0000
0100
,  // measure 52
0010
0000
0010
0000
1000
0000
0000
1000
0000
0001
0000
0100
0000
0000
0100
0000
,  // measure 53
0010
0000
0010
0000
1000
0000
0000
1000
0000
0100
0000
0010
0000
0000
0010
0000
,  // measure 54
0001
0000
0001
0000
0100
0000
0000
1000
0000
0100
0000
0001
0000
0000
0001
0000
,  // measure 55
0020
0000
0000
0000
0031
1000
0001
0000
1000
0010
0100
0010
0000
0010
0000
1000
,  // measure 56
0001
0000
0010
0000
0010
0000
0000
0010
0000
0001
0000
1000
0010
0000
1000
0000
,  // measure 57
0100
0000
0100
0000
0010
0000
0000
0010
0000
0100
0000
1000
0001
0000
0100
0000
,  // measure 58
0010
0000
0010
0000
0100
0000
0000
0100
0000
0001
0000
1000
0100
0000
1000
0000
,  // measure 59
0010
0000
0010
0000
0100
0000
0000
0100
0000
1000
0000
0100
0000
0001
0000
0010
,  // measure 60
0100
0000
1000
0000
1000
0000
0000
1000
0000
0010
0000
0100
0001
0000
1000
0000
,  // measure 61
0001
0000
0001
0000
0010
0000
0000
0010
0000
0001
0000
0100
0010
0000
0100
0000
,  // measure 62
0010
1000
0010
1000
0001
0010
0001
0100
0010
1000
0010
0100
0010
1000
0001
0010
,  // measure 63
0200
0000
0010
0000
0010
0300
0100
0000
,  // measure 64
1001
0000
0000
0000
;

//---------------dance-single - ----------------
#NOTES:
     dance-single:
     Mu-box:
     Hard:
     8:
     0.523810,0.507937,0.333333,0.222222,0.658730,462.000000,420.000000,42.000000,28.000000,0.000000,0.000000,0.523810,0.507937,0.333333,0.222222,0.658730,462.000000,420.000000,42.000000,28.000000,0.000000,0.000000:
// measure 0
0000
0000
0000
0000
,  // measure 1
0000
0000
0000
0000
,  // measure 2
0000
0000
0000
0000
,  // measure 3
0000
0000
0000
0000
,  // measure 4
1000
0100
1000
0100
0010
0001
0100
0001
,  // measure 5
1000
0010
1000
0010
0100
0001
1000
0100
,  // measure 6
1000
0010
0100
0001
0100
0010
1000
0100
,  // measure 7
0010
0001
0010
0100
1000
0010
0100
0001
,  // measure 8
1001
0000
0000
0000
0001
0000
0000
0100
0000
0100
0000
0010
0000
0010
1000
0000
,  // measure 9
0001
0000
0000
0000
1000
0000
0000
0100
0000
0100
0000
0010
0000
0010
0001
0000
,  // measure 10
1000
0000
0000
0000
0010
0000
0000
0010
0000
0010
0000
0001
0000
0010
1000
0000
,  // measure 11
0001
0000
0000
0000
0001
0000
0000
0001
0000
0001
0000
0010
0100
0010
1000
0000
,  // measure 12
0010
0000
0000
0000
0010
0000
0000
0001
0000
0001
0000
0001
0000
0100
0010
0000
,  // measure 13
1000
0000
0000
0000
0001
0000
0000
0001
0000
0010
0000
0100
0000
1000
0010
0000
,  // measure 14
0100
0000
0000
0000
0010
0000
0000
0100
0000
0100
0000
0010
0000
1000
0001
0000
,  // measure 15
1000
0000
0000
0000
0001
0000
0000
1000
0000
1000
0000
0010
0100
0010
0001
0000
,  // measure 16
0110
0000
0000
0000
1000
0000
0000
0100
0000
0100
0000
0010
0000
0010
0001
0000
,  // measure 17
0100
0000
0000
0000
0100
0000
0000
0100
0000
0100
0000
0010
0000
0010
1000
0000
,  // measure 18
0100
0000
0000
0000
0100
0000
0000
0100
0000
0100
0000
0010
0000
0010
0001
0000
,  // measure 19
1000
0000
0000
0000
1000
0000
0000
0010
0000
0010
0000
0100
0000
0100
0001
0000
,  // measure 20
0002
0003
0020
0030
0200
0300
2000
3000
,  // measure 21
0020
0030
0200
0300
0002
0003
2000
3000
,  // measure 22
0100
1000
0010
1000
0001
0010
0001
1000
,  // measure 23
1000
0001
0100
0020
0000
0000
0030
0000
1001
0000
0000
0000
0200
0000
0300
0000
,  // measure 24
1001
0000
0101
0000
1010
2000
0200
3300
,  // measure 25
1100
0000
1001
0000
0101
0002
0020
0033
,  // measure 26
0011
0000
1001
0000
1010
2000
0200
3300
,  // measure 27
1100
1000
1001
0001
0101
0002
0020
0033
,  // measure 28
0001
0000
0000
0000
1001
0000
0000
0001
0000
0001
0000
0001
0000
0100
0010
0000
,  // measure 29
1000
0000
0000
0000
1010
0000
0000
1000
0000
0010
0000
0100
0000
0001
0010
0000
,  // measure 30
0100
0000
0000
0000
0110
0000
0000
0010
0000
0010
0000
0100
0000
1000
0001
0000
,  // measure 31
0100
0000
0000
0000
0101
0000
0000
0100
0000
0010
0000
0010
1000
0010
0001
0000
,  // measure 32
0010
0000
0101
0000
1010
2000
0200
3300
,  // measure 33
1100
0000
1001
0000
0101
0002
0020
0033
,  // measure 34
0011
0000
1001
0000
1010
2000
0200
3300
,  // measure 35
1100
1000
1001
0001
0101
0002
0020
0033
,  // measure 36
0001
0000
0000
0000
1001
0000
0000
1000
0000
1000
0000
1000
0000
0100
0010
0000
,  // measure 37
0001
0000
0000
0000
0101
0000
0000
0001
0000
0100
0000
0010
0000
1000
0100
0000
,  // measure 38
1000
0000
0000
0000
1100
0000
0000
0100
0000
0100
0000
0010
0000
0100
1000
0000
,  // measure 39
0010
0000
0000
0000
1001
0000
0000
0001
0000
0100
0000
0100
0010
0100
1000
0000
,  // measure 40
0100
0000
0000
0000
0101
0000
0000
0001
0000
0001
0000
0001
0000
0001
0010
0100
,  // measure 41
0010
0000
0000
0000
0110
0000
0000
0100
0000
1000
0000
1000
0000
1000
0010
0100
,  // measure 42
0010
0000
0000
0000
0110
0000
0000
0100
0000
0100
0000
0100
0000
0100
0010
0100
,  // measure 43
0001
0000
0000
0000
0011
0000
0000
0010
0000
0010
0001
1000
0100
0000
1000
0000
,  // measure 44
0001
0000
0000
0000
0101
0000
0000
0001
0000
0001
0000
0001
0000
0100
0010
1000
,  // measure 45
0100
0000
0000
0000
1100
0000
0000
1000
0000
0010
0000
0100
0000
0100
0001
0010
,  // measure 46
0100
0000
0000
0000
0110
0000
0000
0100
0000
0100
0000
0100
0000
0100
1000
0001
,  // measure 47
0100
0000
0001
0010
0100
1000
0100
0001
,  // measure 48
0100
0000
0100
0000
1000
0000
0000
1000
0000
0010
0000
0100
0000
0000
0100
0000
,  // measure 49
0001
0000
0001
0000
0010
0000
0000
0010
0000
0100
0000
1000
0000
0000
1000
0000
,  // measure 50
0010
0000
0010
0000
0100
0000
0000
0100
0000
0001
0000
0010
0000
0000
0010
0000
,  // measure 51
0100
0000
0100
0000
1000
0000
0000
0010
0000
0001
0000
0010
0000
1000
0000
0100
,  // measure 52
0010
0000
0010
0000
0001
0000
0000
0001
0000
0100
0000
0010
0000
0000
0010
0000
,  // measure 53
1000
0000
1000
0000
0100
0000
0000
0100
0000
0010
0000
0001
0000
0000
0001
0000
,  // measure 54
0100
0000
0100
0000
0010
0000
0000
0001
0000
0010
0000
1000
0000
0000
0100
0000
,  // measure 55
0020
0000
0000
0000
0031
1000
0001
0000
0100
0010
0100
0001
0000
0001
0000
1000
,  // measure 56
0100
0000
0100
0000
1000
0000
0000
1000
0000
0001
0000
0100
0000
0000
0100
0000
,  // measure 57
0010
0000
0010
0000
0100
0000
0000
0100
0000
0001
0000
1000
0000
0000
1000
0000
,  // measure 58
0100
0000
0100
0000
0010
0000
0000
0010
0000
0001
0000
1000
0000
0000
1000
0000
,  // measure 59
0010
0000
0010
0000
0100
0000
0000
0100
0000
1000
0000
0100
0000
0001
0000
1000
,  // measure 60
0100
0000
0100
0000
0010
0000
0000
0010
0000
0001
0000
1000
0000
0000
1000
0000
,  // measure 61
0010
0000
0010
0000
0100
0000
0000
0100
0000
0001
0000
1000
0000
0000
1000
0000
,  // measure 62
0100
0000
0100
0000
1000
0000
0000
1000
0000
0001
0000
1000
0000
0000
0010
0000
,  // measure 63
0200
0010
0010
0301
,  // measure 64
1001
0000
0000
0000
;
