#TITLE:A Visit to the Dentist;
#SUBTITLE:;
#ARTIST:Bees?;
#TITLETRANSLIT:;
#SUBTITLETRANSLIT:;
#ARTISTTRANSLIT:;
#GENRE:;
#CREDIT:;
#BANNER:[SloweRemix] - A Visit to the Dentist.png;
#BACKGROUND:[SloweRemix] - A Visit to the Dentist-bg.png;
#LYRICSPATH:;
#CDTITLE:cdtitle.png;
#MUSIC:[SloweRemix] - A Visit to the Dentist.ogg;
#OFFSET:0.000000;
#SAMPLESTART:20.395536;
#SAMPLELENGTH:19.200003;
#SELECTABLE:YES;
#DISPLAYBPM:50.000000:200.000000;
#BPMS:0.000000=100.000000
,116.000000=200.000000
,172.000000=100.000000
,176.000000=50.000000
,192.000000=100.000000
,206.000000=30000.000000
,208.000000=100.000000
,228.000000=200.000000
,244.000000=0.999000
;
#STOPS:206.000000=0.299000,
206.500000=0.299000,
207.000000=0.299000,
207.500000=0.299000
;
#BGCHANGES:244.000=white reverse flash=0.500=0=0=1====#000000=,
99999=-nosongbg-=1.000=0=0=0 // don't automatically add -songbackground-
;
#KEYSOUNDS:;
#ATTACKS:TIME=134.399994:LEN=99.989998:MODS=*999.9999 Dark:TIME=92.400002:LEN=1.200000:MODS=*1.66667 Dark,*1.66667 Stealth:TIME=93.599998:LEN=3.600000:MODS=*999 No Dark, *999 No Stealth:TIME=97.199997:LEN=1.200000:MODS=*1.66667 Dark, *1.66667 Stealth:TIME=98.400002:LEN=3.600000:MODS=*999 No Dark,*999 No Stealth:TIME=102.000000:LEN=1.200000:MODS=*1.66667 Dark, *1.66667 50% Stealth:TIME=103.199997:LEN=3.600000:MODS=*999 No Dark, *999 No Stealth:TIME=106.800003:LEN=1.200000:MODS=*1.66667 Dark, *1.66667 50% Stealth:TIME=108.000000:LEN=5.000000:MODS=*999 No Dark, *999 No Stealth;

//---------------dance-single - ----------------
#NOTES:
     dance-single:
     C 02 X 02:
     Beginner:
     2:
     0.086046,0.154935,0.007257,0.166909,0.000000,83.000000,82.000000,1.000000,23.000000,0.000000,0.000000,0.086046,0.154935,0.007257,0.166909,0.000000,83.000000,82.000000,1.000000,23.000000,0.000000,0.000000:
0000
0000
0000
0000
,
0000
0000
0000
0000
,
0000
0000
0000
0000
,
0000
0000
0000
0000
,
0000
0000
0000
0000
,
0000
0000
0000
0000
,
0000
0000
0000
0000
,
0000
0000
0000
0000
,
0000
0000
0001
0000
,
0000
0000
0001
0000
,
0001
0000
1000
0000
,
0000
0000
1000
0000
,
1000
0000
0010
0000
,
0000
0000
0010
0000
,
0010
0000
0100
0000
,
0200
0000
0000
0000
,
0300
0000
0001
0000
,
0001
0000
0001
0000
,
1000
0000
1000
0000
,
0010
0000
0010
0000
,
0200
0000
0000
0300
,
0001
0000
0001
0000
,
0010
0000
0010
0000
,
0100
0000
0100
0000
,
2000
0000
0000
3000
,
0002
0000
0000
0003
,
2000
0000
0000
3000
0000
0000
0000
0000
,
2000
0000
0000
3000
0000
0000
0000
0000
,
0100
0000
0010
0000
,
0200
0000
0000
0000
,
0300
0000
0100
0000
,
0200
0000
0300
0000
,
0020
0000
0030
0000
,
0002
0000
0000
0000
,
0003
0000
1000
0000
,
2000
0000
3000
0000
,
0002
0000
0003
0000
,
2000
0000
0000
0000
,
3000
0000
0010
0000
,
0020
0000
0030
0000
,
2000
0000
3000
0000
,
0020
0000
0000
0000
,
0000
0000
0000
0030
,
0200
0000
0300
0000
,
0001
0001
2000
3000
,
0010
0010
0200
0300
,
0001
0010
0002
0003
,
1000
0100
2000
3000
,
0001
0000
0001
0000
,
1000
0000
1000
0000
,
0010
0000
0010
0000
,
0100
0000
0001
0001
,
0001
0000
0010
0000
,
0001
0001
0001
0000
,
0100
0000
0010
0000
,
0100
0100
0100
0000
,
0010
0010
0010
0000
,
2000
0000
0000
0000
,
0000
0000
0000
0000
,
0002
0000
0000
0000
,
3003
0000
0000
0000
,
1001
0000
0000
0000
;

//---------------dance-single - ----------------
#NOTES:
     dance-single:
     C 04 X 05:
     Easy:
     4:
     0.154468,0.243469,0.029028,0.304790,0.000000,149.000000,145.000000,4.000000,42.000000,0.000000,0.000000,0.154468,0.243469,0.029028,0.304790,0.000000,149.000000,145.000000,4.000000,42.000000,0.000000,0.000000:
0000
0000
0000
0000
,
0000
0000
0000
0000
,
0000
0000
0000
0000
,
0000
0000
0000
0000
,
0000
0000
0000
0000
1000
0000
0000
2000
,
0000
0000
0000
3000
0001
0000
0000
0002
,
0000
0000
0000
0003
0100
0000
0000
0200
,
0000
0000
0000
0300
0010
0000
0100
0000
,
0020
0000
0000
0030
1000
0000
0000
2000
,
0000
0000
0100
0010
,
0001
0000
0000
3000
0001
0000
0000
0002
,
0000
0000
0010
1000
,
0100
0000
0000
0003
0100
0000
0000
0200
,
0000
0000
0001
0010
,
1000
0000
1000
0001
,
0320
0000
0000
0000
,
0200
0000
0000
0330
0100
0000
0100
0000
,
0001
0001
0002
0003
,
0010
0010
0020
0030
,
0100
0100
0200
0300
,
2000
0000
0002
3003
,
1001
0001
1000
1000
,
0010
0010
0100
0100
,
0001
0001
0100
0100
,
0020
0000
2000
3030
,
2010
0000
0000
3001
,
0002
0000
0010
1000
,
0203
0000
0310
1000
,
0020
0000
2030
0000
,
3002
0000
0000
0000
,
0003
0000
0010
0100
,
0020
0000
0030
0000
,
0100
1000
0000
1000
,
0200
0000
0000
0000
,
0300
0000
1000
0001
,
2000
0000
3000
0000
,
0010
0100
0000
0100
,
0002
0000
0000
0000
,
0003
0000
0010
0100
,
0020
0000
0030
0000
,
0001
1000
0000
1000
,
0002
0000
0000
0000
,
0000
0000
0000
0003
,
2000
0000
3000
0000
,
0001
0000
0001
0000
0100
0001
0200
0300
,
0010
0000
0010
0000
1000
0010
2000
3000
,
0001
0000
0010
0000
0100
0010
0002
0000
,
1003
0000
0010
0000
0100
0010
2000
0000
,
3001
0010
0100
1000
,
0100
0010
0002
0003
,
1000
0010
0100
0001
,
0100
0010
2000
3001
,
1001
1000
0010
1000
,
0010
0100
0020
0030
,
0100
0001
0100
0001
,
0010
0000
0001
0000
0020
0000
0000
0030
,
0100
1000
0200
0000
,
0302
0000
0000
0000
,
0023
0000
0000
0000
,
2030
0000
0000
0000
,
3200
0000
0000
0300
,
0110
0000
0000
0000
;

//---------------dance-single - ----------------
#NOTES:
     dance-single:
     C 06 X 08:
     Medium:
     6:
     0.275762,0.420537,0.079826,0.399129,0.123367,266.000000,255.000000,11.000000,55.000000,0.000000,0.000000,0.275762,0.420537,0.079826,0.399129,0.123367,266.000000,255.000000,11.000000,55.000000,0.000000,0.000000:
// measure 0
0000
0000
0000
0000
,  // measure 1
0000
0000
0000
0000
,  // measure 2
0000
0000
0000
0000
,  // measure 3
0000
0000
0000
0000
,  // measure 4
0000
0000
0000
0000
0000
0000
0000
0000
1000
0000
0000
0010
0000
0000
0200
0000
,  // measure 5
0000
0000
0000
0000
0000
0000
0300
0000
0001
0000
0000
0100
0000
0000
0020
0000
,  // measure 6
0000
0000
0000
0000
0000
0000
0030
0000
1000
0000
0000
0001
0000
0000
0020
0000
,  // measure 7
0000
0030
0001
1000
,  // measure 8
0200
0000
0000
0000
0000
0000
0000
0000
0310
0000
0000
0100
0000
0000
2002
0000
,  // measure 9
0000
0000
0000
0000
3003
0000
0001
0000
0010
0000
0000
0100
0000
0000
1000
0000
,  // measure 10
0002
0000
0000
0000
0000
0000
0000
0000
1003
0000
0000
0010
0000
0000
0202
0000
,  // measure 11
0000
0000
0000
0000
0303
0000
0100
0000
0010
0000
0000
1000
0000
0000
0001
0000
,  // measure 12
0020
0000
0000
0000
0000
0000
0030
0000
0001
0000
0000
0010
0000
0000
2200
0000
,  // measure 13
0000
0000
0000
0000
3300
0000
0100
0000
1000
0000
0000
0010
0000
0000
1000
0000
,  // measure 14
0200
0000
0000
0000
0000
0000
0310
0000
0001
0000
0000
0100
0000
0000
0001
0000
,  // measure 15
0020
0001
0100
1000
,  // measure 16
0230
0000
0310
0010
,  // measure 17
0001
0010
0100
0000
0100
0010
0001
0000
,  // measure 18
1000
0010
0100
0000
0100
0010
1000
0000
,  // measure 19
0001
1000
0100
0000
0100
1000
0001
0000
,  // measure 20
2000
0000
0000
3002
0000
0000
0023
0000
0032
0000
0000
2003
0000
0000
3000
0000
,  // measure 21
0001
0010
1000
0000
1000
0010
0001
0000
,  // measure 22
1000
0010
0001
0000
0001
0010
1000
0000
,  // measure 23
0001
0100
1000
0000
1000
0100
0001
0000
,  // measure 24
1000
0000
0000
0100
0000
0000
0001
0000
0100
0000
0000
1000
0000
0000
0000
0000
,  // measure 25
2020
0000
0000
0000
0000
3030
0001
0100
,  // measure 26
0020
0000
0000
0000
0000
0000
1030
0000
0010
0000
0000
0001
0000
0000
0010
0000
,  // measure 27
2000
0000
0000
0000
0000
0000
0000
3000
0001
0000
0000
0010
0000
0000
0001
0000
,  // measure 28
0200
0000
0000
0000
0000
0000
0000
0000
0302
0000
0000
0023
0000
0000
0230
0000
,  // measure 29
2300
0100
0000
0100
,  // measure 30
3000
0100
0010
0001
,  // measure 31
2000
0010
3000
0010
,  // measure 32
0100
0000
0001
0100
0000
0000
0001
0000
,  // measure 33
2000
0100
0000
0100
,  // measure 34
3000
0100
1000
0010
,  // measure 35
0200
0001
0300
0001
,  // measure 36
0010
0000
0001
0100
0000
0000
0001
0000
,  // measure 37
1002
1000
0000
0010
,  // measure 38
0003
0010
0001
0100
,  // measure 39
0020
1000
0030
1000
,  // measure 40
0100
0000
0010
0100
0000
0000
0010
0000
,  // measure 41
0002
0010
0000
1000
,  // measure 42
0000
0100
0000
1003
,  // measure 43
2000
0000
0000
0010
0000
0000
0000
0000
3002
0000
0000
0100
0000
0000
0000
0000
,  // measure 44
1003
0010
0100
0000
0001
0010
0200
0300
,  // measure 45
1000
0100
0001
0000
0001
0100
0020
0030
,  // measure 46
0001
0000
0010
0000
0100
0000
1000
0000
0002
0000
0000
0003
0000
0000
0000
0000
1000
0000
0000
0010
0000
0000
0100
0000
0002
0000
0000
0000
0000
0000
0000
0000
,  // measure 47
1003
0000
0010
0000
0001
0000
0010
0000
2000
0000
0000
3000
0000
0000
0000
0000
0001
0000
0000
0100
0000
0000
0010
0000
2000
0000
0000
0000
0000
0000
0000
0000
,  // measure 48
3001
0000
0100
0000
0010
0000
1000
0000
0200
0000
0000
0310
0000
0000
0000
0000
,  // measure 49
0100
1000
0010
0100
1000
0100
0001
0000
,  // measure 50
0010
0000
0100
0000
1000
0000
0100
0000
0020
0000
0000
0031
0000
0000
0000
0000
,  // measure 51
1000
0000
0000
0010
0000
0000
0001
0000
0010
0000
0000
0000
0110
0000
0000
0000
,  // measure 52
1000
0000
0010
0000
0100
0000
0001
0000
0020
0000
0030
0100
0000
0000
0100
0000
,  // measure 53
0010
0001
1000
0010
0100
0010
1000
0000
,  // measure 54
0001
0000
0010
0000
0001
0000
0100
0000
0020
0000
0030
1000
0000
0000
1000
0000
,  // measure 55
0200
0000
0000
0302
0000
0000
0203
0000
2300
0000
0000
0000
0000
0000
3001
0000
,  // measure 56
0020
0000
0000
2030
0000
0000
3020
0000
0032
0000
0000
0000
0000
0000
0013
0000
,  // measure 57
0110
0000
0000
0100
0000
0000
1000
0000
,  // measure 58
1100
0000
0000
0010
0000
0000
0001
0000
,  // measure 59
0011
0000
0000
1000
0000
0000
0010
0000
,  // measure 60
1010
0000
0000
0100
0000
0000
0001
0000
,  // measure 61
0101
0000
0000
0000
;

//---------------dance-single - ----------------
#NOTES:
     dance-single:
     C 09 X 14:
     Hard:
     9:
     0.603359,0.730406,0.312046,0.391872,0.743832,582.000000,539.000000,43.000000,54.000000,0.000000,0.000000,0.603359,0.730406,0.312046,0.391872,0.743832,582.000000,539.000000,43.000000,54.000000,0.000000,0.000000:
// measure 0
0000
0000
0000
0000
,  // measure 1
0000
0000
0000
0000
,  // measure 2
0000
0000
0000
0000
,  // measure 3
0000
0000
0000
0000
,  // measure 4
0000
0000
0000
0000
0000
0000
0000
0000
1010
0000
0000
1001
0000
0000
2200
0000
,  // measure 5
0000
0000
0000
0000
0000
0000
3300
0000
0011
0000
0000
1001
0000
0000
0201
0000
,  // measure 6
0000
0000
0020
0000
0000
0000
0330
0000
1010
0000
1000
0100
0000
0010
0001
0000
,  // measure 7
0000
0001
0000
0000
1000
0000
0010
0000
0100
0010
1000
0000
0001
0000
0020
0000
,  // measure 8
0200
0000
0000
0000
0000
0000
0330
0000
0110
0000
0000
1100
0000
0000
1002
0000
,  // measure 9
0000
1000
1000
0000
0013
0000
0001
0010
0100
0000
0100
1000
0000
1000
0001
0000
,  // measure 10
0000
0001
0010
0100
1000
0100
0010
0000
0110
0000
0000
0011
0000
0000
2001
0000
,  // measure 11
0000
0001
0001
0000
3010
0000
0010
1000
0100
0000
0100
1000
0000
1000
0001
0000
,  // measure 12
0000
0001
0100
0010
1000
0010
0100
0000
0101
0000
0000
1100
0000
0000
2010
0000
,  // measure 13
0000
0001
0001
0000
3100
0000
1000
0000
0010
0000
0000
0010
0100
0000
0001
0000
,  // measure 14
0010
0000
0001
1000
0000
0001
1000
0000
0100
0000
1000
0010
0000
1000
0010
0100
,  // measure 15
0001
0000
1000
0000
0001
0010
0000
0010
0100
1000
0010
0100
1000
0000
0100
0004
,  // measure 16
0400
0000
0000
0000
0000
0000
0300
0003
0100
0000
0000
0000
0100
0000
0000
0000
,  // measure 17
0001
0010
0100
0010
0001
0000
0000
0002
0000
0103
0010
1000
0001
0000
0001
0000
,  // measure 18
1000
0010
0100
0010
1000
0000
0001
2000
0000
3100
0010
0001
1000
0000
1000
0000
,  // measure 19
0010
1000
0001
1000
0010
0000
0000
0020
0000
0031
1000
0100
0001
0000
0001
0000
,  // measure 20
2000
0000
0000
3020
0000
0000
0230
0000
0320
2030
0000
3002
0000
0000
0023
0000
,  // measure 21
0130
0010
0100
0010
0001
1000
0001
1000
0000
0001
1000
0010
1000
0001
1000
0100
,  // measure 22
0010
0001
0010
0001
0100
0001
0100
0001
0000
0100
0010
0100
0001
1000
0010
1000
,  // measure 23
0001
0100
0001
0100
0010
1000
0010
1000
0000
0001
0010
0100
1000
0100
0010
0001
,  // measure 24
2000
0000
0000
3200
0000
0000
0320
0000
0230
2300
0000
3002
0000
0000
0203
0000
,  // measure 25
0301
0010
0100
0010
0001
0010
0100
0010
0001
0010
0100
0010
1000
0010
0002
0000
,  // measure 26
1003
0010
0100
0010
1000
0010
0100
0010
1000
0010
0100
0010
0001
0010
2000
0000
,  // measure 27
3001
0100
0010
0100
1000
0100
0010
0100
0001
0000
0001
1000
0000
1000
0001
0000
,  // measure 28
0200
0000
0300
0200
0300
0100
0200
0300
0101
0000
0000
1010
0000
0000
1001
0000
,  // measure 29
0001
0010
0100
1000
0010
0100
0010
1000
,  // measure 30
0000
1000
0100
0010
0001
0000
1001
0000
,  // measure 31
1000
0010
0100
0001
0010
0100
0010
0001
,  // measure 32
0000
0001
0100
0010
1000
0000
1010
0000
,  // measure 33
0010
0100
0001
0010
0001
0100
0010
1000
,  // measure 34
0000
1000
0001
0100
0010
0000
0110
0000
,  // measure 35
0100
0001
0010
0100
0010
0001
0100
0010
,  // measure 36
0000
0010
1000
0001
0100
0000
0101
0000
,  // measure 37
1100
0000
0100
0010
0001
0100
1000
0001
,  // measure 38
0000
0001
1000
0100
0001
0010
1000
0000
,  // measure 39
1010
0000
0010
0100
1000
0010
0001
1000
,  // measure 40
0000
1000
0001
0010
1000
0100
0010
0000
,  // measure 41
0110
0000
0100
0010
0001
1000
0001
0100
,  // measure 42
1000
0100
0010
0001
0010
1000
0001
0000
,  // measure 43
1001
0000
0010
1001
0000
0100
1001
0000
1000
0010
0000
0100
0000
0000
0001
0000
,  // measure 44
1000
0010
0100
0010
0100
0000
0001
0000
0020
0000
0000
0130
0000
0000
1000
0001
0200
0000
0000
0310
0000
1000
0010
0000
0200
0000
0000
0000
0300
0000
0000
0000
,  // measure 45
0001
0010
0100
0010
0100
0000
1000
0000
0020
0000
0000
0130
0000
0000
0001
1000
0020
0000
0000
0130
0000
0001
0010
0000
0200
0000
0000
0000
0300
0000
0000
0000
,  // measure 46
0010
1000
0010
0100
0010
0000
0001
0000
2000
0000
0000
3010
0000
0000
0100
0001
1000
0000
0000
0100
0001
1000
0010
0000
0002
0000
0000
0000
0000
0000
0000
0000
,  // measure 47
0103
1000
0100
0010
0100
0000
0001
0000
2000
0000
0000
3100
0000
0000
0010
0001
1000
0000
0000
0010
0001
1000
0100
0000
0002
0000
0000
0000
0000
0000
0000
0000
,  // measure 48
1003
0010
0100
0001
1000
0100
0010
0001
2000
0000
0000
3001
0000
0000
0001
1000
,  // measure 49
0010
0100
0001
1000
0100
0010
0001
0010
2000
0000
3020
0000
0031
0000
0001
0010
,  // measure 50
0100
1000
0010
1000
0100
0010
0100
1000
0010
0010
0000
0100
0100
0000
0001
0100
,  // measure 51
2000
0000
0000
3020
0000
0000
0032
0000
1003
0000
1010
0000
0110
0000
0101
0000
,  // measure 52
0100
0001
0010
2000
0000
3001
0100
0010
0001
1000
0010
0100
1000
0001
0010
0100
,  // measure 53
0010
1000
0100
0002
0000
1003
0010
0100
1000
0100
0001
0100
0010
0100
0010
0001
,  // measure 54
1000
0010
0001
2000
0000
3001
0010
0100
0001
0010
0100
0010
0001
1000
0010
1000
,  // measure 55
0001
0100
1000
0020
0000
1030
0100
0001
1000
0100
0001
0020
0000
0031
0100
1000
,  // measure 56
0001
0010
1000
0200
0000
1300
0010
0001
1000
0010
0001
0200
0000
0301
0010
0000
,  // measure 57
0011
0000
0000
1010
0000
0010
0110
0000
,  // measure 58
0101
0000
0000
0011
0000
1000
0010
0100
,  // measure 59
0101
0000
0000
0011
0000
0100
1100
0000
,  // measure 60
1010
0000
0000
0110
0000
0100
0001
1000
,  // measure 61
1001
0000
0000
0000
;
