#TITLE:Xcited;
#SUBTITLE:;
#ARTIST:UPBEAT PARTY GUYS;
#TITLETRANSLIT:;
#SUBTITLETRANSLIT:;
#ARTISTTRANSLIT:;
#GENRE:Happy Hardcore;
#CREDIT:;
#MENUCOLOR:;
#METERTYPE:DDR;
#BANNER:Xcited.png;
#BACKGROUND:Xcited-bg.png;
#LYRICSPATH:;
#CDTITLE:CDtitle.png;
#MUSIC:Xcited.ogg;
#OFFSET:-1.160;
#SAMPLESTART:66.300;
#SAMPLELENGTH:18.306;
#SELECTABLE:YES;
#LISTSORT:;
#BPMS:0.000=210.000;
#STOPS:;
#BGCHANGES:
;
#ATTACKS:;

//---------------dance-single - SZ64saulius----------------
#NOTES:
     dance-single:
     SZ64saulius:
     Challenge:
     11:
     0.911,1.000,0.022,0.055,0.509:
0000
0000
0000
0000
,
0000
0000
0000
0000
,
0000
0000
0000
0000
,
0000
0000
0000
0000
,
1000
0100
0010
0001
1000
0001
1000
0001
,
1000
0000
0010
0000
0100
0000
0001
0000
0010
0000
0100
0000
1000
0010
1000
0010
,
1000
0100
1000
0010
0001
0010
1000
0100
,
0010
0000
0001
0000
0010
0000
0100
1000
0100
1000
0100
0000
0001
0000
1000
0000
,
0001
0100
1000
0100
0001
0010
0100
1000
,
0100
0000
0001
0000
0100
0000
1000
0000
0100
0000
0010
0000
0001
0010
0001
0010
,
0001
0010
1000
0010
0001
0100
1000
0100
,
0001
0000
1000
0000
0001
0000
1000
0010
1000
0010
1000
0000
0100
0000
0001
0000
,
0100
0000
1000
0000
0010
0000
1000
0000
0010
0000
0100
0000
0001
0010
0001
0010
,
0001
1000
0001
0010
0100
1000
0001
1000
,
0100
0010
0100
0010
0001
1000
0001
1000
,
0000
0000
0000
0000
,
2001
0000
0000
0000
,
3200
0000
0000
0000
,
0302
0000
0000
0000
,
0203
0000
0000
0300
,
1000
0000
0000
0000
0001
0000
0100
0000
0010
0000
1000
0001
1000
0000
0010
0000
,
1000
0000
0000
0000
0001
0000
0010
0000
0100
0000
1000
0010
1000
0000
0100
0000
,
0001
0000
0000
0000
0100
0000
1000
0000
0010
0000
1000
0001
1000
0000
0001
0000
,
1000
0100
0010
0001
,
0010
0000
0000
0000
0100
0000
0010
0000
0100
0000
1000
0001
1000
0000
0001
0000
,
1000
0000
0000
0000
0010
0000
0001
0000
0010
0000
1000
0100
1000
0000
0010
0000
,
0001
0000
0000
0000
0010
0000
1000
0000
0100
0000
1000
0010
1000
0000
0001
0000
,
1000
0010
0100
0001
,
1000
0000
0000
0000
0010
0000
0001
0000
0010
0000
1000
0001
1000
0000
0010
0000
,
1000
0000
0000
0000
0100
0000
0010
0000
0001
0000
1000
0010
1000
0000
0001
0000
,
1000
0000
0000
0000
0100
0000
0001
0000
0100
0000
1000
0010
1000
0000
0100
0000
,
0001
0010
0100
1000
,
0001
0000
0000
0000
1000
0000
0100
0000
0010
0000
0001
0100
0001
0000
0010
0000
,
1000
0000
0000
0000
0010
0000
0001
0000
1000
0000
0001
0100
0001
0000
0010
0000
,
1000
0000
0000
0000
0010
0000
0001
0000
1000
0000
0001
0100
0010
0000
1000
0000
,
0001
0000
0000
0000
0100
0000
0000
0000
0010
0000
0000
0000
1000
0001
1000
0001
,
1000
0000
0001
0000
1000
0000
0100
0000
0010
0000
0001
0010
0001
0000
0100
0000
,
0010
0000
0100
0000
0010
0000
0001
0000
1000
0000
0001
0100
0001
0000
0100
0000
,
1000
0100
0010
0000
0001
0100
0010
0000
1000
0010
0100
0000
0001
0010
0100
0000
,
1000
0100
1000
0100
0010
0100
0010
0100
1000
0100
1000
0100
1000
0001
1000
0001
,
1000
0000
0000
0000
,
1000
0000
0010
0000
0100
0000
0001
0000
1001
0000
0000
0000
1000
0001
1000
0001
,
1000
0000
0100
0000
0001
0000
0100
0000
1000
0000
0000
0000
1000
0010
1000
0010
,
1000
0000
0100
0000
0010
0000
0001
0000
1000
0000
0000
0000
0001
0100
0001
0100
,
1000
0000
0100
0000
0001
0000
0100
0000
1000
0000
0001
0000
1000
0010
1000
0010
,
1000
0000
0100
0000
1000
0000
0010
0000
1000
0000
0000
0000
1000
0001
1000
0001
,
1000
0000
0100
0000
1000
0000
0010
0000
1000
0000
0000
0000
0001
1000
0001
1000
,
0001
0000
0010
0000
0001
0000
0100
0000
0001
0000
0000
0000
0001
0100
0001
0100
,
0001
0000
0010
0000
0100
0000
1000
0000
0100
0000
0001
0000
0100
0010
0100
0010
,
0100
0000
1000
0000
0100
0000
0010
0000
0001
0000
0010
0000
0100
1000
0100
1000
,
0100
0010
0100
0001
0100
1000
0100
0001
,
0100
0000
1000
0000
0010
0000
0100
0000
0001
0000
1000
0000
0001
0100
0001
0100
,
1000
0100
0010
0001
0010
1000
0010
0001
,
1000
0000
0100
0000
0010
0000
0001
0000
0100
0000
1000
0000
0100
0001
0100
0001
,
0100
0010
0001
0010
0100
1000
0100
0001
,
0100
0000
1000
0000
0010
0000
0100
0000
0001
0000
1000
0000
0001
0100
0001
0100
,
0010
0000
0100
0000
0001
0000
1000
0000
0100
0000
0010
0000
0001
1000
0001
1000
,
0001
0000
0010
0000
0100
0000
1000
0000
0001
0000
1000
0001
1000
0000
0010
0000
,
1000
0000
0100
0000
0010
0000
0100
0000
0010
0000
0001
1000
0001
0000
1000
0000
,
0001
0000
0100
0000
1000
0000
0100
0000
0001
0000
1000
0010
1000
0000
0100
0000
,
0001
0100
1000
0001
,
1000
0000
0100
0000
0010
0000
0100
0000
0010
0000
0001
1000
0001
0000
0100
0000
,
0001
0000
0010
0000
0100
0000
1000
0000
0010
0000
1000
0001
1000
0000
0100
0000
,
1000
0000
0010
0000
0001
0000
0010
0000
1000
0000
0001
1000
0001
0000
0100
0000
,
1000
0100
0001
1000
,
0001
0000
0100
0000
0010
0000
1000
0000
0001
0000
0010
0000
0100
1000
0100
1000
,
0100
0000
0010
0000
0001
0000
1000
0000
0001
0000
0100
0000
0010
1000
0010
1000
,
0010
0000
0100
0000
0010
0000
0100
0000
0010
0000
0001
0000
1000
0001
1000
0001
,
1000
0000
0100
0000
0001
0000
0100
0000
1000
0000
0001
0000
1000
0001
1000
0001
,
1000
0000
0100
0000
0010
0000
0001
0000
0010
0000
1000
0010
0001
0000
1000
0000
,
0001
0000
0010
0000
0100
0000
1000
0000
0001
0000
1000
0100
0010
0000
0001
0000
,
1000
0000
0100
0000
0010
0000
0100
0000
0010
0000
0001
0010
0001
0000
1000
0000
,
0001
0100
0010
0100
,
1000
0010
0100
0001
1000
0001
1000
0100
,
0010
0000
0000
0001
0000
0000
0010
0000
0000
0001
0000
0000
0010
0000
0000
0100
0000
0000
0010
0000
0000
0100
0000
0000
1000
0000
0001
0000
1000
0000
0001
0000
1000
0000
0001
0000
1000
0000
0001
0000
1000
0000
0001
0000
1000
0000
0001
0000
,
1000
0000
0000
0000
,
2000
0000
0000
0000
,
3001
0000
0000
0000
;

//---------------dance-single - SZ64saulius----------------
#NOTES:
     dance-single:
     SZ64saulius:
     Hard:
     8:
     0.673,0.716,0.000,0.098,0.011:
0000
0000
0000
0000
,
0000
0000
0000
0000
,
0000
0000
0000
0000
,
0000
0000
0000
0000
,
1000
0100
1000
0010
,
0001
0000
0010
0000
1000
0000
0001
1000
,
0001
0010
0100
1000
,
0001
1000
0001
1000
0100
0010
0100
0010
,
0001
0000
0100
0000
0010
0000
1000
0001
,
1000
0000
0100
0000
0001
0000
0100
1000
,
0001
0000
0010
0000
1000
0000
0010
0001
,
1000
0100
1000
0100
1000
0001
1000
0001
,
1000
0000
0010
0000
0100
0000
0001
0100
,
0001
0000
0010
0000
0100
0000
1000
0010
,
1000
0010
0100
0001
,
0000
0000
0000
0000
,
2000
0000
0000
0000
,
3200
0000
0000
0000
,
0320
0000
0000
0000
,
0002
0000
0000
0033
,
1000
0000
0001
0010
0100
0010
0100
1000
,
0001
0000
1000
0100
0001
0100
1000
0001
,
1000
0000
0001
0100
1000
0100
0001
1000
,
0001
0010
0100
1000
,
0001
0000
1000
0100
0010
0001
1000
0001
,
1000
0000
0001
0010
0100
0010
0100
1000
,
0001
0000
1000
0001
1000
0100
0010
0001
,
1000
0010
0100
0001
,
1000
0000
0001
0010
1000
0010
0001
0100
,
0001
0000
1000
0100
0001
0100
1000
0010
,
1000
0000
0001
0010
0100
0010
0100
1000
,
0001
0100
0010
1000
,
0001
0000
0010
0100
1000
0010
0100
0001
,
1000
0000
0001
0010
0100
1000
0001
0010
,
0001
0000
1000
0010
0001
0010
1000
0100
,
1000
0100
0001
0100
,
1000
0000
0001
1000
0001
0010
0100
1000
,
0001
0000
1000
0100
0001
0100
1000
0010
,
1000
0010
0100
0001
,
1000
0000
0100
0000
0010
0000
0001
0000
4000
0004
0000
0000
0000
0000
0000
0000
,
3003
0000
0000
0000
,
1000
0100
0010
0001
1000
0000
0001
1000
,
0001
0010
0100
1000
0001
0000
1000
0010
,
1000
0100
0001
0100
1000
0000
0001
0010
,
1000
0010
0001
1000
0001
0000
1000
0100
,
0001
0100
1000
0001
1000
0000
0001
0010
,
0100
0010
0100
1000
0001
0000
1000
0010
,
1000
0001
1000
0100
0010
0000
0001
0100
,
0001
0010
1000
0010
0001
0000
1000
0001
,
1000
0100
0001
0100
1000
0100
0010
0001
,
1000
0010
0001
0010
1000
0010
0100
0001
,
1000
0100
0010
0100
0010
0001
1000
0001
,
1000
0100
0010
0001
0010
0100
0010
0100
,
1000
0100
0001
0100
1000
0010
0001
0010
,
1000
0100
0010
0001
0010
1000
0010
0001
,
1000
0010
0100
0001
0010
0100
0010
0100
,
1000
0001
1000
0100
0010
0100
0010
0001
,
1000
0000
0001
0010
0100
1000
0001
1000
,
0100
0000
0001
0100
1000
0010
0001
0010
,
1000
0000
0001
0010
0100
0010
0100
1000
,
0001
0010
0100
1000
,
0001
0000
0010
0100
0010
0100
1000
0001
,
1000
0000
0001
0010
0100
1000
0100
0010
,
0100
0000
0010
0001
0010
0100
1000
0001
,
1000
0010
0100
0001
,
1000
0100
0010
0001
1000
0000
0001
1000
,
0001
0010
0100
1000
0001
0000
1000
0100
,
0001
0100
1000
0001
1000
0000
0001
0010
,
0100
1000
0100
0010
0001
1000
0001
0100
,
0001
0000
0010
0100
1000
0010
0100
0001
,
1000
0000
0100
0001
0100
1000
0001
1000
,
0001
0000
1000
0100
0001
0100
1000
0001
,
1000
0100
0001
0100
,
1000
0010
0001
0010
,
1000
0000
0100
0000
0010
0000
0001
0000
4000
0040
0000
0000
0000
0000
0000
0000
,
3030
0000
0000
0000
,
2000
0000
0000
0000
,
3001
0000
0000
0000
;

//---------------dance-single - SZ64saulius----------------
#NOTES:
     dance-single:
     SZ64saulius:
     Beginner:
     1:
     0.119,0.130,0.000,0.000,0.000: // measure 1
0000
0000
0000
0000
,  // measure 2
0000
0000
0000
0000
,  // measure 3
0000
0000
0000
0000
,  // measure 4
0000
0000
0000
0000
,  // measure 5
1000
0000
0000
0000
,  // measure 6
0010
0000
0000
0000
,  // measure 7
0100
0000
0000
0000
,  // measure 8
0001
0000
0000
0000
,  // measure 9
1000
0000
0000
0000
,  // measure 10
0100
0000
0000
0000
,  // measure 11
0010
0000
0000
0000
,  // measure 12
0001
0000
0000
0000
,  // measure 13
1000
0000
0000
0000
,  // measure 14
0100
0000
0000
0000
,  // measure 15
0001
0000
0000
0000
,  // measure 16
0100
0000
0000
0000
,  // measure 17
1000
0000
0000
0000
,  // measure 18
0100
0000
0000
0000
,  // measure 19
0010
0000
0000
0000
,  // measure 20
0001
0000
0000
0000
,  // measure 21
1000
0000
0000
0000
,  // measure 22
0100
0000
0000
0000
,  // measure 23
0001
0000
0000
0000
,  // measure 24
0100
0000
0000
0000
,  // measure 25
1000
0000
0000
0000
,  // measure 26
0001
0000
0000
0000
,  // measure 27
1000
0000
0000
0000
,  // measure 28
0100
0000
0000
0000
,  // measure 29
0010
0000
0000
0000
,  // measure 30
0001
0000
0000
0000
,  // measure 31
0010
0000
0000
0000
,  // measure 32
0100
0000
0000
0000
,  // measure 33
1000
0000
0000
0000
,  // measure 34
0001
0000
0000
0000
,  // measure 35
1000
0000
0000
0000
,  // measure 36
0010
0000
0000
0000
,  // measure 37
0100
0000
0000
0000
,  // measure 38
0001
0000
0000
0000
,  // measure 39
1000
0000
0000
0000
,  // measure 40
0001
0000
0000
0000
,  // measure 41
1000
0000
0000
0000
,  // measure 42
1000
0000
0000
0000
,  // measure 43
0100
0000
0000
0000
,  // measure 44
0010
0000
0000
0000
,  // measure 45
0001
0000
0000
0000
,  // measure 46
1000
0000
0000
0000
,  // measure 47
0010
0000
0000
0000
,  // measure 48
0100
0000
0000
0000
,  // measure 49
0001
0000
0000
0000
,  // measure 50
1000
0000
0000
0000
,  // measure 51
0100
0000
0000
0000
,  // measure 52
0001
0000
0000
0000
,  // measure 53
0100
0000
0000
0000
,  // measure 54
1000
0000
0000
0000
,  // measure 55
0010
0000
0000
0000
,  // measure 56
0001
0000
0000
0000
,  // measure 57
0010
0000
0000
0000
,  // measure 58
1000
0000
0000
0000
,  // measure 59
0001
0000
0000
0000
,  // measure 60
1000
0000
0000
0000
,  // measure 61
0100
0000
0000
0000
,  // measure 62
0010
0000
0000
0000
,  // measure 63
0100
0000
0000
0000
,  // measure 64
0010
0000
0000
0000
,  // measure 65
0001
0000
0000
0000
,  // measure 66
1000
0000
0000
0000
,  // measure 67
0100
0000
0000
0000
,  // measure 68
0010
0000
0000
0000
,  // measure 69
0001
0000
0000
0000
,  // measure 70
1000
0000
0000
0000
,  // measure 71
0010
0000
0000
0000
,  // measure 72
0100
0000
0000
0000
,  // measure 73
0001
0000
0000
0000
,  // measure 74
1000
0000
0000
0000
,  // measure 75
0100
0000
0000
0000
,  // measure 76
0001
0000
0000
0000
,  // measure 77
0100
0000
0000
0000
,  // measure 78
1000
0000
0000
0000
,  // measure 79
0001
0000
0000
0000
,  // measure 80
1000
0000
0000
0000
;

//---------------dance-single - SZ64saulius----------------
#NOTES:
     dance-single:
     SZ64saulius:
     Medium:
     6:
     0.527,0.547,0.000,0.055,0.000:
0000
0000
0000
0000
,
0000
0000
0000
0000
,
0000
0000
0000
0000
,
0000
0000
0000
0000
,
1000
0010
0100
0001
,
1000
0100
0001
0100
,
1000
0010
0001
0010
,
1000
0000
0010
0000
0100
0000
0001
1000
,
0001
0010
1000
0010
,
0001
0100
1000
0100
,
0001
0010
0100
1000
,
0001
0000
0010
0000
0100
0000
0010
0100
,
1000
0001
0010
0100
,
0010
0100
0010
0001
,
0100
0001
0100
0001
,
0000
0000
0000
0000
,
2000
0000
0000
0000
,
3020
0000
0000
0000
,
0230
0000
0000
0000
,
0302
0000
0000
0000
,
1003
0000
0001
0000
1000
0100
0001
0100
,
1000
0000
0001
0000
1000
0010
0001
0010
,
1000
0000
0001
0000
1000
0100
0010
0001
,
1000
0010
0100
0001
,
1000
0000
0010
0000
0100
0001
1000
0100
,
0001
0000
0100
0000
1000
0010
0001
0010
,
1000
0000
0001
0000
1000
0100
0010
0100
,
0010
0001
0100
0010
,
1000
0000
0010
0000
0001
0010
1000
0100
,
0001
0000
0100
0000
1000
0100
0010
0001
,
1000
0000
0001
0000
1000
0010
0100
0001
,
1000
0001
0100
0010
,
1000
0000
0001
0000
1000
0010
0100
0001
,
1000
0000
0100
0000
0001
0100
1000
0001
,
1000
0000
0001
0000
1000
0010
0100
0001
,
1000
0010
0100
0001
,
1000
0000
0010
0000
0100
0000
0001
1000
,
0001
0000
0010
0000
0100
0000
1000
0001
,
1000
0010
0100
0001
,
1000
0100
1000
0100
0010
0001
0010
0001
,
1000
0000
0000
0000
,
0001
0000
0010
0000
0100
0000
1000
0001
,
1000
0000
0100
0000
0010
0000
0001
1000
,
0001
0000
0100
0000
0010
0000
1000
0100
,
0010
0001
0100
0010
,
1000
0000
0100
0000
0001
0000
0100
1000
,
0001
0000
0010
0000
1000
0000
0010
0001
,
1000
0000
0010
0000
0001
0000
0010
1000
,
0001
0010
0100
1000
,
0001
0010
0001
0010
,
0100
1000
0100
1000
,
0100
0010
0001
1000
,
0001
0000
1000
0000
0001
0000
1000
0001
,
1000
0010
0100
0001
,
1000
0100
0010
0100
,
0010
0001
1000
0001
,
1000
0000
0100
0000
0010
0000
0001
1000
,
0001
0000
0010
0000
0100
0010
0100
1000
,
0001
0000
1000
0000
0001
0100
0010
1000
,
0001
0000
0100
0000
1000
0100
0001
1000
,
0001
0000
0010
0000
0100
0000
1000
0001
,
1000
0000
0010
0000
0100
0010
0100
0010
,
0001
0000
1000
0000
0100
0010
0001
0010
,
0100
0000
1000
0000
0100
0001
0100
1000
,
0001
0100
0010
1000
,
0001
0000
0010
0000
0100
0000
1000
0001
,
1000
0000
0010
0000
0100
0000
0001
1000
,
0001
0000
0100
0000
1000
0000
0100
0001
,
1000
0000
0100
0000
0010
0000
0100
0010
,
0001
0000
0010
0000
1000
0010
0001
1000
,
0001
0000
0100
0000
1000
0100
0001
1000
,
0001
0000
0010
0000
0100
1000
0001
1000
,
0001
0100
0010
1000
,
0001
0100
1000
0100
,
0001
0000
1000
0000
0001
0010
0100
1000
,
0000
0000
0000
0000
,
0002
0000
0000
0000
,
1003
0000
0000
0000
;

//---------------dance-single - SZ64saulius----------------
#NOTES:
     dance-single:
     SZ64saulius:
     Easy:
     4:
     0.389,0.379,0.011,0.066,0.000:
0000
0000
0000
0000
,
0000
0000
0000
0000
,
0000
0000
0000
0000
,
0000
0000
0000
0000
,
1000
0000
0100
0000
,
0010
0000
0001
1000
,
0001
0000
0010
0000
,
0100
1000
0100
0010
,
0001
0010
0100
0000
,
1000
0100
0010
0000
,
0001
0100
0010
1000
,
0001
0010
0100
0000
,
1000
0100
0010
0001
,
0100
0010
1000
0001
,
1000
0100
0010
0100
,
0000
0000
0000
0000
,
2000
0000
0000
0000
,
3200
0000
0000
0000
,
0320
0000
0000
0000
,
0032
0000
0000
0000
,
1003
0000
0100
0000
,
0010
0000
0001
0000
,
1000
0000
0010
0000
,
0100
0000
0001
0000
,
1000
0001
1000
0001
,
0010
0100
0010
0100
,
1000
0100
1000
0100
,
0010
0001
0010
0001
,
0010
0100
1000
0000
,
0001
0100
0010
0000
,
1000
0100
0010
0000
,
0001
0010
0100
0000
,
1000
0010
0100
0000
,
0001
1000
0001
1000
,
0100
0010
0001
0000
,
1000
0100
1000
0100
,
0010
0001
1000
0010
,
0100
0001
0100
1000
,
0100
0001
0010
0100
,
1000
0001
1000
0001
,
1000
0000
0000
0000
,
0001
0010
0001
0010
,
0100
1000
0100
1000
,
0100
0010
0001
0010
,
0001
0010
0100
1000
,
0001
1000
0001
1000
,
0001
0010
0100
0010
,
0100
1000
0100
1000
,
0100
0010
0001
1000
,
0001
0010
0100
1000
,
0001
0100
1000
0100
,
0001
0010
1000
0010
,
0001
1000
0001
1000
,
0100
0010
0100
0010
,
0001
0010
0001
0010
,
0100
0010
0100
0010
,
0100
1000
0100
1000
,
0100
0010
0100
0010
,
0001
1000
0001
1000
,
0100
0010
0001
1000
,
0001
0100
0010
1000
,
0001
1000
0001
1000
,
0001
0100
0001
0100
,
0001
0010
0001
0010
,
0100
1000
0001
1000
,
0001
0100
0010
1000
,
0100
0001
0100
1000
,
0010
0001
0010
1000
,
0001
1000
0001
1000
,
0100
0010
0100
0010
,
0001
0010
0001
0010
,
0001
0010
0100
1000
,
0001
0100
0010
1000
,
0001
0000
1000
0000
,
0001
0010
0100
1000
,
0000
0000
0000
0000
,
2002
0000
0000
0000
,
3003
0000
0000
0000
;
