#VERSION:0.83;
#TITLE:Vorota;
#SUBTITLE:;
#ARTIST:xarva;
#TITLETRANSLIT:;
#SUBTITLETRANSLIT:;
#ARTISTTRANSLIT:;
#GENRE:;
#ORIGIN:;
#CREDIT:Telperion;
#BANNER:[Simfile Buffet] - Vorota.png;
#BACKGROUND:[Simfile Buffet] - Vorota-bg.png;
#PREVIEWVID:;
#JACKET:[Simfile Buffet] - Vorota-jacket.png;
#CDIMAGE:;
#DISCIMAGE:;
#LYRICSPATH:;
#CDTITLE:;
#MUSIC:[Simfile Buffet] - Vorota.ogg;
#OFFSET:0.007000;
#SAMPLESTART:33.105000;
#SAMPLELENGTH:13.241000;
#SELECTABLE:YES;
#DISPLAYBPM:48.333000:72.500000;
#BPMS:0.000=72.500,
64.000=48.333,
66.000=96.667,
67.000=48.333,
69.000=96.667,
70.000=48.333,
72.000=96.667,
73.000=48.333,
75.000=96.667,
76.000=48.333,
78.000=96.667,
79.000=48.333,
81.000=96.667,
82.000=48.333,
84.000=96.667,
85.000=48.333,
87.000=96.667,
88.000=72.500;
#STOPS:;
#DELAYS:;
#WARPS:;
#TIMESIGNATURES:0.000=4=4;
#TICKCOUNTS:0.000=4;
#COMBOS:0.000=1;
#SPEEDS:0.000=1.000=0.000=0;
#SCROLLS:0.000=1.000,
66.000=0.500,
67.000=1.000,
69.000=0.500,
70.000=1.000,
72.000=0.500,
73.000=1.000,
75.000=0.500,
76.000=1.000,
78.000=0.500,
79.000=1.000,
81.000=0.500,
82.000=1.000,
84.000=0.500,
85.000=1.000,
87.000=0.500,
90.000=1.000;
#FAKES:;
#LABELS:0.000=Song Start;
#BGCHANGES:;
#KEYSOUNDS:;
#ATTACKS:
;

//---------------dance-single - ----------------
#NOTEDATA:;
#CHARTNAME:;
#STEPSTYPE:dance-single;
#DESCRIPTION:;
#CHARTSTYLE:;
#DIFFICULTY:Challenge;
#METER:7;
#RADARVALUES:0.450970,0.508069,0.000000,0.120834,0.709900,418.000000,418.000000,0.000000,16.000000,0.000000,0.000000,4.000000,0.000000,0.000000,0.450970,0.508069,0.000000,0.120834,0.709900,418.000000,418.000000,0.000000,16.000000,0.000000,0.000000,4.000000,0.000000,0.000000;
#CREDIT:;
#DISPLAYBPM:48.333000:72.500000;
#NOTES:
0000
0000
0000
0000
,
0000
0000
0000
0000
,
0000
0000
0000
0000
,
0000
0000
0000
0000
,
1000
0000
0000
0010
0000
0000
0100
0000
0000
0001
0000
0000
1000
0000
0000
0010
0000
0000
0100
0000
0001
1000
0000
1000
,
0100
0000
0000
0010
0000
0000
0001
0000
0000
1000
0000
0000
0100
0000
0000
0010
0000
0000
0001
0000
1000
0010
0000
0010
,
0100
0000
0000
0001
0000
0000
1000
0000
0000
0010
0000
0000
0100
0000
0000
0001
0000
0000
1000
0000
0100
0010
0000
0010
,
0001
0000
0000
0000
0000
0000
1000
0000
0000
0000
0000
0000
0100
0000
0000
0000
0000
0000
0010
0000
0000
0000
0000
0000
0001
0000
0000
4000
0000
0000
3010
0000
1000
0000
0100
0000
0010
0000
0001
0000
1000
0000
0010
0000
0000
0000
0010
0000
,
0100
0000
0001
1000
0001
0000
0100
0000
0001
1000
0001
0000
0100
0000
0001
1000
0001
0000
0010
0000
0001
0010
0000
0010
,
0100
0000
1000
0001
1000
0000
0100
0000
1000
0001
1000
0000
0010
0000
0100
0001
0100
0010
0000
0010
1000
0001
0000
0001
,
0010
0000
0001
1000
0001
0000
0010
0000
0001
1000
0001
0000
0010
0000
0001
1000
0001
0000
0100
0000
0001
1000
0001
0100
,
0010
0000
0100
0001
1000
0000
0010
0000
1000
0001
1000
0000
0100
0000
0010
0001
0010
0100
0000
0100
1000
0000
1000
0001
,
0100
0000
0000
0010
0000
0000
1000
0010
0100
0001
0100
0010
1000
0000
0000
0100
0000
0010
0001
0010
0100
1000
0100
0010
,
0001
0000
0000
1000
0000
0000
0010
1000
0010
0100
0001
0100
0010
0000
0000
1000
0000
1000
0001
0010
0100
1000
0100
0010
,
0001
0000
0000
1000
0000
0000
0100
1000
0001
0100
0001
1000
0010
0000
0000
0100
0000
0001
0100
0001
1000
0100
1000
0001
,
0010
0000
0000
0000
0000
0000
0100
0000
0000
0000
0000
0000
1000
0000
0100
0000
0010
0000
0100
0000
1000
0000
0001
0000
0100
0000
0000
0004
0000
0000
1003
0000
0001
0000
0100
0000
0010
0000
1000
0000
0001
0000
0010
0000
0000
0000
0010
0000
,
0100
1000
0001
1000
0010
0000
0100
0001
,
1000
0001
0010
0000
0100
1000
0001
1000
,
0010
0000
0100
0001
1000
0001
0010
0000
,
0100
1000
0001
1000
0010
0000
0100
0001
,
1000
0001
0010
0000
0100
1000
0001
1000
,
0010
0000
0100
0001
1000
0001
0010
0000
,
0200
0000
0000
0000
0000
0000
0000
0000
0000
0000
0000
0000
1300
0001
1000
0010
0000
0010
0100
0000
0100
0001
0000
1000
,
0001
0010
0100
1000
0000
1000
0010
0000
0010
0100
0000
0100
0001
1000
0001
0010
0000
0010
0100
0000
0100
1000
0000
0001
,
1000
0010
0100
0001
0000
0001
0010
0000
0010
0100
0000
1000
0001
1000
0010
0100
0000
0001
1000
0001
0000
0010
0000
0100
,
1000
0001
0100
0010
0000
1000
0001
1000
0000
0100
0000
0100
1000
0001
0010
0100
0000
1000
0001
1000
0000
0010
0000
0100
,
0001
0000
0000
4000
0000
0000
3100
0000
0010
0000
0001
0000
1000
0000
0001
0000
0010
0000
0100
0000
1000
0000
0001
0000
0200
0000
0000
0000
0000
0000
0010
0000
0000
0000
0000
0000
0001
0000
0000
0000
0300
0000
0010
0000
1000
0000
0001
0000
,
0010
0000
0000
0020
0000
0000
0100
0000
0031
0010
0100
1000
0200
0000
0000
0010
0000
0000
1000
0000
0300
0010
0001
1000
,
0010
0000
0000
0020
0000
0000
0130
0010
1000
0010
0100
0001
2000
0000
0000
0100
0000
0000
0001
0000
3000
0100
1000
0100
,
0010
0000
0000
0020
0000
0000
0130
0010
0001
1000
0010
0100
0002
0000
0000
1000
0000
0000
0100
0000
0003
1000
0001
0010
,
0100
0000
0000
0200
0000
0000
0310
0100
1000
0001
0100
0010
0200
0000
0000
0010
0000
0000
1300
0100
0010
1000
0001
0010
,
0100
0000
0000
0200
0000
0000
1300
0100
0010
0001
1000
0010
0200
0000
0000
0010
0000
0000
1300
0100
0010
1000
0001
1000
,
0100
0000
0000
0200
0000
0310
0100
1000
0001
0100
0001
1000
0200
0000
0000
0010
0000
0000
0301
0100
0010
0001
1000
0010
,
0100
0000
0000
0200
0000
0000
0301
0100
0010
1000
0001
0010
0200
0000
0000
0010
0000
0000
0301
0100
0010
0001
1000
0001
,
0100
0000
0000
0040
0000
0000
1030
0000
0001
0000
1000
0000
0000
0000
0001
0000
0100
0000
0010
0000
1000
0000
0001
0000
0010
0000
0000
0000
0000
0000
0000
0000
0000
0000
0000
0000
0000
0000
0000
0000
0000
0000
0000
0000
0000
0000
0000
0000
;

//---------------dance-single - ----------------
#NOTEDATA:;
#CHARTNAME:;
#STEPSTYPE:dance-single;
#DESCRIPTION:;
#CHARTSTYLE:;
#DIFFICULTY:Hard;
#METER:6;
#RADARVALUES:0.331215,0.455960,0.052865,0.120834,0.377606,307.000000,300.000000,7.000000,16.000000,0.000000,0.000000,20.000000,0.000000,0.000000,0.331215,0.455960,0.052865,0.120834,0.377606,307.000000,300.000000,7.000000,16.000000,0.000000,0.000000,20.000000,0.000000,0.000000;
#CREDIT:;
#DISPLAYBPM:48.333000:72.500000;
#NOTES:
0000
0000
0000
0000
,
0000
0000
0000
0000
,
0000
0000
0000
0000
,
0000
0000
0000
0000
,
0000
0000
0000
1000
0000
0000
0000
0000
0000
0001
0000
0000
0000
0000
0000
1000
0000
0000
0000
0000
0000
0100
0000
0100
,
1000
0000
0000
0001
0000
0000
0000
0000
0000
0100
0000
0000
0000
0000
0000
0001
0000
0000
0000
0000
0000
0100
0000
0100
,
0010
0000
0000
1000
0000
0000
0000
0000
0000
0001
0000
0000
0000
0000
0000
1000
0000
0000
0000
0000
0000
0100
0000
0100
,
0010
0001
0000
1000
0010
0000
0000
0000
,
0100
0000
0000
0001
0000
0000
0100
0000
0001
0000
0100
0000
0010
0000
0000
1000
0000
0000
0001
0000
1000
0000
0001
0000
,
0010
0000
0000
0100
0000
0000
1000
0000
0100
0000
1000
0000
0001
0000
0000
0100
0000
0000
0001
0000
0100
0000
0001
0000
,
1000
0000
0000
0010
0000
0000
0100
0000
0010
0000
1000
0000
0001
0000
0000
0010
0000
0000
0100
0000
0010
0000
0001
0000
,
1000
0000
0000
0100
0000
0000
1000
0000
0001
0000
0100
0000
0010
0000
0000
1000
0000
0000
0010
0000
0100
0000
0001
0000
,
1000
0000
0000
0001
0000
0000
0040
0004
0000
0000
0030
0003
1000
0000
0000
0010
0000
0400
0040
0000
0000
0000
0030
0300
,
0001
0000
0000
1000
0000
0000
0040
4000
0000
0000
0030
3000
0001
0000
0000
0010
0000
0400
0040
0000
0000
0000
0030
0300
,
1000
0000
0000
0001
0000
0000
0100
0001
0100
0001
0100
0001
1000
0000
0000
0100
0000
0010
0100
1000
0100
1000
0100
1000
,
0001
0000
0000
0100
0000
0000
0010
1000
0010
1000
0010
1000
0001
0000
0000
0010
0000
0100
0010
0001
0010
0001
0010
0001
,
1000
0010
0100
0010
1000
0000
0001
0010
,
0100
0010
0001
0000
1000
0010
0100
0010
,
1000
0000
0001
0010
0100
0010
0001
0000
,
1000
0100
0010
0100
1000
0000
0001
0100
,
0010
0100
0001
0000
1000
0100
0010
0100
,
1000
0000
0001
0100
0010
0100
0001
0000
,
2000
0000
0000
0000
0000
0000
0000
0000
0000
0000
0000
0000
3001
0000
0001
0010
0000
0010
0100
0000
0100
1000
0000
0000
,
0010
0000
1000
0010
0000
0010
0100
0000
0100
0001
0000
0000
1000
0000
1000
0100
0000
0100
0010
0000
0010
0001
0000
0000
,
1000
0000
0001
0100
0000
0100
0010
0000
0010
1000
0000
0000
0100
0000
0100
0010
0000
0010
0001
0000
0001
1000
0000
0000
,
0010
0000
0010
1000
0000
0100
0010
0000
0010
0001
0000
0000
0100
0000
0100
0010
0000
0010
1000
0000
1000
0001
0000
0000
,
0010
0000
0010
0001
0000
1000
0010
0000
0000
0100
0010
0100
0002
0000
0000
1000
0000
0000
0100
0000
0003
1000
0001
0100
,
0001
0000
0000
1002
0000
0000
0100
0003
0001
1000
0100
0010
0002
0000
0000
1000
0000
0000
0010
0000
0003
1000
0001
0010
,
0001
0000
0000
1002
0000
0000
0013
0001
0010
0100
0000
0100
2000
0000
0000
0001
0000
0000
0100
0000
3000
0001
1000
0100
,
1000
0000
0000
2010
0000
0000
3001
1000
0100
0010
0000
0100
2000
0000
0000
0001
0000
0000
0010
0000
3000
0001
1000
0010
,
1000
0000
0000
2001
0000
0000
3010
1000
0010
0100
0000
0100
0002
0000
0000
1000
0000
0000
0403
0004
0000
0000
0300
0003
,
1000
0000
0000
2100
0000
0000
3004
4000
0000
0000
0003
3000
0200
0000
0000
0010
0000
0000
4300
0004
0000
0000
3000
0003
,
0010
0000
0000
0012
0000
0000
4003
0040
0000
0000
3000
0030
0200
0000
0000
0010
0000
0000
0304
4000
0000
0000
0003
3000
,
0010
0000
0000
2010
0000
0000
3004
0040
0000
0000
0003
0030
0200
0000
0000
1000
0000
0000
0310
0100
0010
0100
0010
0100
,
1000
0001
0100
0010
1000
0001
0010
0000
0000
0000
0000
0000
;

//---------------dance-single - ----------------
#NOTEDATA:;
#CHARTNAME:;
#STEPSTYPE:dance-single;
#DESCRIPTION:;
#CHARTSTYLE:;
#DIFFICULTY:Medium;
#METER:5;
#RADARVALUES:0.290218,0.312658,0.067969,0.188803,0.222788,269.000000,260.000000,9.000000,25.000000,16.000000,0.000000,0.000000,0.000000,0.000000,0.290218,0.312658,0.067969,0.188803,0.222788,269.000000,260.000000,9.000000,25.000000,16.000000,0.000000,0.000000,0.000000,0.000000;
#CREDIT:;
#DISPLAYBPM:48.333000:72.500000;
#NOTES:
0000
0000
0000
0000
,
0000
0000
0000
0000
,
0000
0000
0000
0000
,
0000
0000
0000
0000
,
1000
1000
0001
0001
1000
1000
0010
0100
,
0001
0001
1000
1000
0001
0001
0010
0100
,
1000
0001
0100
0001
1000
0001
0010
0100
,
1000
0001
0100
0001
1001
0000
0000
0000
,
1000
0000
0100
0000
1000
0000
0100
0000
0010
0000
0100
0000
0010
0000
0001
0000
0010
0000
0001
0000
0000
1000
0000
0000
,
0001
0000
0100
0000
0001
0000
0100
0000
0010
0000
0100
0000
0001
0000
1000
0000
0100
0000
0010
0000
0000
0001
0000
0000
,
1000
0000
0010
0000
1000
0000
0010
0000
0100
0000
0010
0000
0100
0000
0001
0000
0100
0000
0001
0000
0000
1000
0000
0000
,
0100
0000
0010
0000
0001
0000
1000
0000
0001
0000
0010
0000
0100
0000
1000
0000
0001
0000
1000
0000
0000
0010
0000
0000
,
0100
0001
21MM
3000
0001
1000
M1M2
0003
,
1000
0100
MM12
0003
0100
0001
2M1M
3000
,
0001
0100
1M2M
0030
0100
0001
MM21
0030
,
0100
0000
0000
1000
0000
0000
M2M1
0000
0000
0300
0000
0000
0010
0000
1000
0000
0010
0000
M22M
0000
0000
0330
0000
0000
,
1000
0010
0100
0001
1000
0000
0001
0010
,
0100
1000
0001
0000
1000
0010
0100
0001
,
1000
0000
0001
0010
0100
1000
0001
0000
,
1000
0100
0010
0001
1000
0000
0001
0100
,
0010
1000
0001
0000
1000
0100
0010
0001
,
1000
0000
0001
0100
0010
1000
0001
0000
,
0020
0000
0000
0000
0031
1000
0010
0100
,
0001
0000
0000
1000
0000
0000
0010
0000
0100
0000
0001
0000
1000
0000
0000
0001
0000
0000
0010
0000
0000
0100
0000
0000
,
1000
0000
0000
0001
0000
0000
0010
0000
0100
0000
1000
0000
0001
0000
0000
0100
0000
0000
0010
0000
0000
0100
0000
0000
,
0001
0000
0000
1000
0000
0000
0100
0000
0010
0000
0001
0000
1000
0000
0000
0100
0000
0000
0010
0000
0000
0100
0000
0000
,
1000
0000
0000
0001
0000
0000
0100
0000
0010
0000
1000
0000
0002
0000
0000
0010
0000
0000
1000
0000
0000
0103
0000
0001
,
0200
0000
0000
1000
0000
0000
0010
0000
0000
0301
0000
0001
2000
0000
0000
0010
0000
0000
0001
0000
0000
3100
0000
1000
,
0200
0000
0000
0001
0000
0000
0010
0000
0000
1300
0000
1000
0002
0000
0000
0100
0000
0000
1000
0000
0000
0013
0000
0001
,
0020
0000
0000
1000
0000
0000
0100
0000
0000
0031
0000
0001
2000
0000
0000
0100
0000
0000
0001
0000
0000
3010
0000
1000
,
0020
0000
0000
0001
0000
0000
0100
0000
0000
1030
0000
0000
0002
0000
0000
0010
0000
0000
1003
0000
1000
0010
0000
0010
,
0200
0000
0000
1000
0000
0000
0310
0000
0100
0000
0001
0000
2000
0000
0000
0010
0000
0000
3001
0000
0001
0010
0000
0010
,
0200
0000
0000
0001
0000
0000
0310
0000
0100
0000
1000
0000
0002
0000
0000
0100
0000
0000
1003
0000
1000
0100
0000
0100
,
0020
0000
0000
1000
0000
0000
0130
0000
0010
0000
0001
0000
2000
0000
0000
0100
0000
0000
3001
0000
0001
0100
0000
0100
,
0010
1000
0010
0100
0001
1000
0100
0000
0000
0000
0000
0000
;

//---------------dance-single - ----------------
#NOTEDATA:;
#CHARTNAME:;
#STEPSTYPE:dance-single;
#DESCRIPTION:;
#CHARTSTYLE:;
#DIFFICULTY:Easy;
#METER:4;
#RADARVALUES:0.202829,0.247521,0.098178,0.143490,0.022656,188.000000,175.000000,13.000000,19.000000,0.000000,0.000000,15.000000,0.000000,0.000000,0.202829,0.247521,0.098178,0.143490,0.022656,188.000000,175.000000,13.000000,19.000000,0.000000,0.000000,15.000000,0.000000,0.000000;
#CREDIT:;
#DISPLAYBPM:48.333000:72.500000;
#NOTES:
0000
0000
0000
0000
,
0000
0000
0000
0000
,
0000
0000
0000
0000
,
0000
0000
0000
0000
,
1000
0001
0000
0001
0010
0001
0000
1000
,
0001
1000
0000
1000
0010
1000
0000
0001
,
1000
0001
0000
0001
0010
0100
0000
1000
,
0001
1000
0000
1000
0010
0000
0000
0000
,
0100
0001
0100
0001
1000
0100
0010
0000
,
0100
1000
0100
1000
0001
0010
0100
0000
,
1000
0001
0100
0001
1000
0010
0100
0000
,
0001
0010
0100
0010
0001
1000
0010
0000
,
0110
0004
0003
4000
,
3000
0400
0300
4000
,
3000
0004
0003
0400
,
0300
0004
0003
4000
,
3001
0100
0001
0100
0001
0000
1000
0100
,
1000
0100
1000
0000
0001
0100
0001
0100
,
0001
0000
1000
0100
1000
0100
1000
0000
,
0001
0010
0100
0010
0001
0000
1000
0010
,
0100
0010
1000
0000
0001
0010
0100
1000
,
0001
0000
1000
0010
0100
0001
1000
0000
,
0200
0000
0000
0000
1300
1000
0001
0001
,
1000
0010
0100
0000
0001
0001
1000
0001
,
0010
0100
1000
0000
0001
0100
0001
0010
,
0100
1000
0010
0000
1000
0100
1000
0001
,
0010
0100
1000
0001
0202
0000
0303
0010
,
0110
2020
3030
1000
2200
0000
3300
0010
,
0110
0022
0033
0001
2002
0000
3003
1000
,
1010
0220
0330
0001
2002
0000
3003
0001
,
0011
0000
0000
0110
0000
0000
1000
0000
0100
0000
0010
0000
0002
0000
0000
0000
0000
0000
4003
0000
0000
0000
0000
0000
,
3010
1000
0004
0000
0023
0000
0430
0000
,
0310
0001
4000
0000
3020
0000
0430
0000
,
0310
1000
0004
0000
2003
0000
3400
0000
,
0310
0001
1000
0001
0010
0100
1000
0000
0000
0000
0000
0000
;

//---------------dance-single - ----------------
#NOTEDATA:;
#CHARTNAME:;
#STEPSTYPE:dance-single;
#DESCRIPTION:;
#CHARTSTYLE:;
#DIFFICULTY:Beginner;
#METER:2;
#RADARVALUES:0.125150,0.182384,0.120834,0.256772,0.000000,116.000000,100.000000,16.000000,34.000000,0.000000,0.000000,0.000000,0.000000,0.000000,0.125150,0.182384,0.120834,0.256772,0.000000,116.000000,100.000000,16.000000,34.000000,0.000000,0.000000,0.000000,0.000000,0.000000;
#CREDIT:;
#DISPLAYBPM:48.333000:72.500000;
#NOTES:
0000
0000
0000
0000
,
0000
0000
0000
0000
,
0000
0000
0000
0000
,
0000
0000
0000
0000
,
1000
0000
0001
0000
1000
0000
0100
0010
,
0001
0000
1000
0000
0001
0000
0100
0010
,
1000
0000
0100
0000
1000
0000
0001
0010
,
0100
1000
0001
0000
,
1000
0100
1000
0001
,
1000
0010
0100
0000
,
0001
1000
0001
0010
,
0001
0100
0010
0000
,
1000
2020
3030
0022
,
0033
2200
3300
0202
,
0303
2200
3300
0022
,
0033
0202
0303
2020
,
3030
0000
0000
0000
,
0000
0000
0000
0000
,
0000
0000
0000
0000
,
0001
0000
0000
0000
,
0000
0000
0000
0000
,
0000
0000
0000
0000
,
2000
0000
0000
0000
3001
0010
0100
0000
,
1000
0010
0100
0000
0001
0100
0010
0000
,
1000
0100
0010
0000
0001
1000
0010
0000
,
0100
0001
0010
0000
0100
1000
0010
0000
,
0100
0001
1000
0100
0020
0000
0030
0010
,
0010
0020
0030
0010
0200
0000
0300
0100
,
0100
0200
0300
0100
2000
0000
3000
1000
,
1000
2000
3000
1000
0002
0000
0003
0001
,
0001
0002
0003
0001
0200
0000
0300
0000
,
0110
0120
0030
0000
2000
0000
3000
0000
,
1001
1002
0003
0000
0020
0000
0030
0000
,
0110
0120
0030
0000
0002
0000
0003
0000
,
1001
2002
0000
0000
3003
0000
0000
0000
;

//---------------dance-double - ----------------
#NOTEDATA:;
#CHARTNAME:;
#STEPSTYPE:dance-double;
#DESCRIPTION:;
#CHARTSTYLE:;
#DIFFICULTY:Hard;
#METER:7;
#RADARVALUES:0.431550,0.468987,0.113282,0.294533,0.623051,400.000000,385.000000,15.000000,39.000000,0.000000,0.000000,0.000000,0.000000,0.000000,0.431550,0.468987,0.113282,0.294533,0.623051,400.000000,385.000000,15.000000,39.000000,0.000000,0.000000,0.000000,0.000000,0.000000;
#CREDIT:;
#DISPLAYBPM:48.333000:72.500000;
#NOTES:
// measure 0
00000000
00000000
00000000
00000000
,  // measure 1
00000000
00000000
00000000
00000000
,  // measure 2
00000000
00000000
00000000
00000000
,  // measure 3
00000000
00000000
00000000
00000000
,  // measure 4
00001000
00000000
00000000
00110000
00000000
00000000
00100000
00000000
00000000
01000000
00000000
00000000
10000000
00000000
00000000
01010000
00000000
00000000
00010000
00000000
00000000
00100000
00000000
00100000
,  // measure 5
00001000
00000000
00000000
00010010
00000000
00000000
00000010
00000000
00000000
00000100
00000000
00000000
00000001
00000000
00000000
00001100
00000000
00000000
00001000
00000000
00000000
00000100
00000000
00000100
,  // measure 6
00010000
00000000
00000000
01001000
00000000
00000000
01000000
00000000
00000000
00100000
00000000
00000000
10000000
00000000
00000000
00110000
00000000
00000000
00010000
00000000
00000000
01000000
00000000
01000000
,  // measure 7
00001000
00000000
00000000
00010100
00000000
00000000
00000100
00000000
00000000
00000010
00000000
00000000
00000001
00000000
00000000
00001000
00000001
00000010
00000100
00001000
00000100
00010000
00000000
00000000
,  // measure 8
00001000
00000000
00100000
00010000
00100000
00000000
00000010
00000000
00100000
00010000
00100000
00000000
00001000
00000000
00100000
00010000
00100000
00000000
00000010
00000000
00001000
00000000
00000100
00000000
,  // measure 9
00010000
00000000
00000010
00001000
00000010
00000000
00010000
00000000
00000010
00001000
00000010
00000000
00000100
00000000
00000001
00001000
00000100
00000000
00000010
00000000
00000100
00000000
00010000
00000000
,  // measure 10
00001000
00000000
01000000
00010000
01000000
00000000
00001000
00000000
01000000
00010000
01000000
00000000
00001000
00000000
01000000
00010000
01000000
00000000
00100000
00000000
00010000
00000000
00001000
00000000
,  // measure 11
00000100
00000000
00000001
00001000
00000100
00000000
00000010
00000000
00000100
00010000
00001000
00000000
00100000
00000000
00001000
00010000
00000100
00000000
01000000
00000000
00001000
00100000
00010000
00000000
,  // measure 12
10000000
00000000
00000000
00100000
00000000
00000000
01000000
00100000
01000000
00010000
01000000
00001000
00010000
00000000
00000000
00000010
00000000
00001000
00000100
00000010
00000100
00001000
00000100
00010000
,  // measure 13
00001000
00000000
00000000
00001000
00000000
00000000
00100000
01000000
00100000
00010000
00100000
00001000
00010000
00000000
00000000
00000010
00000000
00001000
00000010
00000100
00000010
00001000
00000010
00010000
,  // measure 14
00001000
00000000
00000000
00100000
00000000
00000000
00010000
10000000
01000000
10000000
00010000
00100000
00001000
00000000
00000000
00010000
00000000
00000010
00001000
00000001
00000100
00000001
00001000
00000010
,  // measure 15
00010000
00000000
00000000
00001000
00000000
00000000
01000000
00010000
10000000
00100000
10000000
00010000
01000000
00000000
00001000
00000000
00010000
00000100
00001000
00000001
00000010
00000001
00001000
00000100
,  // measure 16
00020000
01000000
00000100
00000001
00000010
00000000
00032000
00000100
,  // measure 17
01000000
10000000
00100000
00000000
00023000
01000000
00000100
00001000
,  // measure 18
00000010
00000000
00032000
00000100
01000000
00010000
00100000
00000000
,  // measure 19
00023000
02030000
03200000
20300000
30020000
00000000
00032000
00003200
,  // measure 20
00000320
00000032
00002003
00000000
00023000
00230000
02300000
23000000
,  // measure 21
30020000
00000000
00032000
00003020
00000230
00020300
00032000
00000000
,  // measure 22
00000000
00000000
00000000
00000000
00000000
00000000
00000000
00000000
00000000
00000000
00000000
00000000
00013000
00000000
00010000
00000100
00000000
00000100
00001000
00000000
00001000
00000001
00000000
00000001
,  // measure 23
00000010
00000000
00000010
00001000
00000000
00001000
00010000
00000000
00010000
01000000
00000000
00000000
10000000
00000000
10000000
00010000
00000000
00010000
01000000
00000000
01000000
00100000
00000000
00100000
,  // measure 24
00010000
00000000
00010000
00001000
00000000
00001000
00000100
00000000
00000100
00000001
00000000
00000000
00001000
00000000
00000100
00000000
00000010
00000000
00000001
00000000
00001000
00000000
00000010
00000000
,  // measure 25
00000100
00001000
00010000
00100000
10000000
00010000
10000000
01000000
00010000
10000000
00100000
00010000
,  // measure 26
00001000
00000000
00000100
00000000
00000001
00000000
00001000
00000000
00000010
00000000
00000100
00000000
00020100
00000000
00000000
00001000
00000000
00000000
00000010
00000000
00030000
00010000
00001000
00010000
,  // measure 27
00000010
00000000
00000000
00000210
00000000
00000000
00000301
00000100
00000010
00001000
00000100
00010000
00002000
00000000
00000000
00100000
00000000
00000000
00010000
00000000
00003000
00001000
00100000
00010000
,  // measure 28
10000000
00000000
00000000
10200000
00000000
00000000
01300000
00100000
10000000
00010000
01000000
00001000
00020000
00000000
00000000
00000010
00000000
00000000
00001000
00000000
00030000
00010000
00000010
00001000
,  // measure 29
00000100
00000000
00000000
00000120
00000000
00000000
00000031
00000010
00000100
00001000
00000010
00010000
00002000
00000000
00000000
00010000
00000000
00000000
01000000
00000000
00003000
00001000
00010000
00001000
,  // measure 30
01000000
00000000
00000000
01200000
00000000
00000000
10300000
00100000
01000000
00001000
00010000
00000100
00000020
00000000
00000000
00001000
00000000
00000000
00000031
00000010
00000100
00001000
00000100
00010000
,  // measure 31
00001000
00000000
00000000
00021000
00000000
00000000
00030010
00010000
00001000
00100000
00010000
10000000
00200000
00000000
00000000
00010000
00000000
00000000
10300000
00100000
01000000
00010000
01000000
00001000
,  // measure 32
00010000
00000000
00000000
00012000
00000000
00000000
00103000
00001000
00010000
00000010
00001000
00000001
00000200
00000000
00000000
00001000
00000000
00000000
00000310
00000100
00000010
00001000
00000010
00010000
,  // measure 33
00001000
00000000
00000000
00021000
00000000
00000000
00030100
00010000
00001000
00100000
00010000
10000000
02000000
00000000
00000000
00010000
00000000
00000000
03100000
01000000
00100000
00010000
00100000
00001000
,  // measure 34
00010000
00000000
01000000
00000000
00010000
00000000
00001000
00000010
00000100
00001000
00000001
00000100
00000010
00000000
00000000
00000000
00000000
00000000
00000000
00000000
00000000
00000000
00000000
00000000
;

//---------------dance-double - ----------------
#NOTEDATA:;
#CHARTNAME:;
#STEPSTYPE:dance-double;
#DESCRIPTION:;
#CHARTSTYLE:;
#DIFFICULTY:Medium;
#METER:6;
#RADARVALUES:0.352792,0.416878,0.113282,0.067969,0.385159,327.000000,312.000000,15.000000,9.000000,0.000000,0.000000,0.000000,0.000000,0.000000,0.352792,0.416878,0.113282,0.067969,0.385159,327.000000,312.000000,15.000000,9.000000,0.000000,0.000000,0.000000,0.000000,0.000000;
#CREDIT:;
#DISPLAYBPM:48.333000:72.500000;
#NOTES:
00000000
00000000
00000000
00000000
,
00000000
00000000
00000000
00000000
,
00000000
00000000
00000000
00000000
,
00000000
00000000
00000000
00000000
,
00001000
00000000
00000000
00110000
00000000
00000000
00010000
00000000
00000000
10000000
00000000
00000000
00100000
00000000
00000000
01010000
00000000
00000000
00010000
00000000
00000000
01000000
00000000
00001000
,
00010000
00000000
00000000
00001010
00000000
00000000
00001000
00000000
00000000
00000001
00000000
00000000
00000010
00000000
00000000
00001100
00000000
00000000
00001000
00000000
00000100
00010000
00000000
00010000
,
00001000
00000000
00000000
01010000
00000000
00000000
00010000
00000000
00000000
10000000
00000000
00000000
01000000
00000000
00000000
00110000
00000000
00000000
00010000
00000000
00000000
00100000
00000000
00001000
,
00010000
00001100
00001000
00000001
00000101
00000000
00000000
00000000
,
00000001
00000000
00000000
00000010
00000000
00000000
00000001
00000000
00000010
00000000
00000100
00000000
00010000
00000000
00000000
00001000
00000000
00000000
00010000
00000000
00001000
00000000
00000100
00000000
,
00000010
00000000
00000000
00001000
00000000
00000000
00000001
00000000
00000100
00000000
00001000
00000000
00010000
00000000
00000000
00010000
00000000
00000000
00001000
00000000
00100000
00000000
00010000
00000000
,
10000000
00000000
00000000
00100000
00000000
00000000
10000000
00000000
00100000
00000000
01000000
00000000
00001000
00000000
00000000
00010000
00000000
00000000
00001000
00000000
00010000
00000000
01000000
00000000
,
10000000
00000000
00000000
00100000
00000000
00000000
01000000
00000000
00100000
00000000
00010000
00000000
00001000
00000000
00000000
00010000
00000000
00000000
00000010
00000000
00001000
00000000
00000001
00000000
,
00000010
00000000
00000000
00000000
00000000
00000000
00000001
00001000
00000001
00001000
00000001
00001000
00000010
00000000
00000000
00000000
00000000
00001000
00000010
00010000
00000010
00010000
00000010
00010000
,
00001000
00000000
00000000
00000000
00000000
00000000
00100000
00001000
00100000
00001000
00100000
00001000
00010000
00000000
00000000
00000000
00000000
00001000
00100000
00010000
00100000
00010000
00100000
00010000
,
10000000
00000000
00000000
00000000
00000000
00000000
00010000
10000000
00010000
10000000
00010000
10000000
00100000
00000000
00000000
00000000
00000000
01000000
00001000
00010000
00001000
00010000
00001000
00010000
,
00000010
00000000
00000000
00000000
00000000
00000000
00001000
00000001
00001000
00000001
00001000
00000001
00000010
00000000
00000000
00000000
00000000
00000100
00001000
00000100
00001000
00000100
00001000
00000100
,
00010000
00001000
00100000
00010000
10000000
00000000
00001000
00010000
,
00000010
00001000
00000001
00000000
00010000
00001000
01000000
00010000
,
10000000
00000000
00001000
00010000
00000100
00001000
00000001
00000000
,
00010000
00001000
00100000
01000000
10000000
00000000
00001000
00010000
,
00000010
00000100
00000001
00000000
00010000
00001000
01000000
00100000
,
10000000
00000000
00001000
00010000
00000100
00000010
00000001
00000000
,
00000200
00000000
00000000
00000000
00000000
00000000
00000000
00000000
00000000
00000000
00000000
00000000
00000310
00000000
00000000
00000100
00000000
00000000
00000001
00000000
00001000
00000100
00000000
00000100
,
00000010
00000000
00000000
00000100
00000000
00000000
00010000
00000000
00010000
00001000
00000000
00001000
00100000
00000000
00000000
00010000
00000000
00000000
10000000
00000000
00010000
01000000
00000000
01000000
,
00001000
00000000
00000000
00010000
00000000
00000000
00000100
00000000
00001000
00000100
00000000
00000100
00000010
00000000
00000000
00000001
00000000
00000000
00001000
00000000
00000010
00010000
00000000
00010000
,
00001000
00000000
00000000
00000100
00000000
00000000
00001000
00000000
00010000
00001000
00000000
00001000
00100000
00000000
00000000
01000000
00000000
00000000
10000000
00000000
01000000
00100000
00000000
00100000
,
00010000
00000000
10000000
00000000
00100000
00000000
00010000
00000000
00001000
00000000
00000100
00000000
00000020
00000000
00000000
00001000
00000000
00000000
00000100
00000000
00000000
00001030
00000010
00001000
,
00000010
00000000
00000000
00000110
00000000
00000000
00000001
00000000
00000000
00001000
00000000
00000000
00000200
00000000
00000000
00000010
00000000
00000000
00001000
00000000
00000000
00010300
00000100
00010000
,
00000100
00000000
00000000
00001100
00000000
00000000
00001000
00000000
00000000
00000100
00000000
00000000
00020000
00000000
00000000
00001000
00000000
00000000
00000010
00000000
00000000
00031000
00010000
00001000
,
00010000
00000000
00000000
00011000
00000000
00000000
00001000
00000000
00000000
00100000
00000000
00000000
00020000
00000000
00000000
00100000
00000000
00000000
10000000
00000000
00000000
00130000
00010000
00100000
,
00010000
00000000
00000000
01010000
00000000
00000000
00010000
00000000
10000000
00000000
01000000
00000000
00200000
00000000
00000000
00010000
00000000
00000000
01000000
00000000
00000000
00310000
00100000
00010000
,
00100000
00000000
00000000
01100000
00000000
00000000
10000000
00000000
10000000
00010000
00000000
00010000
02000000
00000000
00000000
00100000
00000000
00000000
00010000
00000000
00000000
03001000
01000000
00001000
,
01000000
00000000
00000000
01010000
00000000
00000000
00010000
00000000
00010000
01000000
00000000
01000000
00002000
00000000
00000000
00010000
00000000
00000000
00100000
00000000
00000000
00013000
00001000
00010000
,
00001000
00000000
00000000
00011000
00000000
00000000
00010000
00000000
00010000
00000010
00000000
00000010
00002000
00000000
00000000
00000010
00000000
00000000
00000001
00000000
00000000
00003010
00001000
00000010
,
00001000
00000001
00000100
00001000
00010000
01000000
00100000
00000000
00000000
00000000
00000000
00000000
;

//---------------dance-double - ----------------
#NOTEDATA:;
#CHARTNAME:;
#STEPSTYPE:dance-double;
#DESCRIPTION:;
#CHARTSTYLE:;
#DIFFICULTY:Easy;
#METER:4;
#RADARVALUES:0.267561,0.301330,0.151043,0.445576,0.181251,248.000000,228.000000,20.000000,59.000000,2.000000,0.000000,7.000000,0.000000,0.000000,0.267561,0.301330,0.151043,0.445576,0.181251,248.000000,228.000000,20.000000,59.000000,2.000000,0.000000,7.000000,0.000000,0.000000;
#CREDIT:;
#DISPLAYBPM:48.333000:72.500000;
#NOTES:
00000000
00000000
00000000
00000000
,
00000000
00000000
00000000
00000000
,
00000000
00000000
00000000
00000000
,
00000000
00000000
00000000
00000000
,
00002000
00100000
00003000
00011000
00020000
00000010
00030000
00011000
,
00002000
01000000
00003000
00011000
00020000
00000100
00030000
00011000
,
02000000
03010000
00000000
00011000
00000200
00001300
00000000
00011000
,
00200000
00310000
00000000
00011000
00000010
00000000
00000000
00000000
,
00001000
00000000
00000000
00000010
00000000
00000000
00000100
00000000
00000001
00000000
00000100
00000000
00000001
00000000
00000000
00001000
00000000
00000000
00000100
00000000
00001000
00000000
00000100
00000000
,
00001000
00000000
00000000
00000010
00000000
00000000
00010000
00000000
00001000
00000000
00010000
00000000
00001000
00000000
00000000
00001000
00000000
00000000
01000000
00000000
00100000
00000000
01000000
00000000
,
00010000
00000000
00000000
00100000
00000000
00000000
01000000
00000000
10000000
00000000
01000000
00000000
10000000
00000000
00000000
00010000
00000000
00000000
01000000
00000000
00010000
00000000
01000000
00000000
,
00010000
00000000
00000000
00100000
00000000
00000000
00001000
00000000
00010000
00000000
00001000
00000000
00010000
00000000
00000000
00000010
00000000
00000000
00001000
00000000
00000001
00000000
00001000
00000000
,
00000100
00000000
00000000
00000010
00000000
00000000
00001000
00000000
00000010
00000000
00000100
00000000
00010000
00000000
00000000
00001000
00000000
00000000
00000100
00000000
00001000
00000000
00010000
00000000
,
01000000
00000000
00000000
00010000
00000000
00000000
00001000
00000000
00010000
00000000
01000000
00000000
00100000
00000000
00000000
00100000
00000000
00000000
00010000
00000000
00100000
00000000
01000000
00000000
,
10000000
00000000
00000000
00100000
00000000
00000000
00010000
00000000
00100000
00000000
01000000
00000000
00001000
00000000
00000000
00010000
00000000
00000000
01000000
00000000
00010000
00000000
00001000
00000000
,
00000100
00000000
00000000
00001000
00000000
00000000
00010000
00000000
00001000
00000000
00000100
00000000
00000010
00000000
00000000
00000010
00000000
00000000
00001000
00000000
00000010
00000000
00000100
00000000
,
00000002
00000203
00000302
00000023
00000230
00000000
00002300
00003020
,
00002030
00003200
00020300
00000000
00032000
00203000
00302000
02003000
,
03020000
00000000
00230000
02300000
23000000
30020000
20030000
00000000
,
32000000
23000000
30200000
02300000
03020000
00000000
00230000
00302000
,
00023000
00030200
00002300
00000000
00003020
00000230
00000302
00000023
,
00000032
00000000
00002003
00003200
00020300
00032000
00203000
00000000
,
00300020
00000000
00000000
00000000
00010030
00001000
00100000
00010000
,
10000000
00000000
00000000
00100000
00000000
00000000
01000000
00000000
00010000
00000000
01000000
00000000
00001000
00000000
00000000
00010000
00000000
00000000
00000010
00000000
00000000
00001000
00000000
00000000
,
00000001
00000000
00000000
00001000
00000000
00000000
00000100
00000000
00000010
00000000
00000100
00000000
00010000
00000000
00000000
00010000
00000000
00000000
00001000
00000000
00000000
00001000
00000000
00000000
,
00100000
00000000
00000000
00010000
00000000
00000000
10000000
00000000
00100000
00000000
01000000
00000000
00010000
00000000
00000000
01000000
00000000
00000000
00001000
00000000
00000000
00010000
00000000
00000000
,
00000010
00000000
00001000
00000000
00000001
00000000
00000010
00000000
00000100
00000000
00001000
00000000
00000020
00000000
00000000
00000000
00000000
00000000
00000030
00000000
00000000
00000110
00000000
00000000
,
00000101
00002001
00003000
00000100
00000020
00000000
00000030
00000110
,
00001100
00020100
00030000
00001000
02000000
00000000
03000000
01001000
,
01010000
01200000
00300000
10000000
10020000
00000000
00030000
00110000
,
01100000
00000000
00000000
11000000
00000000
00000000
00010000
00000000
10000000
00000000
01000000
00000000
00020000
00000000
00000000
01000000
00000000
00000000
00034000
00000000
00000000
00000000
00000000
00000000
,
00013000
00001000
00000400
00000000
00000320
00000000
00004030
00000000
,
00003001
00000010
00000400
00000000
00020300
00001000
04030000
00000000
,
03100000
00010000
40000000
00000000
30200000
00000000
04300000
00000000
,
03010000
10000000
00010000
01000000
00001000
00010000
00000010
00000000
00000000
00000000
00000000
00000000
,
00000000
00000000
00000000
00000000
,
00000000
00000000
00000000
00000000
,
00000000
00000000
00000000
00000000
,
M000000M
00000000
00000000
00000000
;
