#TITLE:Take Care(Instrumental);
#SUBTITLE:;
#ARTIST:Drake feat. Rihanna;
#TITLETRANSLIT:;
#SUBTITLETRANSLIT:;
#ARTISTTRANSLIT:;
#GENRE:;
#CREDIT:;
#BANNER:Take Care.png;
#BACKGROUND:3d_glitter_text_effect.png;
#LYRICSPATH:;
#CDTITLE:;
#MUSIC:Drake feat. Rihanna - Take Care (Full Instrumental).mp3;
#OFFSET:-0.131000;
#SAMPLESTART:99.853004;
#SAMPLELENGTH:12.000000;
#SELECTABLE:YES;
#BPMS:0.000000=122.100006
;
#STOPS:
;
#BGCHANGES:0.000=Take Care-bg.mpg=1.000=0=0=1=====,
99999=-nosongbg-=1.000=0=0=0 // don't automatically add -songbackground-
;
#KEYSOUNDS:;
#ATTACKS:;

//---------------dance-single - ----------------
#NOTES:
     dance-single:
     :
     Beginner:
     1:
     0.065529,0.075382,0.000000,0.000000,0.000000,68.000000,68.000000,0.000000,0.000000,0.000000,0.000000,0.065529,0.075382,0.000000,0.000000,0.000000,68.000000,68.000000,0.000000,0.000000,0.000000,0.000000:
0000
0000
0000
0000
,
0000
0000
0000
0000
,
0000
0000
0000
0000
,
0000
0000
0000
0000
,
1000
0000
0000
0000
,
0000
0000
0000
0000
,
0100
0000
0000
0000
,
0000
0000
0000
0000
,
1000
0000
0000
0000
,
0000
0000
0000
0000
,
0010
0000
0000
0000
,
0000
0000
0000
0000
,
0010
0000
0010
0000
,
0000
0000
0000
0000
,
1000
0000
1000
0000
,
0000
0000
0000
0000
,
0010
0000
0010
0000
,
0000
0000
0000
0000
,
1000
0000
1000
0000
,
0000
0000
0000
0000
,
0010
0000
0010
0000
,
0000
0000
0000
0000
,
1000
0000
1000
0000
,
0000
0000
0000
0000
,
0100
0000
0100
0000
,
0000
0000
0000
0000
,
0010
0000
0010
0000
,
0000
0000
0000
0000
,
1000
0000
1000
0000
,
0000
0000
0000
0000
,
0010
0000
0010
0000
,
0000
0000
0000
0000
,
0001
0000
0001
0000
,
0000
0000
0000
0000
,
0100
0000
0100
0000
,
0000
0000
0000
0000
,
0010
0000
0010
0000
,
0000
0000
0000
0000
,
1000
0000
1000
0000
,
0000
0000
0000
0000
,
0100
0000
0100
0000
,
0000
0000
0000
0000
,
0010
0000
1000
0000
,
0000
0000
0000
0000
,
0100
0000
0001
0000
,
0000
0000
0000
0000
,
0001
0000
1000
0000
,
0000
0000
0000
0000
,
0100
0000
0010
0000
,
0000
0000
0000
0000
,
0100
0000
1000
0000
,
0000
0000
0000
0000
,
1000
0000
0010
0000
,
0000
0000
0000
0000
,
0010
0000
0100
0000
,
0000
0000
0000
0000
,
0001
0000
1000
0000
,
0000
0000
0000
0000
,
1000
0000
0001
0000
,
0000
0000
0000
0000
,
0010
0000
0010
0000
,
0000
0000
0000
0000
,
0100
0000
0100
0000
,
0000
0000
0000
0000
,
1000
0000
1000
0000
,
0000
0000
0000
0000
,
0010
0000
0100
0000
,
0000
0000
0000
0000
,
0010
0000
0001
0000
,
0000
0000
0000
0000
,
0001
0000
1000
0000
,
0000
0000
0000
0000
,
0001
0000
0100
0000
,
0000
0000
0000
0000
,
0001
0000
1000
0000
;

//---------------dance-single - ----------------
#NOTES:
     dance-single:
     :
     Easy:
     3:
     0.104076,0.101016,0.000000,0.000000,0.000000,108.000000,108.000000,0.000000,0.000000,0.000000,0.000000,0.104076,0.101016,0.000000,0.000000,0.000000,108.000000,108.000000,0.000000,0.000000,0.000000,0.000000:
0000
0000
0000
0000
,
0000
0000
0000
0000
,
0000
0000
0000
0000
,
0000
0000
0000
0000
,
1000
0000
0000
0000
1000
0000
0000
0001
,
0000
0000
0000
0000
,
0100
0000
0000
0000
0100
0000
0000
0010
,
0000
0000
0000
0000
,
1000
0000
0000
0000
0010
0000
0000
1000
,
0000
0000
0000
0000
,
0010
0000
0000
0000
1000
0000
0000
0010
,
0000
0000
0000
0000
,
0010
0000
0000
0000
0010
0000
0000
1000
,
0000
0000
0000
0000
,
1000
0000
0000
0000
1000
0000
0000
0001
,
0000
0000
0000
0000
,
0010
0000
0000
0000
0010
0000
0000
1000
,
0000
0000
0000
0000
,
1000
0000
0000
0000
1000
0000
0000
0100
,
0000
0000
0000
0000
,
0010
0000
0000
0000
0010
0000
0000
1000
,
0000
0000
0000
0000
,
1000
0000
0000
0000
1000
0000
0000
0001
,
0000
0000
0000
0000
,
0100
0000
0000
0000
0100
0000
0000
0100
,
0000
0000
0000
0000
,
0010
0000
0000
0000
0010
0000
0000
0010
,
0000
0000
0000
0000
,
1000
0000
0000
0000
1000
0000
0000
0010
,
0000
0000
0000
0000
,
0010
0000
0000
0000
0010
0000
0000
1000
,
0000
0000
0000
0000
,
0001
0000
0000
0000
0001
0000
0000
1000
,
0000
0000
0000
0000
,
0100
0000
0000
0000
0100
0000
0000
0001
,
0000
0000
0000
0000
,
0010
0000
0000
0000
0010
0000
0000
0100
,
0000
0000
0000
0000
,
1000
0000
0000
0000
1000
0000
0000
0010
,
0000
0000
0000
0000
,
0100
0000
0000
0000
0100
0000
0000
1000
,
0000
0000
0000
0000
,
0010
0000
0000
0000
1000
0000
0000
0010
,
0000
0000
0000
0000
,
0100
0000
0000
0000
0001
0000
0000
0100
,
0000
0000
0000
0000
,
0001
0000
0000
0000
1000
0000
0000
0001
,
0000
0000
0000
0000
,
0100
0000
0000
0000
0010
0000
0000
1000
,
0000
0000
0000
0000
,
0100
0000
0000
0000
1000
0000
0000
0001
,
0000
0000
0000
0000
,
1000
0000
0000
0000
0010
0000
0000
0100
,
0000
0000
0000
0000
,
0010
0000
0000
0000
0100
0000
0000
1000
,
0000
0000
0000
0000
,
0001
0000
0000
0000
1000
0000
0000
0010
,
0000
0000
0000
0000
,
1000
0000
0000
0000
0001
0000
0000
0100
,
0000
0000
0000
0000
,
0010
0000
0000
0000
0010
0000
0000
1000
,
0000
0000
0000
0000
,
0100
0000
0000
0000
0100
0000
0000
0010
,
0000
0000
0000
0000
,
1000
0000
0000
0000
1000
0000
0000
0001
,
0000
0000
0000
0000
,
0010
0000
0000
0000
0100
0000
0000
0100
,
0000
0000
0000
0000
,
0010
0000
0000
0000
0001
0000
0000
1000
,
0000
0000
0000
0000
,
0001
0000
0000
0000
1000
0000
0000
0001
,
0000
0000
0000
0000
,
0001
0000
0000
0000
0100
0000
0000
0010
,
0000
0000
0000
0000
,
0001
0000
0000
0000
1000
0000
0000
0100
;

//---------------dance-single - ----------------
#NOTES:
     dance-single:
     :
     Medium:
     4:
     0.138767,0.126270,0.000000,0.000000,0.121421,144.000000,144.000000,0.000000,0.000000,0.000000,0.000000,0.138767,0.126270,0.000000,0.000000,0.121421,144.000000,144.000000,0.000000,0.000000,0.000000,0.000000:
0000
0000
0000
0000
,
0000
0000
0000
0000
,
0000
0000
0000
0000
,
0000
0000
0000
0000
,
1000
0000
0000
0000
0000
0000
0000
0000
1000
0000
0000
0100
0000
0000
0001
0000
,
0000
0000
0000
0000
,
0100
0000
0000
0000
0000
0000
0000
0000
0100
0000
0000
1000
0000
0000
0010
0000
,
0000
0000
0000
0000
,
1000
0000
0000
0000
0000
0000
0000
0000
0010
0000
0000
0001
0000
0000
1000
0000
,
0000
0000
0000
0000
,
0010
0000
0000
0000
0000
0000
0000
0000
1000
0000
0000
0100
0000
0000
0010
0000
,
0000
0000
0000
0000
,
0010
0000
0000
0000
0000
0000
0000
0000
0010
0000
0000
0100
0000
0000
1000
0000
,
0000
0000
0000
0000
,
1000
0000
0000
0000
0000
0000
0000
0000
1000
0000
0000
0100
0000
0000
0001
0000
,
0000
0000
0000
0000
,
0010
0000
0000
0000
0000
0000
0000
0000
0010
0000
0000
0010
0000
0000
1000
0000
,
0000
0000
0000
0000
,
1000
0000
0000
0000
0000
0000
0000
0000
1000
0000
0000
1000
0000
0000
0100
0000
,
0000
0000
0000
0000
,
0010
0000
0000
0000
0000
0000
0000
0000
0010
0000
0000
1000
0000
0000
1000
0000
,
0000
0000
0000
0000
,
1000
0000
0000
0000
0000
0000
0000
0000
1000
0000
0000
0001
0000
0000
0001
0000
,
0000
0000
0000
0000
,
0100
0000
0000
0000
0000
0000
0000
0000
0100
0000
0000
0100
0000
0000
0100
0000
,
0000
0000
0000
0000
,
0010
0000
0000
0000
0000
0000
0000
0000
0010
0000
0000
0010
0000
0000
0010
0000
,
0000
0000
0000
0000
,
1000
0000
0000
0000
0000
0000
0000
0000
1000
0000
0000
1000
0000
0000
0010
0000
,
0000
0000
0000
0000
,
0010
0000
0000
0000
0000
0000
0000
0000
0010
0000
0000
0010
0000
0000
1000
0000
,
0000
0000
0000
0000
,
0001
0000
0000
0000
0000
0000
0000
0000
0001
0000
0000
0001
0000
0000
1000
0000
,
0000
0000
0000
0000
,
0100
0000
0000
0000
0000
0000
0000
0000
0100
0000
0000
0100
0000
0000
0001
0000
,
0000
0000
0000
0000
,
0010
0000
0000
0000
0000
0000
0000
0000
0010
0000
0000
1000
0000
0000
0100
0000
,
0000
0000
0000
0000
,
1000
0000
0000
0000
0000
0000
0000
0000
1000
0000
0000
1000
0000
0000
0010
0000
,
0000
0000
0000
0000
,
0100
0000
0000
0000
0000
0000
0000
0000
0100
0000
0000
0010
0000
0000
1000
0000
,
0000
0000
0000
0000
,
0010
0000
0000
0000
0000
0000
0000
0000
1000
0000
0000
1000
0000
0000
0010
0000
,
0000
0000
0000
0000
,
0100
0000
0000
0000
0000
0000
0000
0000
0001
0000
0000
1000
0000
0000
0100
0000
,
0000
0000
0000
0000
,
0001
0000
0000
0000
0000
0000
0000
0000
1000
0000
0000
0100
0000
0000
0001
0000
,
0000
0000
0000
0000
,
0100
0000
0000
0000
0000
0000
0000
0000
0010
0000
0000
0001
0000
0000
1000
0000
,
0000
0000
0000
0000
,
0100
0000
0000
0000
0000
0000
0000
0000
1000
0000
0000
0100
0000
0000
0001
0000
,
0000
0000
0000
0000
,
1000
0000
0000
0000
0000
0000
0000
0000
0010
0000
0000
1000
0000
0000
0100
0000
,
0000
0000
0000
0000
,
0010
0000
0000
0000
0000
0000
0000
0000
0100
0000
0000
0001
0000
0000
0100
0000
,
0000
0000
0000
0000
,
0001
0000
0000
0000
0000
0000
0000
0000
1000
0000
0000
0010
0000
0000
0010
0000
,
0000
0000
0000
0000
,
1000
0000
0000
0000
0000
0000
0000
0000
0001
0000
0000
0010
0000
0000
0100
0000
,
0000
0000
0000
0000
,
0010
0000
0000
0000
0000
0000
0000
0000
0100
0000
0000
0001
0000
0000
1000
0000
,
0000
0000
0000
0000
,
0100
0000
0000
0000
0000
0000
0000
0000
1000
0000
0000
0100
0000
0000
0010
0000
,
0000
0000
0000
0000
,
1000
0000
0000
0000
0000
0000
0000
0000
1000
0000
0000
0100
0000
0000
0001
0000
,
0000
0000
0000
0000
,
0010
0000
0000
0000
0000
0000
0000
0000
0100
0000
0000
1000
0000
0000
0100
0000
,
0000
0000
0000
0000
,
0010
0000
0000
0000
0000
0000
0000
0000
0001
0000
0000
0010
0000
0000
1000
0000
,
0000
0000
0000
0000
,
0001
0000
0000
0000
0000
0000
0000
0000
1000
0000
0000
1000
0000
0000
0001
0000
,
0000
0000
0000
0000
,
0001
0000
0000
0000
0000
0000
0000
0000
0100
0000
0000
0001
0000
0000
0010
0000
,
0000
0000
0000
0000
,
0001
0000
0000
0000
0000
0000
0000
0000
1000
0000
0000
0010
0000
0000
0100
0000
;

//---------------dance-single - ----------------
#NOTES:
     dance-single:
     :
     Hard:
     6:
     0.173459,0.151524,0.000000,0.000000,0.121421,180.000000,180.000000,0.000000,0.000000,0.000000,0.000000,0.173459,0.151524,0.000000,0.000000,0.121421,180.000000,180.000000,0.000000,0.000000,0.000000,0.000000:
// measure 0
0000
0000
0000
0000
,  // measure 1
0000
0000
0000
0000
,  // measure 2
0000
0000
0000
0000
,  // measure 3
0000
0000
0000
0000
,  // measure 4
1000
0000
0000
0000
0000
0000
0100
0000
1000
0000
0000
0100
0000
0000
0001
0000
,  // measure 5
0000
0000
0000
0000
,  // measure 6
0100
0000
0000
0000
0000
0000
1000
0000
0100
0000
0000
1000
0000
0000
0010
0000
,  // measure 7
0000
0000
0000
0000
,  // measure 8
1000
0000
0000
0000
0000
0000
0100
0000
0010
0000
0000
0001
0000
0000
1000
0000
,  // measure 9
0000
0000
0000
0000
,  // measure 10
0010
0000
0000
0000
0000
0000
0001
0000
1000
0000
0000
0100
0000
0000
0010
0000
,  // measure 11
0000
0000
0000
0000
,  // measure 12
0010
0000
0000
0000
0000
0000
0001
0000
0010
0000
0000
0100
0000
0000
1000
0000
,  // measure 13
0000
0000
0000
0000
,  // measure 14
1000
0000
0000
0000
0000
0000
1000
0000
1000
0000
0000
0100
0000
0000
0001
0000
,  // measure 15
0000
0000
0000
0000
,  // measure 16
0010
0000
0000
0000
0000
0000
1000
0000
0010
0000
0000
0010
0000
0000
1000
0000
,  // measure 17
0000
0000
0000
0000
,  // measure 18
1000
0000
0000
0000
0000
0000
0001
0000
1000
0000
0000
1000
0000
0000
0100
0000
,  // measure 19
0000
0000
0000
0000
,  // measure 20
0010
0000
0000
0000
0000
0000
1000
0000
0010
0000
0000
1000
0000
0000
1000
0000
,  // measure 21
0000
0000
0000
0000
,  // measure 22
1000
0000
0000
0000
0000
0000
0001
0000
1000
0000
0000
0001
0000
0000
0001
0000
,  // measure 23
0000
0000
0000
0000
,  // measure 24
0100
0000
0000
0000
0000
0000
0001
0000
0100
0000
0000
0100
0000
0000
0100
0000
,  // measure 25
0000
0000
0000
0000
,  // measure 26
0010
0000
0000
0000
0000
0000
1000
0000
0010
0000
0000
0010
0000
0000
0010
0000
,  // measure 27
0000
0000
0000
0000
,  // measure 28
1000
0000
0000
0000
0000
0000
1000
0000
1000
0000
0000
1000
0000
0000
0010
0000
,  // measure 29
0000
0000
0000
0000
,  // measure 30
0010
0000
0000
0000
0000
0000
0010
0000
0010
0000
0000
0010
0000
0000
1000
0000
,  // measure 31
0000
0000
0000
0000
,  // measure 32
0001
0000
0000
0000
0000
0000
0001
0000
0001
0000
0000
0001
0000
0000
1000
0000
,  // measure 33
0000
0000
0000
0000
,  // measure 34
0100
0000
0000
0000
0000
0000
0100
0000
0100
0000
0000
0100
0000
0000
0001
0000
,  // measure 35
0000
0000
0000
0000
,  // measure 36
0010
0000
0000
0000
0000
0000
0010
0000
0010
0000
0000
1000
0000
0000
0100
0000
,  // measure 37
0000
0000
0000
0000
,  // measure 38
1000
0000
0000
0000
0000
0000
0001
0000
1000
0000
0000
1000
0000
0000
0010
0000
,  // measure 39
0000
0000
0000
0000
,  // measure 40
0100
0000
0000
0000
0000
0000
0001
0000
0100
0000
0000
0010
0000
0000
1000
0000
,  // measure 41
0000
0000
0000
0000
,  // measure 42
0010
0000
0000
0000
0000
0000
0001
0000
1000
0000
0000
1000
0000
0000
0001
0000
,  // measure 43
0000
0000
0000
0000
,  // measure 44
0100
0000
0000
0000
0000
0000
1000
0000
0001
0000
0000
1000
0000
0000
0100
0000
,  // measure 45
0000
0000
0000
0000
,  // measure 46
0001
0000
0000
0000
0000
0000
0001
0000
1000
0000
0000
0100
0000
0000
0001
0000
,  // measure 47
0000
0000
0000
0000
,  // measure 48
0100
0000
0000
0000
0000
0000
0010
0000
0010
0000
0000
0001
0000
0000
1000
0000
,  // measure 49
0000
0000
0000
0000
,  // measure 50
0100
0000
0000
0000
0000
0000
1000
0000
1000
0000
0000
0100
0000
0000
0001
0000
,  // measure 51
0000
0000
0000
0000
,  // measure 52
1000
0000
0000
0000
0000
0000
0010
0000
0010
0000
0000
1000
0000
0000
0100
0000
,  // measure 53
0000
0000
0000
0000
,  // measure 54
0010
0000
0000
0000
0000
0000
1000
0000
0100
0000
0000
0001
0000
0000
0100
0000
,  // measure 55
0000
0000
0000
0000
,  // measure 56
0001
0000
0000
0000
0000
0000
1000
0000
1000
0000
0000
0010
0000
0000
0010
0000
,  // measure 57
0000
0000
0000
0000
,  // measure 58
1000
0000
0000
0000
0000
0000
1000
0000
0001
0000
0000
0010
0000
0000
0100
0000
,  // measure 59
0000
0000
0000
0000
,  // measure 60
0010
0000
0000
0000
0000
0000
1000
0000
0100
0000
0000
0001
0000
0000
1000
0000
,  // measure 61
0000
0000
0000
0000
,  // measure 62
0100
0000
0000
0000
0000
0000
0001
0000
1000
0000
0000
0100
0000
0000
0010
0000
,  // measure 63
0000
0000
0000
0000
,  // measure 64
1000
0000
0000
0000
0000
0000
0001
0000
1000
0000
0000
0100
0000
0000
0001
0000
,  // measure 65
0000
0000
0000
0000
,  // measure 66
0010
0000
0000
0000
0000
0000
1000
0000
0001
0000
0000
1000
0000
0000
0100
0000
,  // measure 67
0000
0000
0000
0000
,  // measure 68
0010
0000
0000
0000
0000
0000
1000
0000
0001
0000
0000
0100
0000
0000
1000
0000
,  // measure 69
0000
0000
0000
0000
,  // measure 70
0001
0000
0000
0000
0000
0000
0001
0000
1000
0000
0000
1000
0000
0000
0001
0000
,  // measure 71
0000
0000
0000
0000
,  // measure 72
0001
0000
0000
0000
0000
0000
1000
0000
0100
0000
0000
0001
0000
0000
0010
0000
,  // measure 73
0000
0000
0000
0000
,  // measure 74
0001
0000
0000
0000
0000
0000
0010
0000
1000
0000
0000
0001
0000
0000
0100
0000
;
