#VERSION:0.83;
#TITLE:Sparks;
#SUBTITLE:;
#ARTIST:Hilary Duff;
#TITLETRANSLIT:;
#SUBTITLETRANSLIT:;
#ARTISTTRANSLIT:;
#GENRE:;
#ORIGIN:;
#CREDIT:;
#BANNER:[Simfile Buffet] - Sparks.png;
#BACKGROUND:[Simfile Buffet] - Sparks-bg.png;
#PREVIEWVID:;
#JACKET:[Simfile Buffet] - Sparks-jacket.png;
#CDIMAGE:;
#DISCIMAGE:;
#LYRICSPATH:;
#CDTITLE:;
#MUSIC:[Simfile Buffet] - Sparks.ogg;
#OFFSET:0.000000;
#SAMPLESTART:40.805;
#SAMPLELENGTH:15;
#SELECTABLE:YES;
#DISPLAYBPM:122.000000;
#BPMS:0.000=122.000;
#STOPS:;
#DELAYS:;
#WARPS:;
#TIMESIGNATURES:0.000=4=4;
#TICKCOUNTS:0.000=4;
#COMBOS:0.000=1;
#SPEEDS:0.000=1.000=0.000=0;
#SCROLLS:0.000=1.000;
#FAKES:;
#LABELS:0.000=Song Start;
#BGCHANGES:0.000=[Simfile Buffet] - Sparks.avi=1.000=0=0=0=StretchNoLoop====,
99999=-nosongbg-=1.000=0=0=0 // don't automatically add -songbackground-
;
#KEYSOUNDS:;
#ATTACKS:
;

//---------------dance-single - ----------------
#NOTEDATA:;
#CHARTNAME:;
#STEPSTYPE:dance-single;
#DESCRIPTION:;
#CHARTSTYLE:;
#DIFFICULTY:Hard;
#METER:7;
#RADARVALUES:0.355466,0.438857,0.016053,0.040133,0.008027,310.000000,308.000000,2.000000,5.000000,0.000000,0.000000,0.000000,0.000000,0.000000,0.355466,0.438857,0.016053,0.040133,0.008027,310.000000,308.000000,2.000000,5.000000,0.000000,0.000000,0.000000,0.000000,0.000000;
#CREDIT:;
#DISPLAYBPM:122.000000;
#NOTES:
0000
0000
0000
0000
,
0000
0000
0000
0000
,
0000
0000
0000
0000
,
0000
0000
0000
0000
,
0000
0000
0000
0000
,
0000
0001
0000
0001
0000
0001
0000
0001
,
0000
0001
0000
0001
0000
0100
0000
0100
,
0000
0010
0000
0010
0000
0010
0000
0010
,
0000
0010
0000
0010
1000
0000
1000
0000
,
0001
0100
0000
0001
0000
0100
0000
0001
,
0000
0010
0000
0001
0000
0100
0000
0010
,
0000
0100
0000
0010
0000
0010
0000
1000
,
0000
1000
0000
0100
0000
1001
1001
0000
,
0001
0100
0010
0010
0010
1000
0100
0100
,
1000
0100
1000
0010
0010
0010
0000
0100
,
0000
0001
0010
0100
0010
0001
0100
0010
,
0100
0001
0100
0010
0100
0010
0010
0000
,
0100
0001
0010
0100
1000
0010
0100
0010
,
0100
0001
0001
0010
0001
0100
0000
0100
,
0001
0000
0000
0001
1000
0000
0001
0000
0100
0000
0000
0100
0001
0000
0010
0000
,
0001
0100
0010
0100
0020
0100
0130
0000
,
0010
1000
0100
1000
0010
0010
0100
0100
,
0001
0010
0100
1000
0100
0010
0001
0001
,
0100
0010
1000
0010
0100
0001
0010
0010
,
0100
1000
0001
0100
0010
1000
0100
0100
,
1000
0010
0100
0001
0010
0010
0000
0001
,
0000
1000
0000
0010
0010
0100
0000
0001
,
0000
1000
0000
0001
0000
0001
0000
0100
,
0001
0100
0010
0100
0001
0010
0010
0000
,
0001
0100
0010
0100
0001
0000
1000
0001
,
0100
0010
1000
0001
0000
0001
0000
1000
,
1000
0010
0100
0010
1000
0000
0100
1000
,
0000
1000
0001
0100
0010
0010
0100
0000
,
0100
0001
0010
0001
0100
0000
0100
0001
,
0000
0010
0000
0001
0000
0100
0000
0100
,
0010
1000
0100
1000
0010
0000
0010
0100
,
0000
0100
0001
0010
0100
0100
1000
0000
,
0002
0000
0000
0000
,
0000
0000
0000
0003
,
0200
0000
0000
0000
,
0000
0000
0000
0300
,
0020
0000
0000
0000
,
0000
0000
0000
0030
,
2000
0000
0000
0000
,
0000
0000
0000
0000
0000
0000
3001
0001
,
0100
0001
0010
0001
0100
0100
0010
0010
,
1000
0100
0010
0001
0010
0100
1000
1000
,
0010
0100
0001
0100
0010
1000
0100
0100
,
0010
0001
1000
0010
0100
0001
0010
0010
,
0001
0100
0010
1000
0100
0100
0000
1000
,
0000
0001
0000
0100
0100
0010
0000
1000
,
0000
0001
0000
1000
0000
1000
0000
0010
,
1000
0010
0100
0010
1000
0100
0100
0000
,
1000
0010
0100
0010
1000
0000
0001
1000
,
0010
0100
0001
1000
0000
1000
0000
0001
,
0001
0100
0010
0100
0001
0000
0010
0001
,
0000
0001
1000
0010
0100
0100
0010
0000
,
0010
1000
0100
1000
0010
0000
0010
1000
,
0000
0100
0000
1000
0000
0010
0000
0010
,
0100
0001
0010
0001
0100
0000
0100
0010
,
0000
0010
1000
0100
0010
0010
0001
0000
;

//---------------dance-single - ----------------
#NOTEDATA:;
#CHARTNAME:;
#STEPSTYPE:dance-single;
#DESCRIPTION:;
#CHARTSTYLE:;
#DIFFICULTY:Medium;
#METER:5;
#RADARVALUES:0.257999,0.292571,0.048160,0.064213,0.000000,225.000000,219.000000,6.000000,8.000000,0.000000,0.000000,0.000000,0.000000,0.000000,0.257999,0.292571,0.048160,0.064213,0.000000,225.000000,219.000000,6.000000,8.000000,0.000000,0.000000,0.000000,0.000000,0.000000;
#CREDIT:;
#DISPLAYBPM:122.000000;
#NOTES:
0000
0000
0000
0000
,
0000
0000
0000
0000
,
0000
0000
0000
0000
,
0000
0000
0000
0000
,
0000
0000
0000
0000
,
1000
0100
1000
0100
,
2000
0010
0000
0010
0000
0100
0000
3100
,
0001
0100
0001
0001
,
0010
0001
0100
0100
,
0010
1000
0100
1000
,
0002
0100
0000
0100
0000
0010
0000
0103
,
0100
0010
1000
0100
,
1000
0000
1000
0000
0001
0001
1001
0000
,
0001
0100
0001
0001
,
0010
0000
0001
0000
0200
0010
0310
0000
,
0010
1000
0100
1000
,
0001
0000
0001
0001
0100
0100
0100
0000
,
0010
1000
0100
1000
,
0001
0000
0001
1000
0001
0000
0101
0000
,
0100
0010
0100
0010
,
0010
1000
0100
1000
,
1000
0001
1000
1000
,
0010
0100
0010
0010
,
0010
1000
0100
1000
,
0010
0100
0001
0001
,
0010
0000
0001
0000
0100
0000
0000
0001
,
0000
1000
0000
0010
0000
1000
0000
0001
,
1001
0001
0101
0100
,
0010
0000
1000
0100
1000
0000
1000
0000
,
0001
0100
0010
1000
,
0100
0000
1000
0001
0000
0001
0000
0100
,
0010
0000
1000
0000
0100
0000
1000
0010
,
0000
0010
0100
0001
0010
0000
0010
0000
,
0001
0000
1000
0000
0010
0000
0100
0010
,
0000
1000
0000
0100
0000
1000
0000
0001
,
0100
0000
0001
0000
0010
0000
0001
0010
,
0000
0001
0100
0010
1000
0000
0100
0000
,
2000
0000
0000
0000
,
0000
0000
0000
3000
,
0020
0000
0000
0000
,
0000
0000
0000
0030
,
0200
0000
0000
0000
,
0000
0000
0000
0300
,
0002
0000
0000
0000
,
0000
0000
0000
0003
,
0010
0001
0100
0100
,
0010
1000
0100
0000
0100
1000
0010
0000
,
0200
0001
0010
0001
,
0010
1000
0010
0301
,
0001
0000
0100
0000
0101
0000
0000
0100
,
0000
0010
0000
1000
0000
0100
0000
1000
,
0100
1000
0010
0100
,
0001
0000
0010
0010
0001
0000
0101
0000
,
0100
0010
1000
0100
,
1000
0000
0010
1000
0000
1000
0000
0001
,
0100
0000
0001
0000
0010
0000
0001
0010
,
0000
0010
0001
0100
0010
0000
0010
0000
,
1000
0000
0100
0000
1000
0000
0010
0100
,
0000
0100
0000
0001
0000
1000
0000
0001
,
0100
0000
0010
0000
1000
0000
0100
1000
,
0000
1000
0001
0100
0010
0000
0010
0000
;

//---------------dance-single - ----------------
#NOTEDATA:;
#CHARTNAME:;
#STEPSTYPE:dance-single;
#DESCRIPTION:;
#CHARTSTYLE:;
#DIFFICULTY:Easy;
#METER:3;
#RADARVALUES:0.194933,0.243809,0.016053,0.080266,0.000000,170.000000,168.000000,2.000000,10.000000,0.000000,0.000000,0.000000,0.000000,0.000000,0.194933,0.243809,0.016053,0.080266,0.000000,170.000000,168.000000,2.000000,10.000000,0.000000,0.000000,0.000000,0.000000,0.000000;
#CREDIT:;
#DISPLAYBPM:122.000000;
#NOTES:
0000
0000
0000
0000
,
0000
0000
0000
0000
,
0000
0000
0000
0000
,
0000
0000
0000
0000
,
0000
0000
0000
0000
,
0000
1000
0001
1000
,
0002
0000
0103
0000
,
0100
0010
1000
0000
,
0100
1000
0100
1000
,
1000
0001
0100
0010
,
0200
0000
0301
0000
,
0001
0010
0100
0010
,
0001
0001
0100
0101
,
0100
0010
1000
0100
,
1000
1000
0001
0000
,
0001
0100
0010
1000
,
0010
0010
1000
0000
,
1000
0100
0001
0100
,
1000
0010
1000
0000
,
0010
0100
0001
0010
,
0001
0001
1000
0000
,
1000
0010
0100
0000
,
0100
0001
0010
0000
,
0001
0100
0001
0000
,
1000
0010
0100
0000
,
0010
0010
0100
0100
,
0001
0010
0001
0001
,
2000
0000
3001
0000
,
0002
0000
1003
0000
,
1000
0010
0100
0010
,
1000
0100
1000
1000
,
0001
0100
0010
0100
,
0001
0010
0001
0101
,
0100
0010
1000
0100
,
1000
1000
0010
0010
,
1000
0001
0100
0010
,
1000
0100
1000
0001
,
0200
0000
0000
0000
,
0000
0000
0000
0300
,
0020
0000
0000
0000
,
0000
0000
0000
0030
,
2000
0000
0000
0000
,
0000
0000
0000
3000
,
0002
0000
0000
0000
,
0000
0000
0000
0003
,
1000
0100
1000
1000
,
0010
0100
0001
0001
,
0020
0000
0001
0000
,
0100
0000
1030
0000
,
0010
0100
0001
0000
,
0010
0010
0010
0000
,
0002
1000
0000
0100
,
0000
1000
1000
1003
,
0010
0100
0001
0001
,
1000
0001
1000
0000
,
0010
0100
0001
1000
,
0010
1000
0100
0100
,
1000
0001
0010
0001
,
1000
0100
0000
1000
,
1000
0010
0100
0001
,
1000
0010
1000
0001
;

//---------------dance-single - ----------------
#NOTEDATA:;
#CHARTNAME:;
#STEPSTYPE:dance-single;
#DESCRIPTION:;
#CHARTSTYLE:;
#DIFFICULTY:Beginner;
#METER:2;
#RADARVALUES:0.126133,0.169964,0.016053,0.040133,0.000000,110.000000,108.000000,2.000000,5.000000,0.000000,0.000000,0.000000,0.000000,0.000000,0.126133,0.169964,0.016053,0.040133,0.000000,110.000000,108.000000,2.000000,5.000000,0.000000,0.000000,0.000000,0.000000,0.000000;
#CREDIT:;
#DISPLAYBPM:122.000000;
#NOTES:
// measure 0
0000
0000
0000
0000
,  // measure 1
0000
0000
0000
0000
,  // measure 2
0000
0000
0000
0000
,  // measure 3
0000
0000
0000
0000
,  // measure 4
0000
0000
0000
0000
,  // measure 5
1000
0000
1000
0000
,  // measure 6
1000
0000
0000
0000
,  // measure 7
0001
0000
0001
0000
,  // measure 8
0001
0000
0000
0000
,  // measure 9
1000
0000
1000
0000
,  // measure 10
1000
0000
0000
0000
,  // measure 11
0010
0000
0010
0000
,  // measure 12
0010
0000
0010
0000
,  // measure 13
0100
0000
0001
0000
,  // measure 14
0010
0010
0010
0000
,  // measure 15
0001
0000
0100
0000
,  // measure 16
1000
1000
1000
0000
,  // measure 17
0001
0000
1000
0000
,  // measure 18
0100
0100
0100
0000
,  // measure 19
1000
0000
0001
0000
,  // measure 20
0001
0001
0001
0000
,  // measure 21
0100
0000
0010
0000
,  // measure 22
1000
0000
0100
0000
,  // measure 23
1000
0000
0000
0000
,  // measure 24
0001
0000
0000
0000
,  // measure 25
0110
0000
0100
0000
,  // measure 26
0001
0000
1000
0000
,  // measure 27
0100
0000
0000
0000
,  // measure 28
1000
0000
0010
0000
,  // measure 29
0100
0000
0100
0000
,  // measure 30
0001
0001
0001
0000
,  // measure 31
1000
0000
0010
0000
,  // measure 32
1000
1000
1000
0000
,  // measure 33
0100
0000
1000
0000
,  // measure 34
0010
0010
0010
0000
,  // measure 35
0100
0000
0001
0000
,  // measure 36
0010
0010
0010
0000
,  // measure 37
0002
0000
0000
0003
,  // measure 38
0000
0000
0000
0000
,  // measure 39
0200
0000
0000
0300
,  // measure 40
0000
0000
0000
0000
,  // measure 41
0020
0000
0000
0030
,  // measure 42
0000
0000
0000
0000
,  // measure 43
2000
0000
0000
3000
,  // measure 44
0000
0000
0000
0000
,  // measure 45
1001
0000
0001
0000
,  // measure 46
0100
0000
0010
0000
,  // measure 47
1000
0000
0100
0000
,  // measure 48
1000
0000
0001
0000
,  // measure 49
1000
1000
1000
0000
,  // measure 50
0010
0010
0010
0000
,  // measure 51
0200
0000
0001
0000
,  // measure 52
0010
0000
1300
0000
,  // measure 53
1000
1000
1000
0000
,  // measure 54
0001
0001
0001
0000
,  // measure 55
0100
0000
0010
0000
,  // measure 56
1000
0100
1000
0000
,  // measure 57
0010
0000
0100
0000
,  // measure 58
0001
0001
0001
0000
,  // measure 59
0010
0000
0001
0000
,  // measure 60
0100
0000
0010
0000
;
