#TITLE:スリップフリップ;
#SUBTITLE:;
#ARTIST:tilt-six feat.串伊トモミ;
#TITLETRANSLIT:SLIP FLIP;
#SUBTITLETRANSLIT:;
#ARTISTTRANSLIT:tilt-six feat. Tomomi Kushii;
#GENRE:Trance;
#CREDIT:;
#BANNER:[Simfile Buffet] - SLIP FLIP.png;
#BACKGROUND:[Simfile Buffet] - SLIP FLIP-bg.png;
#LYRICSPATH:;
#CDTITLE:;
#MUSIC:[Simfile Buffet] - SLIP FLIP.ogg;
#OFFSET:-0.073000;
#SAMPLESTART:39.691002;
#SAMPLELENGTH:15.000000;
#SELECTABLE:YES;
#BPMS:0.000000=143.000000
,192.000000=71.500000
,208.000000=143.000000
,240.000000=71.500000
,248.000000=143.000000
;
#STOPS:
;
#BGCHANGES:0.000=[Simfile Buffet] - SLIP FLIP.avi=1.000=0=0=0=StretchNoLoop==CrossFade_Fastest==,
99999=-nosongbg-=1.000=0=0=0 // don't automatically add -songbackground-
;
#KEYSOUNDS:;
#ATTACKS:;

//---------------dance-single - ----------------
#NOTES:
     dance-single:
     :
     Beginner:
     1:
     0.105791,0.132560,0.000000,0.057518,0.000000,103.000000,103.000000,0.000000,8.000000,0.000000,0.000000,0.105791,0.132560,0.000000,0.057518,0.000000,103.000000,103.000000,0.000000,8.000000,0.000000,0.000000:
0000
0000
0000
0000
,
0000
0000
0000
0000
,
0000
0000
0000
0000
,
0000
0000
0000
0000
,
0010
0000
0000
0000
,
0010
0000
0000
0000
,
0010
0000
0000
0000
,
0010
0000
0000
0000
,
1000
0000
0000
0000
,
0100
0000
0000
0000
,
0010
0000
0000
0000
,
0001
0000
0000
0000
,
0001
0000
0000
0000
,
0100
0000
0000
0000
,
0010
0000
0000
0000
,
1000
0000
0000
0000
,
1000
0000
0000
0000
,
0010
0000
0000
0000
,
0100
0000
0000
0000
,
0001
0000
0000
0000
,
0001
0000
0000
0000
,
0010
0000
0000
0000
,
0100
0000
0000
0000
,
1000
0000
0000
0000
,
1000
0000
1000
0000
,
0010
0000
0000
0000
,
0001
0000
0001
0000
,
0010
0000
0000
0000
,
1000
0000
1000
0000
,
2000
0000
3000
0000
,
0001
0000
0001
0000
,
0002
0000
0003
0000
,
0001
0000
0001
0000
,
0010
0000
0000
0000
,
1000
0000
1000
0000
,
0010
0000
0000
0000
,
0001
0000
0001
0000
,
0002
0000
0003
0000
,
1000
0000
1000
0000
,
2000
0000
3000
0000
,
1000
0000
1000
0000
,
0100
0000
0000
0000
,
0010
0000
0010
0000
,
0001
0000
0000
0000
,
0100
0000
0100
0000
,
0010
0000
0000
0000
,
1000
0000
1000
0000
,
0001
0000
0000
0000
,
1000
0000
0010
0000
,
0100
0000
0001
0000
,
0001
0000
0010
0000
,
0100
0000
1000
0000
,
0010
0000
1000
0000
,
0100
0000
0000
0000
,
0100
0000
0001
0000
,
0010
0000
0000
0000
,
1000
0000
0100
0000
,
2000
0000
3000
0000
,
0001
0000
0010
0000
,
0002
0000
0003
0000
,
1000
0000
0010
0000
,
0100
0000
0001
0000
,
1000
0000
0010
0000
,
2000
0000
3000
0000
,
0001
0000
0010
0000
,
0002
0000
0003
0000
,
0001
0000
0001
0000
,
0010
0000
0010
0000
,
0100
0000
0100
0000
,
1000
0000
1000
0000
,
0001
0000
0001
0000
,
0100
0000
0100
0000
,
0010
0000
0010
0000
,
1000
0000
1000
1000
;

//---------------dance-single - ----------------
#NOTES:
     dance-single:
     :
     Easy:
     3:
     0.235206,0.265120,0.021569,0.258829,0.000000,229.000000,226.000000,3.000000,36.000000,0.000000,0.000000,0.235206,0.265120,0.021569,0.258829,0.000000,229.000000,226.000000,3.000000,36.000000,0.000000,0.000000:
0000
0000
0000
0000
,
0000
0000
0000
0000
,
0000
0000
0000
0000
,
0000
0000
0000
0000
,
1000
1000
0100
0010
,
0001
0001
0100
0010
,
1000
0100
0010
0001
,
2002
0000
0000
3003
,
1000
0010
0001
0000
,
0010
1000
0100
0000
,
0010
0001
0100
0000
,
0010
1000
0001
1000
,
0001
0010
1000
0000
,
0010
0001
0100
0000
,
0010
1000
0100
0000
,
0010
0001
1000
0001
,
1000
0100
0001
0000
,
0001
0100
1000
0010
,
0200
0300
0002
0003
,
1000
0010
0100
0000
,
0001
0100
1000
0000
,
1000
0100
0001
0010
,
0200
0300
2000
3000
,
0001
0010
0100
1000
,
0001
0010
1000
0000
,
1000
0010
0001
0000
,
0001
0100
1000
0000
,
1000
0100
0001
0000
,
0001
1000
0010
0100
,
0002
0000
1003
0000
,
1000
0001
0010
0100
,
2000
0000
3001
0000
,
1000
0010
0001
0000
,
0001
0010
1000
0000
,
1000
0100
0001
0000
,
0001
0100
1000
0000
,
2000
3000
0002
0003
,
0200
0300
0020
0030
,
1000
0001
0100
0010
,
0220
0000
0330
0000
,
1000
0100
0001
0000
,
0100
1000
0010
0100
,
0001
0100
1000
0000
,
0100
0001
0010
0100
,
1000
0010
0100
0000
,
0001
0010
0100
1000
,
0001
0010
0100
0000
,
1000
0010
0100
0001
,
2000
3020
0130
0001
,
0020
0130
2000
3000
,
0002
0023
0130
1000
,
0020
0130
0001
1000
,
0010
1000
0100
0000
,
0100
0001
0010
0000
,
0010
1000
0100
0000
,
0010
0001
0100
0000
,
0010
1000
0001
0010
,
0002
0000
1003
0000
,
0100
1000
0001
0100
,
0002
1000
2000
3003
,
2000
3100
0200
0310
,
0020
0031
0002
1003
,
2000
3000
0200
0300
,
0002
0003
0020
0030
,
1000
0100
0010
0001
,
2002
0000
3003
0000
,
1000
0100
0001
1000
,
0010
0001
0100
0010
,
1000
0001
0010
1000
,
0010
0100
2000
3001
,
0001
0100
1000
0001
,
0010
1000
0100
0010
,
0001
1000
0010
0001
,
0010
0100
0002
1003
;

//---------------dance-single - ----------------
#NOTES:
     dance-single:
     :
     Medium:
     6:
     0.423165,0.478834,0.143794,0.611124,0.165363,412.000000,392.000000,20.000000,85.000000,0.000000,0.000000,0.423165,0.478834,0.143794,0.611124,0.165363,412.000000,392.000000,20.000000,85.000000,0.000000,0.000000:
0000
0000
0000
0000
,
0000
0000
0000
0000
,
0000
0000
0000
0000
,
0000
0000
0000
0000
,
1001
0000
0000
0000
1001
0000
0000
0000
1000
0000
0000
0001
0000
0000
1000
0000
,
1001
0000
0000
0000
1001
0000
0000
0000
0001
0000
0000
1000
0000
0000
0001
0000
,
2000
0000
3200
0000
0320
0000
0032
1000
,
2000
0000
3003
0110
,
1000
0000
0000
0100
0000
0000
0010
0000
0000
0001
0000
0000
1000
0000
0010
0000
,
0100
0000
0000
0001
0000
0000
1000
0000
0000
0100
0000
0000
0010
0000
0001
0000
,
1000
0000
0000
0100
0000
0000
0001
0000
0000
0100
0000
0000
1000
0000
0010
0000
,
0100
0000
0000
0001
0000
0000
0010
0000
0000
1000
0000
0000
0010
0000
0001
0000
,
1000
0000
0000
0010
0000
0000
0100
0000
0000
1000
0000
0000
0001
0000
0010
0000
,
1000
0000
0000
0100
0000
0000
0010
0000
0000
0001
0000
0000
1000
0000
0010
0000
,
0100
0000
0000
0001
0000
0000
0010
0000
0000
0100
0000
0000
1000
0000
0010
0000
,
0100
0000
0000
0001
0000
0000
1000
0000
0000
0100
0000
0000
0010
0000
0001
0000
,
1000
1010
0101
0001
,
0010
0100
0010
0000
0001
0100
0001
0000
,
1000
0010
1000
0000
0001
0010
0001
0000
,
1000
0100
1000
0000
0001
0100
0001
0100
,
0001
0011
1100
1000
,
0010
0100
0010
0000
1000
0100
1000
0000
,
0001
1000
0001
0000
0010
0100
0010
0000
,
0001
1000
0001
1000
0002
0000
1003
0000
,
1000
0010
0001
0000
0010
1000
0100
0000
,
0020
0000
0032
0000
2003
0000
3010
0100
,
0001
0010
1000
0000
0010
0001
0100
0000
,
0010
1000
0010
1000
0002
0000
0013
0000
,
2100
3020
0230
0302
,
2003
0010
0010
3001
,
1000
0010
0100
0000
0001
0010
0100
0000
,
1000
0010
0100
0001
0010
0100
1000
0000
,
0001
0010
1000
0000
0010
0001
0100
0000
,
0020
0000
2030
0000
3002
0000
0013
0100
,
1000
0010
0001
0000
0010
1000
0100
0000
,
0010
0001
0010
0001
2000
0000
3010
0000
,
0200
0302
0023
0230
,
2300
3020
0230
0302
,
2003
3020
0230
0302
,
2003
0001
3001
1001
,
1000
0000
0000
0100
0000
0000
0001
0000
0000
0010
0000
0000
0001
0000
0100
0000
,
0010
0000
0000
0001
0000
0000
0100
0000
0000
1000
0000
0000
0001
0000
0010
0000
,
1000
0000
0000
0010
0000
0000
0001
0000
0000
0010
0000
0000
1000
0000
0100
0000
,
0010
0000
0000
0001
0000
0000
0100
0000
0010
0000
1000
0000
0100
0000
0010
0000
,
0001
0000
0000
0100
0000
0000
1000
0000
0000
0010
0000
0000
1000
0000
0100
0000
,
0010
0000
0000
1000
0000
0000
0100
0000
0000
0001
0000
0000
1000
0000
0010
0000
,
0001
0000
0000
0010
0000
0000
1000
0000
0000
0010
0000
0000
0001
0000
0100
0000
,
0010
0000
0000
1000
0000
0000
0100
0000
0010
0000
0001
0000
0100
0000
0010
0000
,
2000
0000
0001
0001
3001
0010
0100
1000
,
0002
0003
0200
0300
0020
0030
2000
3000
0001
0001
0001
0000
1000
1000
1000
0000
,
0002
0000
1000
1000
1003
0010
0100
0001
,
2000
3000
0200
0300
0020
0030
0002
0003
1000
0000
0001
0000
0100
0000
0100
0000
,
0010
1000
0100
0000
0100
0001
0010
0000
,
0010
1000
0100
0000
0100
0001
0010
0000
,
0010
1000
0100
0000
0010
0001
0100
0000
,
0010
1000
0010
1000
0200
0000
0310
0000
,
0012
0203
0320
2030
,
3002
0100
0100
1003
,
0001
0100
0010
0000
1000
0100
0010
0000
,
0001
0100
0001
0100
0010
1000
0001
0000
,
2002
3003
2200
3300
0022
0033
2002
3003
,
2020
3030
0220
0330
0202
0303
2002
3003
,
2000
3200
0302
0023
,
2030
3200
0320
0032
,
0203
2300
3020
0032
,
0203
0320
2030
3001
,
0001
0000
0000
0100
0000
0000
0010
0000
0000
0001
0000
0000
1000
0000
0100
0000
,
0001
0000
0000
0010
0000
0000
1000
0000
0000
0010
0000
0000
0001
0000
0100
0000
,
0010
0000
0000
1000
0000
0000
0100
0000
0000
0001
0000
0000
1000
0000
0010
0000
,
0001
0000
0000
0100
0000
0000
1000
0000
0000
0001
0000
0000
0010
0000
1000
0000
,
0001
0000
0000
0100
0000
0000
0010
0000
0000
1000
0000
0000
0100
0000
0010
0000
,
0001
0000
0000
0100
0000
0000
1000
0000
0000
0100
0000
0000
0010
0000
1000
0000
,
0200
0320
0032
2003
,
3001
0100
0001
0100
0010
1000
0002
2000
,
3003
0000
0000
0000
;

//---------------dance-single - ----------------
#NOTES:
     dance-single:
     :
     Hard:
     9:
     0.572094,0.718250,0.179742,0.776487,0.409813,557.000000,532.000000,25.000000,108.000000,0.000000,0.000000,0.572094,0.718250,0.179742,0.776487,0.409813,557.000000,532.000000,25.000000,108.000000,0.000000,0.000000:
0000
0000
0000
0000
,
0000
0000
0000
0000
,
0000
0000
0000
0000
,
0000
0000
0000
0000
,
1001
0000
0000
0000
1001
0000
0000
0000
1100
0000
0000
0110
0000
0000
0011
0000
,
1001
0000
0000
0000
1001
0000
0000
0000
1010
0000
0000
0110
0000
0000
0101
0000
,
0001
0100
0010
1000
0001
0100
0010
1000
,
0002
0000
0000
1000
0000
0000
1000
0000
0000
1003
0000
0000
1001
0000
0000
0000
,
2000
0000
0000
3020
0000
0000
0032
0000
0000
0023
0000
0000
1030
0000
0100
0000
,
0020
0000
0000
0032
0000
0000
0203
0000
0000
0320
0000
0000
1030
0000
0001
0000
,
2000
0000
0000
3200
0000
0000
0302
0000
0000
0203
0000
0000
1300
0000
0010
0000
,
0200
0000
0000
0302
0000
0000
0023
0000
0000
0230
0000
0000
1300
0000
0001
0000
,
2000
0000
0000
3002
0000
0000
0203
0000
0000
2300
0000
0000
3100
0000
0010
0000
,
2000
0000
0000
3200
0000
0000
0320
0000
0000
0032
0000
0000
0103
0000
0001
0000
,
1000
0010
0100
0001
0100
0010
1000
0100
,
0010
0001
1000
0010
1000
0001
1001
0000
,
1010
0000
1100
0000
1001
0000
0001
0010
,
1000
0010
0001
0200
0000
0320
0000
2030
,
0000
3001
0010
2000
0000
3010
0001
0200
,
0000
0310
1000
0100
0010
0001
1001
0000
,
0011
0000
0101
0000
1001
0000
1000
0010
,
0001
0010
1000
0200
0000
0310
0001
1000
,
0100
0010
0100
0010
0001
1000
0001
1000
,
0100
0000
0010
0000
0001
0000
1000
0000
0100
0010
0100
0010
0100
0000
0010
0000
,
0001
0000
0100
0001
0000
0000
0100
0000
0010
0000
1000
0010
0000
0000
1000
0000
,
0001
0010
1000
0010
0001
0100
0010
1000
,
0100
0000
1000
0100
0000
0000
0010
0000
0001
0000
0010
0001
0000
0000
0100
0000
,
0010
1000
0100
0001
0100
1000
0001
0000
,
2010
0000
3100
1000
0010
0100
0001
1000
,
0100
0010
0002
0000
1003
0010
0100
0001
,
0010
0100
1000
0020
0000
0230
0000
0302
,
1000
0000
0010
0000
0100
0100
0103
0001
,
1000
0000
0100
1000
0000
0000
0100
0000
0010
0000
0001
0010
0000
0000
0001
0000
,
1000
0010
0001
0010
1000
0100
0010
0001
,
0100
0000
0001
0100
0000
0000
0010
0000
1000
0000
0010
1000
0000
0000
0100
0000
,
0010
0001
0100
1000
0100
0001
1000
0010
,
0100
0001
0100
0001
1000
0100
1000
0100
,
0010
0001
0010
0001
1000
0010
1000
0010
,
0100
0001
1000
0010
1000
0001
0100
0010
,
1000
0001
1000
0001
1000
0001
1000
0001
1000
0000
0000
0000
1001
0000
0000
0000
,
0002
0000
0000
0203
0000
0000
2300
0000
0000
3020
0000
0000
1030
0000
0100
0000
,
0020
0000
0000
2030
0000
0000
3200
0000
0000
0320
0000
0000
0031
0100
0001
0000
,
0020
0000
0000
0230
0000
0000
2300
0000
0000
3002
0000
0000
0103
0010
0100
0000
,
0002
0000
0000
0023
0000
0000
0230
0000
0000
2300
0000
0000
3001
0000
1000
0000
,
0020
0000
0000
0230
0000
0000
0302
0000
0000
2003
0000
0000
3100
0000
0010
0000
,
0200
0000
0000
2300
0000
0000
3002
0000
0000
0203
0000
0000
0310
1000
0010
0000
,
0200
0000
0000
0302
0000
0000
2003
0000
0000
3200
0000
0000
0310
0001
0010
0000
,
0200
0000
0000
2300
0000
0000
3002
0000
0000
0203
0000
0000
0310
0000
1000
0000
,
0001
0000
0010
0000
0100
0000
1000
0000
0001
0010
0001
0010
0001
0000
0100
0000
,
0010
0000
1000
0000
0001
0000
0100
0000
0010
0000
0000
0000
1000
0000
0000
0000
0001
0010
0001
0010
0001
0000
0000
0000
1000
0010
1000
0010
1000
0000
0000
0000
,
1000
0000
0010
0000
0100
0000
0001
0000
1000
0010
1000
0010
1000
0000
0100
0000
,
0010
0001
1000
0100
0010
0000
0001
0000
1000
0010
0100
0001
0010
0100
1000
0010
,
1000
0000
0000
1000
0100
0000
0000
0100
0001
0000
0000
0001
0010
0000
0000
0010
,
1000
0000
0000
1000
0100
0000
0000
0100
0001
0000
0000
0001
0010
0000
0000
0010
,
1000
0100
1000
0010
0100
0001
0010
0001
,
1000
0000
0100
0000
0010
0000
0001
0100
0000
0001
0100
0000
0010
0000
1000
0000
,
1002
0000
0103
0001
0010
1000
0010
0001
,
0100
0010
2000
0000
3001
0100
1000
0100
,
0001
0010
0100
2000
0000
3020
0000
0130
,
0001
0000
0001
0000
1000
0000
1000
0000
0010
0100
0010
0100
0010
0000
0000
0000
,
2002
0000
3003
1000
0200
0000
0320
0000
0032
0000
1000
1000
1003
0010
0100
0002
,
2000
0000
0000
0000
3003
0000
0001
0000
0200
0000
0000
0000
0320
0000
0000
0000
2030
0000
0000
0001
0000
0000
0001
0000
3001
0000
0010
0000
0100
0000
1000
0000
,
0010
1000
0100
0001
1000
0010
0001
0100
,
0001
0010
0100
0001
1000
0010
0100
1000
,
0001
0100
1000
0010
1000
0100
0001
1000
,
0010
0100
0010
0100
0010
0100
0001
1000
0001
1000
0001
0000
1001
0000
0000
0000
,
2000
0000
0000
3020
0000
0000
0230
0000
0000
0302
0000
0000
1003
0100
1000
0000
,
0002
0000
0000
0203
0000
0000
0320
0000
0000
2030
0000
0000
3001
0010
0001
0000
,
0200
0000
0000
0320
0000
0000
2030
0000
0000
3002
0000
0000
1003
0010
1000
0000
,
0020
0000
0000
0230
0000
0000
2300
0000
0000
3002
0000
0000
0013
0000
1000
0000
,
0002
0000
0000
0023
0000
0000
0230
0000
0000
2300
0000
0000
3001
0100
0001
0000
,
2000
0000
0000
3200
0000
0000
0320
0000
0000
0032
0000
0000
1003
0010
1000
0000
,
0100
0000
0010
0000
0001
0000
1000
0000
0010
0000
0100
0000
0001
0010
0001
0000
,
0100
0000
0100
0000
0010
0000
0010
0000
1000
0001
1000
0001
1000
0000
2002
0000
,
3003
0000
0000
0000
;

//---------------dance-single - ----------------
#NOTES:
     dance-single:
     :
     Challenge:
     10:
     0.750809,1.062277,0.158173,0.021569,0.812435,731.000000,709.000000,22.000000,3.000000,0.000000,0.000000,0.750809,1.062277,0.158173,0.021569,0.812435,731.000000,709.000000,22.000000,3.000000,0.000000,0.000000:
// measure 0
0000
0000
0000
0000
,  // measure 1
0000
0000
0000
0000
,  // measure 2
0000
0000
0000
0000
,  // measure 3
0000
0000
0000
0000
,  // measure 4
1001
0000
0000
0000
0101
0000
0000
0000
0011
0000
0000
0110
0000
0000
1100
0000
,  // measure 5
1001
0000
0000
0000
1010
0000
0000
0000
1100
0000
0000
0110
0000
0000
0011
0000
,  // measure 6
0001
0000
1000
0000
0010
0000
0100
0000
0001
0000
1000
0000
0001
1000
0001
0000
,  // measure 7
2000
0000
0000
0001
0000
0000
0001
0000
0000
3001
0000
0000
1001
0000
0001
0000
,  // measure 8
1000
0100
0000
0100
1000
0000
0010
0000
0100
0000
0001
0000
1000
0000
0100
0000
,  // measure 9
0010
0001
0000
0001
0010
0000
0100
0000
1000
0000
0010
0000
0100
0010
0100
0000
,  // measure 10
0001
0100
0000
0100
0001
0000
0010
0000
0100
0000
1000
0000
0001
0100
0001
0000
,  // measure 11
0010
0001
0000
0001
0010
0000
0100
0000
1000
0000
0010
0000
0100
0000
0001
0000
,  // measure 12
1000
0100
0000
0100
0010
0000
0001
0000
0100
0000
1000
0000
0100
0000
0001
0000
,  // measure 13
1000
0010
0000
0010
0100
0000
0001
0000
1000
0000
0100
0000
0010
0001
0010
0000
,  // measure 14
0001
0100
1000
0100
0001
0010
1000
0010
,  // measure 15
0001
0000
0001
0000
1000
0000
1000
0000
0001
1000
0001
1000
0001
0000
1000
0000
,  // measure 16
1001
0000
0000
0000
1100
0000
0000
0000
1010
0000
0000
0000
0010
0100
0010
0100
,  // measure 17
0010
1000
0100
0010
0001
0100
1000
0100
,  // measure 18
0001
0010
1000
0100
1000
0010
0001
0010
,  // measure 19
0001
0000
0100
0000
1000
0000
0100
0000
0001
0000
0010
0100
1000
0000
0000
0000
,  // measure 20
1001
0000
0000
0000
0101
0000
0000
0000
0011
0000
0000
0000
0010
0100
0010
0100
,  // measure 21
0010
0001
0100
0010
1000
0100
0001
0100
,  // measure 22
1000
1000
0010
0010
0100
0100
0001
0001
,  // measure 23
1000
0010
1000
0010
0100
0001
0100
0001
1000
0010
1000
0010
1000
0000
0100
0000
,  // measure 24
0010
0000
0010
0001
0000
0000
0100
0000
0010
0000
0010
1000
0000
0000
0100
0000
,  // measure 25
0010
0000
0001
0000
0100
0000
1000
0000
0100
0000
0001
0000
0010
0100
0010
0000
,  // measure 26
0100
0000
0100
1000
0000
0000
0001
0000
0100
0000
0100
0001
0000
0000
0010
0000
,  // measure 27
0100
0000
1000
0000
0010
0000
0100
0001
0000
0100
0001
0000
1000
0000
0100
0000
,  // measure 28
0010
1000
0001
0100
0010
0001
0100
1000
,  // measure 29
0001
1000
0100
0001
0010
1000
0010
0100
,  // measure 30
1000
0010
0100
0001
0010
0100
1000
0010
,  // measure 31
0100
0001
0000
0001
1000
0000
1000
0100
0000
0100
0010
0000
0001
0000
0100
0000
,  // measure 32
0010
0000
0010
1000
0000
0000
0001
0000
0010
0000
0010
0001
0000
0000
0100
0000
,  // measure 33
0010
0000
1000
0000
0001
0000
0010
0000
0001
0000
1000
0000
0010
0100
0010
0000
,  // measure 34
0100
0000
0100
0001
0000
0000
1000
0000
0100
0000
0100
1000
0000
0000
0010
0000
,  // measure 35
0100
0000
0001
0000
0010
0000
0100
1000
0000
0100
1000
0000
0001
0000
0100
0000
,  // measure 36
0010
1000
0100
0001
0100
1000
0010
0100
,  // measure 37
0001
0010
1000
0010
0001
0100
0010
1000
,  // measure 38
0001
0000
0001
0000
0100
0000
0100
0000
0010
0000
0010
0000
1000
0100
1000
0100
,  // measure 39
0010
0100
0010
0001
0010
0001
1000
0001
1000
0000
0010
0000
0100
0000
0001
0000
,  // measure 40
1000
0010
0000
0010
0100
0000
0100
0001
0000
0001
1000
0000
0100
0000
0010
0000
,  // measure 41
0001
0010
0000
0010
0100
0000
0100
1000
0000
1000
0001
0000
0100
0010
0100
0000
,  // measure 42
0010
1000
0000
1000
0100
0000
0100
0010
0000
0010
0001
0000
1000
0100
1000
0000
,  // measure 43
0100
1000
0000
1000
0010
0000
0010
0100
0000
0100
0001
0000
1000
0000
0001
0000
,  // measure 44
0100
0001
0000
0001
1000
0000
1000
0001
0000
0001
0010
0000
0100
0000
1000
0000
,  // measure 45
0100
1000
0000
1000
0001
0000
0001
1000
0000
1000
0010
0000
0100
0001
0100
0000
,  // measure 46
0001
0010
0000
0010
1000
0000
1000
0010
0000
0010
0100
0000
1000
0001
1000
0000
,  // measure 47
0001
0100
0000
0100
0010
0000
0010
1000
0000
1000
0001
0000
0001
0000
1000
0000
,  // measure 48
2001
0000
0000
0000
0100
0000
0000
0000
3001
0010
0001
0010
0100
0010
0100
0000
1000
0000
0010
0000
0001
0000
1000
0000
0100
0000
0001
0000
0010
0000
0001
0000
,  // measure 49
1000
0000
1000
0000
0010
0000
0010
0000
0100
0000
0100
0000
0001
0000
0001
0000
1000
0100
0010
0100
1000
0100
0010
0000
0001
0010
0100
0010
0001
0000
0000
0000
,  // measure 50
1002
0000
0000
0000
0010
0000
0000
0000
1003
0010
1000
0010
0100
0010
0100
0000
0001
0000
0010
0000
1000
0000
0001
0000
0100
0000
1000
0000
0010
0000
1000
0000
,  // measure 51
0001
0000
0001
0000
0010
0000
0010
0000
0100
0000
0100
0000
1000
0000
1000
0000
0001
0000
0100
0000
0010
0000
1000
0000
0001
0100
0001
0100
0001
0000
1000
0000
,  // measure 52
0010
0000
1000
0100
0000
0100
0001
0000
0010
0000
1000
0100
0000
0100
0001
0000
,  // measure 53
0010
0000
1000
0000
0100
0000
0001
0000
0010
0000
1000
0000
0100
0010
0100
0000
,  // measure 54
0010
0000
0001
0100
0000
0100
0010
0000
1000
0000
1000
0100
0000
0100
0010
0000
,  // measure 55
0001
1000
0000
1000
0010
0000
0010
0100
0000
0100
0001
0000
1000
0000
0100
0000
,  // measure 56
0010
0000
1000
0000
0001
0000
0100
0000
0010
0000
0001
0000
0100
0010
0100
0000
,  // measure 57
0001
0010
1000
0100
1000
0010
0001
0100
,  // measure 58
0010
0000
1000
0000
0100
0000
0010
0000
0001
0000
0100
0000
0010
1000
0010
0000
,  // measure 59
0100
0000
0100
0000
0001
0000
0001
0000
1000
0010
1000
0010
0100
0001
0100
0001
,  // measure 60
1000
0000
0010
1000
0000
0000
0010
0000
0100
0000
0001
0100
0000
0000
0001
0000
0010
0000
0000
0100
0000
0000
1000
0000
0010
0000
0100
0000
0001
0000
1000
0000
,  // measure 61
0001
0000
0010
0001
0000
0000
0010
0000
0100
0000
1000
0100
0000
0000
1000
0000
0010
0000
0000
0100
0000
0000
0001
0000
0010
0000
0100
0000
1000
0000
0001
0000
,  // measure 62
1000
0100
1000
0000
0100
0010
0100
0000
0010
0001
0010
0000
0001
0000
1000
0000
,  // measure 63
0001
0100
0001
0000
0100
0010
0100
0000
0010
1000
0010
0000
1000
0000
0001
0000
,  // measure 64
1000
0010
1000
0000
0010
0100
0010
0000
0100
0001
0100
0000
0001
0010
0001
0000
,  // measure 65
0010
0100
0010
0100
1000
0001
1000
0001
0100
0010
0100
0010
1000
0000
0001
0000
,  // measure 66
1000
0010
0000
0010
0001
0000
0001
0010
0000
0010
0100
0000
0100
0001
0100
0000
,  // measure 67
0001
0010
0000
0010
1000
0000
1000
0010
0000
0010
0100
0000
0100
1000
0100
1000
,  // measure 68
0001
0100
0000
0100
1000
0000
1000
0100
0000
0100
0001
0000
0001
0010
0001
0010
,  // measure 69
0100
1000
0000
1000
0001
0000
0001
0100
0000
0100
0010
0000
1000
0000
0001
0000
,  // measure 70
1000
0100
0000
1000
0001
0000
1000
0010
0000
0100
0001
0000
1000
0100
1000
0000
,  // measure 71
0001
0100
0000
0001
1000
0000
0001
0010
0000
0100
1000
0000
0001
0100
0001
0100
,  // measure 72
0001
0010
0001
0000
1000
0100
1000
0000
0001
0100
0001
0000
1000
0010
1000
0000
,  // measure 73
0001
0000
1001
0000
1000
0000
1001
0000
0001
1000
0001
1000
0001
0000
1001
0000
;
