#TITLE:Run To The Sun;
#SUBTITLE:;
#ARTIST:Max Coveri;
#TITLETRANSLIT:;
#SUBTITLETRANSLIT:;
#ARTISTTRANSLIT:;
#GENRE:Italo-disco;
#CREDIT:TiKAL;
#MUSIC:[Simfile Buffet] - Run To The Sun.ogg;
#BANNER:[Simfile Buffet] - Run To The Sun.png;
#BACKGROUND:[Simfile Buffet] - Run To The Sun-bg.png;
#CDTITLE:cdtitle.png;
#SAMPLESTART:49.343;
#SAMPLELENGTH:16.427;
#SELECTABLE:YES;
#OFFSET:-0.056;
#BPMS:0.000=117.064
,1.000=116.114
,2.000=116.909
,9.000=116.690
,11.000=115.879
,12.000=117.815
,13.000=116.384
,14.000=116.826
,16.000=117.240
,17.000=116.170
,18.000=116.862
,19.000=116.899
,20.000=117.012
,21.000=116.456
,22.000=117.475
,23.000=116.446
,24.000=116.764
,25.000=116.893
,26.000=117.106
,27.000=116.364
,28.000=116.899
,30.000=117.038
,31.000=116.104
,32.000=117.878
,33.000=116.354
,34.000=117.355
,35.000=115.915
,36.000=117.142
,37.000=116.739
,38.000=119.437
,39.000=116.718
,40.000=116.992
,41.000=116.811
,42.000=116.692
,43.000=116.909
,44.000=116.441
,45.000=117.074
,46.000=117.225
,47.000=116.698
,48.000=116.739
,49.000=116.930
,50.000=116.899
,51.000=116.759
,52.000=117.106
,53.000=116.821
,54.000=116.961
,55.000=116.400
,56.000=116.992
,57.000=117.157
,58.000=116.518
,59.000=116.976
,60.000=117.007
,61.000=116.935
,62.000=116.790
,63.000=116.682
,64.000=117.111
,65.000=116.420
,66.000=117.261
,67.000=116.713
,68.000=117.090
,69.000=116.857
,71.000=116.672
,72.000=116.914
,73.000=116.924
,75.000=116.966
,76.000=116.672
,77.000=117.007
,78.000=116.857
,79.000=116.631
,80.000=117.204
,81.000=116.677
,82.000=116.930
,83.000=116.904
,86.000=116.374
,87.000=117.407
,88.000=116.662
,89.000=117.033
,90.000=116.752
,92.000=116.945
,94.000=116.891
,96.000=116.811
,97.000=116.523
,98.000=117.277
,99.000=116.852
,100.000=116.950
,101.000=117.012
,102.000=116.590
,103.000=116.940
,104.000=116.856
,107.000=116.945
,108.000=116.868
,110.000=117.178
,111.000=116.672
,113.000=117.194
,114.000=116.554
,115.000=117.131
,116.000=116.989
,118.000=116.502
,119.000=116.997
,122.000=116.852
,123.000=116.595
,124.000=116.986
,125.000=116.878
,127.000=116.971
,128.000=116.868
,129.000=116.610
,130.000=117.376
,131.000=116.523
,132.000=117.204
,133.000=116.826
,134.000=116.873
,135.000=116.930
,139.000=116.749
,141.000=117.026
,144.000=116.955
,145.000=116.914
,146.000=116.749
,148.000=117.230
,149.000=116.811
,150.000=117.038
,151.000=116.384
,152.000=117.196
,154.000=116.564
,155.000=116.826
,156.000=117.272
,157.000=116.854
,160.000=116.940
,161.000=117.069
,162.000=116.610
,163.000=117.048
,164.000=116.857
,166.000=117.111
,167.000=116.667
,168.000=117.002
,169.000=116.904
,171.000=116.906
,173.000=117.038
,174.000=116.698
,175.000=116.862
,176.000=116.919
,177.000=116.656
,178.000=117.116
,179.000=116.899
,184.000=117.002
,185.000=116.615
,186.000=117.199
,187.000=116.723
,188.000=117.004
,191.000=116.713
;
#STOPS:;
#DISPLAYBPM:117.000;
#BGCHANGES:;
#FGCHANGES:;

//--------------- dance-single - TiKAL ----------------
#NOTES:
     dance-single:
     TiKAL:
     Beginner:
     1:
     0,0,0,0,0:
0000
0000
0000
0000
,
0000
0000
0000
0000
,
0000
0000
0000
0000
,
0000
0000
0000
0000
,
0001
0000
0000
0000
,
0000
0000
0000
0000
,
1000
0000
0000
0000
,
0000
0000
0000
0000
,
0010
0000
0000
0000
,
0000
0000
0000
0000
,
0010
0000
0000
0000
,
0010
0000
0000
0000
,
0100
0000
0000
0000
,
0000
0000
0000
0000
,
0100
0000
0000
0000
,
0100
0000
0000
0000
,
0001
0000
0000
0000
,
0000
0000
0000
0000
,
0010
0000
0000
0000
,
0000
0000
0000
0000
,
0100
0000
0000
0000
,
0000
0000
0000
0000
,
1000
0000
0000
0000
,
0001
0000
0000
0000
,
1000
0000
0000
0000
,
0100
0000
0000
0000
,
0010
0000
0000
0000
,
0001
0000
0000
0000
,
1000
0000
0000
0000
,
0010
0000
0000
0000
,
0100
0000
0000
0000
,
0001
0000
0000
0000
,
1000
0000
0000
0000
,
0100
0000
0000
0000
,
0010
0000
0000
0000
,
0001
0000
0000
0000
,
1000
0000
0000
0000
,
0010
0000
0000
0000
,
0100
0000
0000
0000
,
0001
0000
0000
0000
,
1000
0000
0000
0000
,
0000
0000
0000
0000
,
0001
0000
0000
0000
,
0000
0000
0000
0000
,
1000
0000
0000
0000
,
0000
0000
0000
0000
,
0001
0000
0000
0000
,
0000
0000
0000
0000
,
1000
0000
0000
0000
;

//--------------- dance-single - TiKAL ----------------
#NOTES:
     dance-single:
     TiKAL:
     Easy:
     3:
     0,0,0,0,0:
0000
0000
0000
0000
,
0000
0000
0000
0000
,
0000
0000
0000
0000
,
0000
0000
0000
0000
,
0001
0000
0000
0000
,
1000
0000
1000
0000
,
0010
0000
0000
0000
,
0100
0000
0100
0000
,
0001
0000
0000
0000
,
0010
0000
0000
0000
,
0100
0000
0000
0000
,
1000
0000
1000
0000
,
0001
0000
0000
0000
,
0100
0000
0000
0000
,
0010
0000
0000
0000
,
1000
0000
1000
0000
,
0001
0000
0001
0000
,
0001
0000
0001
0000
,
1000
0000
1000
0000
,
1000
0000
1000
0000
,
0010
0000
0010
0000
,
0010
0000
0010
0000
,
0100
0000
0100
0000
,
1001
0000
0000
0000
,
0002
0000
0010
0013
,
0100
0000
1000
0000
,
0001
0000
1000
0000
,
1001
0000
0000
0000
,
2000
0000
0100
3100
,
0010
0000
0001
0000
,
1000
0000
0001
0000
,
2000
0000
0000
3000
,
0002
0000
0100
0103
,
0010
0000
1000
0000
,
0001
0000
1000
0000
,
1001
0000
0000
0000
,
2000
0000
0010
3010
,
0100
0000
0001
0000
,
1000
0000
0001
0000
,
2000
0000
0000
3000
,
0001
0000
0000
0000
,
1000
0000
1000
0000
,
0010
0000
0000
0000
,
0100
0000
0100
0000
,
0001
0000
0000
0000
,
1000
0000
1000
0000
,
0010
0000
0000
0000
,
0100
0000
0100
0000
,
1001
0000
0000
0000
;

//--------------- dance-single - TiKAL ----------------
#NOTES:
     dance-single:
     TiKAL:
     Medium:
     5:
     0,0,0,0,0:
0000
0000
0000
0000
,
0000
0000
0000
0000
,
0000
0000
0000
0000
,
0000
0000
0000
0000
,
0001
0010
0100
1000
,
0001
0100
0010
0010
,
1000
0100
0010
0001
,
1000
0001
1001
0000
,
0001
0100
0001
0000
,
1000
0100
1000
0000
,
0100
0000
0010
0000
,
0001
1000
1001
0000
,
1000
0010
1000
0000
,
0001
0010
0001
0000
,
0100
0000
0010
0000
,
1000
0001
1001
0000
,
0010
0000
0010
0000
,
1000
0001
1000
0000
,
0100
0000
0100
0000
,
1000
0001
1000
0000
,
0001
0000
0001
0000
,
0100
0010
0100
0000
,
0001
0010
0100
2000
,
0002
0000
0000
3003
,
1000
0000
1000
0000
0001
0100
0001
0000
,
1000
0100
0010
0001
,
1000
0010
0100
0001
,
1001
0000
0000
0000
,
0001
0000
0001
0000
1000
0010
1000
0000
,
0001
0010
0100
1000
,
0001
0100
0010
1000
,
0002
0003
2000
3000
,
0001
0000
0001
0000
1000
0100
1000
0000
,
0001
0100
0010
1000
,
0001
0010
0100
1000
,
1001
0000
0000
0000
,
1000
0000
1000
0000
0001
0010
0001
0000
,
1000
0010
0100
0001
,
1000
0100
0010
0001
,
2000
3000
0002
0003
,
1000
0100
0010
0001
,
1000
0010
0100
0100
,
0001
0010
0100
1000
,
0001
1000
1001
0000
,
0001
0010
0100
1000
,
0001
0100
0010
0010
,
1000
0100
0010
0001
,
1000
0001
1001
0000
,
0110
0000
0000
0000
;

//--------------- dance-single - TiKAL ----------------
#NOTES:
     dance-single:
     TiKAL:
     Hard:
     7:
     0,0,0,0,0:
0000
0000
0000
0000
,
0000
0000
0000
0000
,
0000
0000
0000
0000
,
0000
0000
0000
0000
,
1000
0000
0100
0000
0010
0000
0001
0000
1000
0000
0000
1000
0000
0000
2000
0000
,
0000
3001
0010
0100
2000
0000
3002
0000
,
0103
0000
0010
0000
1000
0000
0001
0000
0100
0000
0000
0100
0000
0000
0200
0000
,
0000
0301
1000
0100
0020
0000
0000
0030
,
0001
0000
1000
0010
0100
0000
0001
0000
,
1000
0001
0100
0001
1000
0000
0001
0000
,
0200
0000
0300
0000
0020
0000
1030
0001
,
1000
0100
0010
0001
1000
0000
1001
0000
,
1000
0000
0001
0100
0010
0000
1001
0000
,
0001
1000
0010
1000
0001
0000
1000
0000
,
0020
0000
0030
0000
0200
0000
0301
1000
,
0001
0010
0100
1000
0001
0000
1001
0000
,
1000
0001
0200
0300
,
0100
0010
0100
0010
0200
0000
0300
0000
,
0001
0010
0100
1000
,
0001
0010
0100
1000
0002
0000
0003
0000
,
0100
0001
1000
0010
,
0100
0010
1000
0001
0200
0000
0300
0000
,
0020
2030
3002
0203
,
0020
0000
0000
0330
,
0002
0000
2003
0000
3100
1000
1000
0000
,
0001
0100
0010
1000
0001
0100
0100
0000
,
0002
0000
0013
0100
1000
0001
0100
0010
,
1000
0100
0010
0001
,
2000
0000
3002
0000
0013
0001
0001
0000
,
1000
0010
0100
0001
1000
0010
0010
0000
,
1000
0100
0010
0001
1000
0010
0100
0001
,
2000
3200
0320
0032
,
2003
0000
3002
0000
0013
0001
0001
0000
,
1000
0010
0100
0001
1000
0010
0010
0000
,
2000
0000
3100
0010
0001
1000
0010
0100
,
0001
0010
0100
1000
,
0002
0000
2003
0000
3100
1000
1000
0000
,
0001
0100
0010
1000
0001
0100
0100
0000
,
0001
0010
0100
1000
0001
0100
0010
1000
,
0002
0023
0230
2300
,
3001
0000
0010
0000
0100
0000
1000
0000
0001
0000
0000
0001
0000
0000
0002
0000
,
0000
1003
0100
0010
0002
0000
2003
0000
,
3010
0000
0100
0000
0001
0000
1000
0000
0010
0000
0000
0010
0000
0000
0020
0000
,
0000
1030
0001
0010
0200
0000
0000
0300
,
1000
0000
0100
0000
0010
0000
0001
0000
1000
0000
0000
1000
0000
0000
2000
0000
,
0000
3001
0010
0100
2000
0000
3002
0000
,
0103
0000
0010
0000
1000
0000
0001
0000
0100
0000
0000
0100
0000
0000
0200
0000
,
0000
0301
1000
0100
0020
0000
0000
0030
,
1001
0000
0000
0000
;

//--------------- dance-single - TiKAL ----------------
#NOTES:
     dance-single:
     TiKAL:
     Challenge:
     9:
     0,0,0,0,0:
0000
0000
0000
0000
,
0000
0000
0000
0000
,
0000
0000
0000
0000
,
0000
0000
0000
0000
,
0001
0000
0010
0000
0100
0000
0010
0000
0001
0000
0000
0001
0000
0000
2000
0000
,
0000
3010
0100
0001
2000
0000
3002
0000
,
1003
0000
0100
0000
0010
0000
0100
0000
1000
0000
0000
1000
0000
0000
0002
0000
,
0000
0103
0010
1000
2002
0000
3003
0000
,
0001
0000
0010
0001
0100
0000
0010
1000
,
0100
0010
0001
1000
0001
0000
1000
0000
,
0002
0000
0103
0000
2000
0000
3100
0001
,
1000
0000
0100
0000
0010
0000
0001
0000
1000
0100
0010
0001
1000
0010
0100
0001
,
1000
0001
0010
0100
1000
0000
0001
0010
,
0001
0100
0010
1000
0100
0000
1000
0000
,
0002
0000
0013
0000
2000
0000
3010
0001
,
1000
0000
0010
0000
0100
0000
0001
0000
1000
0010
0100
0001
1000
0100
0010
0001
,
2000
3100
0020
0031
,
1000
0000
0010
0000
0100
0000
0001
0000
1000
0000
0001
0100
0001
0000
1000
0010
,
2000
3001
0200
0310
,
1000
0000
0001
0000
0100
0000
0010
0000
1000
0001
0100
0010
1000
0001
0010
0100
,
2000
3010
0200
0301
,
1000
0000
0100
0000
0010
0000
0001
0000
1000
0000
0010
1000
0010
0000
0100
0001
,
0200
0302
2003
3200
,
0020
0000
0000
0000
0000
0000
0330
0000
0001
0010
0100
1000
0001
0100
0010
1000
,
0002
0000
0203
0000
0310
1000
1010
0000
,
1000
0100
0010
0001
1000
0010
0010
0000
,
0100
0001
1000
0100
0010
0001
1000
0010
,
0100
0000
0001
0100
0001
0000
1000
0000
1000
0000
0001
0010
0100
1000
0001
0100
,
0020
0000
2030
0000
3001
0100
0101
0000
,
0100
0001
1000
0010
0100
0001
0001
0000
,
1000
0100
0010
0001
1000
0010
0100
0001
,
1000
0100
0000
0000
0010
0001
0000
0000
1000
0010
0000
0000
0100
0001
0000
0000
,
2000
0000
3020
0000
0130
0001
0101
0000
,
0001
0010
0100
1000
0001
0100
0100
0000
,
0010
1000
0001
0010
0100
1000
0001
0100
,
0010
0000
1000
0010
1000
0000
0001
0000
0001
0000
1000
0100
0010
0001
1000
0010
,
0200
0000
0302
0000
1003
0010
1010
0000
,
0010
1000
0001
0100
0010
1000
1000
0000
,
0001
0010
0100
1000
0001
0100
0010
1000
,
0001
0010
0000
0000
0100
1000
0000
0000
0001
0100
0000
0000
0010
1000
0000
0000
,
0001
0000
0010
0000
0100
0000
0010
0000
0001
0000
0000
0001
0000
0000
2000
0000
,
0000
3010
0100
0001
2000
0000
3002
0000
,
1003
0000
0100
0000
0010
0000
0100
0000
1000
0000
0000
1000
0000
0000
0002
0000
,
0000
0103
0010
1000
2002
0000
3003
0000
,
1000
0000
0100
0000
0010
0000
0100
0000
1000
0000
0000
1000
0000
0000
0002
0000
,
0000
0103
0010
1000
0002
0000
2003
0000
,
3001
0000
0010
0000
0100
0000
0010
0000
0001
0000
0000
0001
0000
0000
2000
0000
,
0000
3010
0100
0001
2002
0000
3003
0000
,
0110
0000
0000
0000
;

//--------------- dance-double - TiKAL ----------------
#NOTES:
     dance-double:
     TiKAL:
     Beginner:
     1:
     0,0,0,0,0:
00000000
00000000
00000000
00000000
,
00000000
00000000
00000000
00000000
,
00000000
00000000
00000000
00000000
,
00000000
00000000
00000000
00000000
,
10000000
00000000
00000000
00000000
,
00000000
00000000
00000000
00000000
,
00010000
00000000
00000000
00000000
,
00000000
00000000
00000000
00000000
,
00001000
00000000
00000000
00000000
,
00000000
00000000
00000000
00000000
,
00001000
00000000
00000000
00000000
,
00001000
00000000
00000000
00000000
,
00000001
00000000
00000000
00000000
,
00000000
00000000
00000000
00000000
,
00000001
00000000
00000000
00000000
,
00000001
00000000
00000000
00000000
,
00000001
00000000
00000000
00000000
,
00000000
00000000
00000000
00000000
,
00001000
00000000
00000000
00000000
,
00000000
00000000
00000000
00000000
,
00010000
00000000
00000000
00000000
,
00000000
00000000
00000000
00000000
,
10000000
00000000
00000000
00000000
,
00010000
00000000
00000000
00000000
,
10000000
00000000
00000000
00000000
,
01000000
00000000
00000000
00000000
,
00100000
00000000
00000000
00000000
,
00001000
00000000
00000000
00000000
,
00010000
00000000
00000000
00000000
,
00000100
00000000
00000000
00000000
,
00000010
00000000
00000000
00000000
,
00000001
00000000
00000000
00000000
,
00000001
00000000
00000000
00000000
,
00000100
00000000
00000000
00000000
,
00000010
00000000
00000000
00000000
,
00010000
00000000
00000000
00000000
,
00001000
00000000
00000000
00000000
,
01000000
00000000
00000000
00000000
,
00100000
00000000
00000000
00000000
,
10000000
00000000
00000000
00000000
,
10000000
00000000
00000000
00000000
,
00000000
00000000
00000000
00000000
,
00010000
00000000
00000000
00000000
,
00000000
00000000
00000000
00000000
,
00001000
00000000
00000000
00000000
,
00000000
00000000
00000000
00000000
,
00000001
00000000
00000000
00000000
,
00000000
00000000
00000000
00000000
,
00001000
00000000
00000000
00000000
;

//--------------- dance-double - TiKAL ----------------
#NOTES:
     dance-double:
     TiKAL:
     Easy:
     3:
     0,0,0,0,0:
00000000
00000000
00000000
00000000
,
00000000
00000000
00000000
00000000
,
00000000
00000000
00000000
00000000
,
00000000
00000000
00000000
00000000
,
10000000
00000000
00000000
00000000
,
00100000
00000000
00100000
00000000
,
01000000
00000000
00000000
00000000
,
00010000
00000000
00010000
00000000
,
10000000
00000000
00000000
00000000
,
00100000
00000000
00000000
00000000
,
01000000
00000000
00000000
00000000
,
00001000
00000000
00010000
00000000
,
00000100
00000000
00000000
00000000
,
00000010
00000000
00000000
00000000
,
00000001
00000000
00000000
00000000
,
00000100
00000000
00001000
00000000
,
00010000
00000000
00010000
00000000
,
00010000
00000000
00010000
00000000
,
01000000
00000000
01000000
00000000
,
00010000
00000000
00010000
00000000
,
00001000
00000000
00001000
00000000
,
00001000
00000000
00001000
00000000
,
00000100
00000000
00001000
00000000
,
00011000
00000000
00000000
00000000
,
20000000
00000000
00100000
30100000
,
01000000
00000000
00010000
00000000
,
00100000
00000000
00001000
00000000
,
00011000
00000000
00000000
00000000
,
00000002
00000000
00000100
00000103
,
00000010
00000000
00001000
00000000
,
00000100
00000000
00010000
00000000
,
00020000
00000000
00000000
00030000
,
00000200
00000000
00001000
00001300
,
00010000
00000000
00100000
00000000
,
00001000
00000000
00010000
00000000
,
00011000
00000000
00000000
00000000
,
00200000
00000000
00010000
00310000
,
00001000
00000000
00000100
00000000
,
00010000
00000000
00001000
00000000
,
00002000
00000000
00000000
00003000
,
10000000
00000000
00000000
00000000
,
00100000
00000000
00100000
00000000
,
01000000
00000000
00000000
00000000
,
00001000
00000000
00001000
00000000
,
00010000
00000000
00000000
00000000
,
00000010
00000000
00000010
00000000
,
00000100
00000000
00000000
00000000
,
00000001
00000000
00000001
00000000
,
00001001
00000000
00000000
00000000
;

//--------------- dance-double - TiKAL ----------------
#NOTES:
     dance-double:
     TiKAL:
     Medium:
     5:
     0,0,0,0,0:
00000000
00000000
00000000
00000000
,
00000000
00000000
00000000
00000000
,
00000000
00000000
00000000
00000000
,
00000000
00000000
00000000
00000000
,
10000000
01000000
00100000
00010000
,
10000000
00010000
01000000
01000000
,
00001000
00010000
00000100
00000010
,
00000001
00001000
00001001
00000000
,
00000001
00000100
00000001
00000000
,
00001000
00000010
00001000
00000000
,
00100000
00000000
01000000
00000000
,
00010000
10000000
10010000
00000000
,
10000000
01000000
10000000
00000000
,
00010000
00100000
00010000
00000000
,
00000010
00000000
00000100
00000000
,
00001000
00000001
00001001
00000000
,
00000001
00000000
00000001
00000000
,
00001000
00000100
00001000
00000000
,
00000100
00000000
00000100
00000000
,
00010000
00001000
00010000
00000000
,
00001000
00000000
00001000
00000000
,
01000000
00010000
01000000
00000000
,
00010000
00100000
01000000
20000000
,
00020000
00000000
00000000
30030000
,
10000000
00000000
10000000
00000000
00010000
01000000
00010000
00000000
,
01000000
00100000
10000000
00010000
,
10000000
01000000
00100000
00010000
,
00011000
00000000
00000000
00000000
,
00000001
00000000
00000001
00000000
00001000
00000010
00001000
00000000
,
00000010
00000100
00000001
00001000
,
00000001
00000100
00000010
00001000
,
00000200
00000300
00000020
00000030
,
00000001
00000000
00000001
00000000
00001000
00000100
00001000
00000000
,
00000100
00000010
00000001
00001000
,
00000001
00000100
00000010
00001000
,
00011000
00000000
00000000
00000000
,
10000000
00000000
10000000
00000000
00010000
00100000
00010000
00000000
,
00100000
01000000
10000000
00010000
,
10000000
01000000
00100000
00010000
,
02000000
03000000
00200000
00300000
,
10000000
01000000
00100000
00010000
,
10000000
00010000
01000000
01000000
,
00001000
00010000
00000100
00000010
,
00000001
00001000
00001001
00000000
,
00000001
00000010
00000100
00001000
,
00000001
00001000
00000010
00000010
,
00010000
00001000
00100000
01000000
,
10000000
00010000
10010000
00000000
,
00011000
00000000
00000000
00000000
;

//--------------- dance-double - TiKAL ----------------
#NOTES:
     dance-double:
     TiKAL:
     Hard:
     8:
     0,0,0,0,0:
00000000
00000000
00000000
00000000
,
00000000
00000000
00000000
00000000
,
00000000
00000000
00000000
00000000
,
00000000
00000000
00000000
00000000
,
10000000
00000000
01000000
00000000
00100000
00000000
00010000
00000000
20000000
00000000
00000000
00100000
00000000
00000000
30002000
00000000
,
00000000
00013000
00000100
00000010
00000002
00000000
00002003
00000000
,
00003001
00000000
00000010
00000000
00000100
00000000
00001000
00000000
00000002
00000000
00000000
00000100
00000000
00000000
00020003
00000000
,
00000000
00031000
00100000
01000000
20000000
00000000
00000000
30000000
,
00010000
00000000
01000000
00100000
10000000
00000000
01000000
00100000
,
00010000
00100000
00001000
00010000
00000200
00000000
00000320
00000000
,
00000032
00000000
00000003
00000000
00002000
00000000
00003001
00000010
,
00000100
00000010
00000001
00001000
00000001
00000000
00001001
00000000
,
00001000
00000000
00000010
00000100
00000001
00000000
00000010
00000100
,
00001000
00000100
00010000
00001000
00200000
00000000
02300000
00000000
,
23000000
00000000
30000000
00000000
00020000
00000000
10030000
01000000
,
00100000
01000000
10000000
00010000
10000000
00000000
10010000
00000000
,
00010000
00100000
00020000
00030000
,
00100000
00001000
00010000
00000100
00000020
00000000
00000030
00000000
,
00000001
00000010
00000100
00001000
,
00000100
00010000
00001000
00100000
02000000
00000000
03000000
00000000
,
10000000
00010000
01000000
00100000
,
01000000
00001000
00010000
00000010
00000200
00000000
00000300
00000000
,
00000002
00000000
00000023
00000000
00000230
00000000
00002300
00003000
,
00022000
00000000
00000000
00033000
,
20000000
00000000
30200000
00000000
01300000
00010000
00010000
00000000
,
00100000
00001000
00010000
00000100
00001000
00000010
00000010
00000000
,
00000200
00000000
00000301
00000010
00000100
00001000
00000100
00010000
,
00001000
01000000
00100000
10000000
,
00020000
00000000
00230000
00000000
01300000
10000000
10000000
00000000
,
00010000
00100000
00001000
00010000
00000100
00001000
00001000
00000000
,
00000100
00000010
00000001
00000010
00000100
00010000
00001000
00000100
,
00000020
00002030
00003002
00000203
,
00000302
00000000
00000023
00000000
00000130
00001000
00001000
00000000
,
00000010
00010000
00001000
01000000
00010000
00100000
00100000
00000000
,
02000000
00000000
13000000
00100000
01000000
00010000
01000000
00001000
,
00010000
00000100
00000010
00000001
,
00002000
00000000
00003020
00000000
00000130
00000001
00000001
00000000
,
00001000
00000010
00010000
00001000
01000000
00010000
00010000
00000000
,
00100000
01000000
10000000
01000000
00100000
00001000
00010000
00100000
,
02000000
03020000
20030000
30200000
,
10300000
00000000
01000000
00000000
00100000
00000000
00010000
00000000
20000000
00000000
00000000
00100000
00000000
00000000
30002000
00000000
,
00000000
00013000
00000100
00000010
00000002
00000000
00002003
00000000
,
00003001
00000000
00000010
00000000
00000100
00000000
00001000
00000000
00000002
00000000
00000000
00000100
00000000
00000000
00020003
00000000
,
00000000
00031000
00100000
01000000
20000000
00000000
00000000
30000000
,
00010000
00000000
10000000
00000000
01000000
00000000
00100000
00000000
00002000
00000000
00000000
00010000
00000000
00000000
00003200
00000000
,
00000000
00000310
00001000
00000001
00000020
00000000
00000230
00000000
,
00001300
00000000
00000001
00000000
00000010
00000000
00000100
00000000
00020000
00000000
00000000
00001000
00000000
00000000
00230000
00000000
,
00000000
01300000
00010000
10000000
02000000
00000000
00000000
03000000
,
01100000
00000000
00000000
00000000
;

//--------------- dance-double - TiKAL ----------------
#NOTES:
     dance-double:
     TiKAL:
     Challenge:
     10:
     0,0,0,0,0:
00000000
00000000
00000000
00000000
,
00000000
00000000
00000000
00000000
,
00000000
00000000
00000000
00000000
,
00000000
00000000
00000000
00000000
,
10000000
00000000
00100000
00000000
01000000
00000000
00010000
00000000
20000000
00000000
00000000
32000000
00000000
00000000
03020000
00000000
,
00000000
00031000
00010000
00000010
00000200
00000000
00000302
00000000
,
00001003
00000000
00000100
00000000
00000010
00000000
00000001
00000000
00002000
00000000
00000000
00003200
00000000
00000000
00020300
00000000
,
00000000
00031000
01000000
00100000
02200000
00000000
03300000
00000000
,
10000000
00000000
01000000
10000000
00010000
00000000
00100000
00001000
,
00010000
00000100
00000010
00000001
00001000
00000000
00000100
00000000
,
00020000
00000000
00031000
00000000
02000000
00000000
03100000
10000000
,
00010000
00000000
00100000
00000000
01000000
00000000
10000000
00000000
00010000
00100000
01000000
10000000
00010000
01000000
00100000
10000000
,
00010000
10000000
01000000
00100000
00010000
00000000
MMMM1000
00000100
,
00000010
00000001
00001000
00000100
00001000
00000000
0100MMMM
00000000
,
20000000
00000000
31000000
00000000
00200000
00000000
00310000
10000000
,
00010000
00000000
01000000
00000000
00100000
00000000
10000000
00000000
00010000
01000000
00100000
10000000
00010000
00100000
01000000
10000000
,
00020000
00130000
00002000
00013000
,
00000100
00000000
00001000
00000000
00000010
00000000
00000100
00000000
00000001
00000000
00001000
00000010
00001000
00000000
00010000
00100000
,
00020000
10030000
02000000
03100000
,
00010000
00000000
10000000
00000000
01000000
00000000
00100000
00000000
00010000
10000000
01000000
00100000
00010000
10000000
00100000
01000000
,
00020000
01030000
00002000
00013000
,
00000010
00000000
00001000
00000000
00000001
00000000
00000100
00000000
00000010
00000000
00001000
00000100
00001000
00000000
00010000
01000000
,
00020000
20030000
30020000
02030000
,
00200000
00000000
00000000
00000000
00000000
00000000
03300000
00000000
10000000
01000000
00100000
00010000
10000000
00100000
01000000
00010000
,
20000000
00000000
30200000
00000000
01300000
00010000
01010000
00000000
,
MMMM1000
00000100
00000010
00000001
00001000
00000010
00000010
00000000
,
00000100
00000001
00001000
00000100
00010000
00001000
00100000
00010000
,
01000000
00000000
00010000
01000000
00010000
00000000
10000000
00000000
10000000
00000000
00010000
00100000
01000000
10000000
00010000
01000000
,
00200000
00000000
20300000
00000000
30010000
01000000
01010000
00000000
,
MMMM0100
00001000
00000100
00000010
00000001
00001000
00001000
00000000
,
00000001
00000010
00000100
00001000
00000001
00000100
00000010
00001000
,
00000001
00000100
00000000
00000000
00000010
00001000
00000000
00000000
00000100
00001000
00000000
00000000
00000001
00000010
00000000
00000000
,
00000002
00000000
00000203
00000000
00000310
00001000
00001010
00000000
,
0001MMMM
00100000
01000000
10000000
00010000
01000000
01000000
00000000
,
00100000
10000000
00010000
00100000
00001000
00010000
00000100
00001000
,
00000010
00000000
00001000
00000010
00001000
00000000
00000001
00000000
00000001
00000000
00001000
00000100
00000010
00000001
00001000
00000010
,
00000200
00000000
00000302
00000000
00001003
00000010
00001010
00000000
,
0010MMMM
00010000
00100000
01000000
10000000
00010000
00010000
00000000
,
10000000
01000000
00100000
00010000
10000000
00100000
01000000
00010000
,
10000000
00100000
00000000
00000000
01000000
00010000
00000000
00000000
00100000
00010000
00000000
00000000
10000000
01000000
00000000
00000000
,
10000000
00000000
00100000
00000000
01000000
00000000
00010000
00000000
20000000
00000000
00000000
32000000
00000000
00000000
03020000
00000000
,
00000000
00031000
00010000
00000010
00000200
00000000
00000302
00000000
,
00001003
00000000
00000100
00000000
00000010
00000000
00000001
00000000
00002000
00000000
00000000
00003200
00000000
00000000
00020300
00000000
,
00000000
00031000
01000000
00100000
02200000
00000000
03300000
00000000
,
10000000
00000000
01000000
00000000
00100000
00000000
00010000
00000000
20000000
00000000
00000000
30200000
00000000
00000000
00320000
00000000
,
00000000
00031000
00010000
00000100
00000020
00000000
00000032
00000000
,
00001003
00000000
00000010
00000000
00000100
00000000
00000001
00000000
00002000
00000000
00000000
00003020
00000000
00000000
00020030
00000000
,
00000000
00031000
00100000
00000100
00200200
00000000
00300300
00000000
,
00011000
00000000
00000000
00000000
;
