#TITLE:Pixelsurfing;
#SUBTITLE:;
#ARTIST:Sonorode;
#TITLETRANSLIT:;
#SUBTITLETRANSLIT:;
#ARTISTTRANSLIT:;
#GENRE:EDM;
#CREDIT:;
#BANNER:Pixelsurfing-bn.png;
#BACKGROUND:Pixelsurfing-bg.png;
#LYRICSPATH:;
#CDTITLE:cd-title-Benpai.png;
#MUSIC:Pixelsurfing.ogg;
#OFFSET:0.009000;
#SAMPLESTART:44.146900;
#SAMPLELENGTH:11.034500;
#SELECTABLE:YES;
#DISPLAYBPM:174.000000;
#BPMS:0.000000=174.000000
,414.000000=130.500000
,414.500000=87.000000
,415.000000=43.500000
;
#STOPS:
;
#BGCHANGES:;
#KEYSOUNDS:;
#ATTACKS:;

//---------------dance-single - ----------------
#NOTES:
     dance-single:
     :
     Challenge:
     9:
     0.599446,0.685872,0.285309,0.236597,0.034794,603.000000,562.000000,41.000000,34.000000,8.000000,0.000000,0.599446,0.685872,0.285309,0.236597,0.034794,603.000000,562.000000,41.000000,34.000000,8.000000,0.000000:
0000
0000
0000
0000
,
0000
0000
0000
0000
,
0000
0000
0000
0000
,
0000
0000
0000
0000
,
0000
0000
0000
0000
,
0000
0000
0000
0000
,
0000
0000
0000
0000
,
0000
0000
0000
0000
,
1000
0100
0010
0001
0100
0001
1000
0000
,
0100
0010
0100
1000
0001
1000
0010
0000
,
0100
0010
1000
0100
1000
0001
1000
0000
,
0010
0100
0001
1000
0001
0010
0100
1000
,
0001
4000
3010
0100
0000
0100
0001
0000
,
1000
0000
0100
0000
1000
0000
0010
0000
0004
0000
0000
0000
0000
0000
0000
0003
,
1010
0000
1000
0001
0010
0100
1000
0001
,
1002
0000
0000
0000
0103
0000
0010
0000
00M1
0000
1000
0000
0400
0000
0000
0300
,
0110
0010
0100
1000
0001
0100
0010
0000
,
0100
0001
1000
0001
0010
0100
1000
0000
,
0001
0100
0010
1000
0001
1000
0100
0000
,
1000
0001
1000
0010
0100
0001
0010
0100
,
1000
0004
0103
0010
0000
0010
1000
0000
,
0001
0000
0010
0000
0001
0000
0100
0000
4000
0000
0000
0000
0000
0000
0000
3000
,
0110
0000
0010
1000
0100
0010
0001
1000
,
2M10
0000
3001
1000
0100
0010
0002
0000
,
0203
0010
0001
0010
,
1300
0100
0010
0100
0001
1000
0100
0010
,
0001
1000
0000
0010
0000
0100
0002
0000
,
1003
0100
1000
0001
0000
0100
0020
0000
,
1030
0001
1000
0001
2000
0000
3100
0000
,
0010
0001
1000
0001
0100
0001
0020
0000
,
0130
1000
1000
0010
,
0001
0010
0100
0001
1000
0100
0010
0100
,
2100
0000
3001
0100
0000
0010
0100
0000
,
0001
0001
1000
0010
0100
0010
1000
0001
,
0000
0010
0000
0100
0000
0010
0002
0000
,
0103
0010
0000
1000
0000
0010
0200
0000
,
0301
0000
2000
3001
0000
0002
0013
0000
,
0100
1000
0001
1000
0001
0100
0020
0000
,
0130
0001
0001
0010
,
1000
0010
0100
1000
0001
0100
0010
0100
,
0002
0000
0000
0100
0000
0000
0100
0000
,
0000
0100
0000
0000
0103
0000
0001
0000
,
0020
0000
0000
0001
0000
0000
0001
0000
,
0000
0001
0000
0000
0031
0000
0010
0000
,
0200
0000
0000
1000
0000
0000
1000
0000
,
0000
1000
0000
0000
1300
0000
0001
0000
,
2000
0000
0000
0010
0000
0000
0010
0000
,
0000
0010
0000
3010
0100
0001
0010
0100
,
1000
0000
0001
0000
0100
0000
0010
0100
0001
0000
0010
0000
0100
0000
1000
0000
,
0001
0000
1000
0000
0010
0000
0100
0010
1000
0000
0001
0000
0010
0000
0100
0000
,
1000
0000
0010
0000
0100
0000
0001
1000
0001
0000
0010
0000
0100
0000
1000
0000
,
0001
0000
0100
0000
0010
0000
0100
0010
1000
0000
0001
0000
1000
0000
0100
0000
,
0010
0000
0001
0000
0100
0000
0010
1000
0001
0000
1000
0000
0100
0000
0010
0000
,
0100
0000
1000
0000
0001
0000
0100
0010
0100
0000
0001
0000
1000
0000
0001
0000
,
0010
0000
0100
0000
0010
0000
0001
1000
0010
0000
0100
0000
0001
0000
1000
0000
,
0100
0010
0001
0010
0002
0000
0000
0000
,
1003
0010
0100
0001
0010
0001
1000
0000
,
0010
0100
0010
1000
0001
1000
0100
0000
,
0010
0100
1000
0010
1000
0001
1000
0000
,
0100
0010
0001
1000
0001
0100
0010
1000
,
0001
4000
3100
0010
0000
0010
0001
0000
,
1000
0000
0010
0000
1000
0000
0100
0000
0004
0000
0000
0000
0000
0000
0000
0003
,
1100
0000
1000
0001
0100
0010
1000
0001
,
1002
0000
0000
0000
0013
0000
0100
0000
0M01
0000
1000
0000
0040
0000
0000
0030
,
0110
0100
0010
1000
0001
0010
0100
0000
,
0010
0001
1000
0001
0100
0010
1000
0000
,
0001
0010
0100
1000
0001
1000
0010
0000
,
1000
0001
1000
0100
0010
0001
0100
0010
,
1000
0004
0013
0100
0000
0100
1000
0000
,
0001
0000
0100
0000
0001
0000
0010
0000
4000
0000
0000
0000
0000
0000
0000
3000
,
0110
0000
0100
1000
0010
0100
0001
1000
,
2100
0000
3001
1000
0010
0100
0002
0000
,
0023
0100
0001
0100
,
1030
0010
0100
0010
0001
1000
0010
0100
,
0001
1000
0000
0100
0000
0010
0002
0000
,
1003
0010
1000
0001
0000
0010
0200
0000
,
1300
0001
1000
0001
2000
0000
3010
0000
,
0100
0001
1000
0001
0010
0001
0200
0000
,
0310
1000
1000
0100
,
0001
0100
0010
0001
1000
0010
0100
0010
,
2010
0000
3001
0010
0000
0100
0010
0000
,
0001
1000
0010
0100
0010
1000
0001
0010
,
0000
0100
0000
0010
0000
0001
2000
0000
,
3010
0100
0001
1000
0000
0100
0020
0000
,
0031
0000
2000
3001
0000
0002
0103
0000
,
0010
1000
0001
1000
0001
0010
0200
0000
,
0310
0001
0001
0100
,
1000
0100
0010
1000
0001
0010
0100
0010
,
M001
0000
1001
0000
0000
1000
1010
0000
,
0001
0000
0101
0000
0000
0100
0110
0000
,
1000
0000
1100
0000
0000
0001
1001
0000
,
0100
0000
0110
0000
0000
1000
1010
0000
,
0001
0000
0011
0000
0000
1000
1100
0000
,
0100
0000
0110
0000
0000
0010
0011
0000
,
1000
0000
1001
0000
0000
0001
0101
0000
,
0100
0000
0110
0010
0000
0010
1000
0100
,
0010
0000
0011
0000
0000
0001
1010
0000
,
1000
0000
1001
0000
0000
0001
0101
0000
,
1000
0000
1100
0000
0000
0100
0110
0000
,
0001
0000
1010
0000
0000
1000
1100
0000
,
0001
0000
1001
0000
0000
1000
0101
0000
,
0100
0000
0110
0000
0000
0010
1010
0000
,
0001
0000
0011
0000
0000
0010
0110
0000
,
1000
0000
0000
0000
0000
0000
0001
0000
0000
0000
0000
0000
0000
0000
0000
0000
0000
0000
0100
0000
0000
0000
0000
0000
M020
0000
0000
0000
M000
0000
0000
M000
0000
0000
M000
0000
0030
0000
0000
0000
0000
0000
0000
0000
0000
0000
0000
0000
;

//---------------dance-single - ----------------
#NOTES:
     dance-single:
     :
     Hard:
     8:
     0.481148,0.505176,0.048711,0.160051,0.066108,484.000000,477.000000,7.000000,23.000000,52.000000,0.000000,0.481148,0.505176,0.048711,0.160051,0.066108,484.000000,477.000000,7.000000,23.000000,52.000000,0.000000:
0000
0000
0000
0000
,
0000
0000
0000
0000
,
0000
0000
0000
0000
,
0000
0000
0000
0000
,
0000
0000
0000
0000
,
0000
0000
0000
0000
,
0000
0000
0000
0000
,
0000
0000
0000
0000
,
1000
0000
1000
0001
0000
0001
1000
0000
,
0010
1000
0000
0001
1000
0000
1000
0000
,
0100
0000
0010
0001
0000
0001
1000
0000
,
0010
0100
0000
0100
0001
1000
0001
1000
,
0400
03M0
1000
0001
0000
0010
0001
0000
,
1000
0000
0010
0000
1000
0000
0010
0000
010M
000M
000M
000M
001M
000M
000M
000M
,
1000
0000
0001
1000
0000
0100
1000
0010
,
0200
0300
0100
0001
10M0
0100
0010
0000
,
0001
0000
0001
1000
0000
1000
0010
0000
,
0100
0010
0000
0100
0001
0000
0001
0000
,
1000
0000
0100
1000
0000
1000
0001
0000
,
0100
0001
1000
0100
0010
0000
0010
0000
,
0004
M003
M100
0001
0000
0001
1000
0000
,
0100
0000
0010
0000
0100
0000
0010
0000
M001
M000
M000
M000
M100
M000
M000
M000
,
0010
0000
1000
0001
0000
1000
0010
0000
,
0100
0000
0001
1000
0000
0100
0020
0000
,
0032
0M00
0M00
0M00
,
0M00
1003
0001
0100
0010
1000
0100
0010
,
0000
0001
0000
0100
0000
0010
2000
0000
,
3001
1000
0000
0100
0000
0010
0002
0000
,
0003
0100
0100
0001
,
1000
0100
0010
0100
1000
0001
0020
0000
,
0130
1000
1000
0010
,
0100
0010
1000
0001
0010
0100
1000
0100
,
0020
0000
0031
1000
0000
0001
0100
0000
,
0001
0001
1000
0100
0010
0001
0100
0010
,
0000
1000
0000
0100
0000
1000
0002
0000
,
0103
0001
0000
1000
0000
0100
0020
0000
,
0000
0030
0100
0000
0100
0000
1000
0000
,
0010
1000
0001
0010
0100
0010
0002
0000
,
0103
0010
0010
1000
,
0001
0010
0100
0010
0001
1000
0010
1000
,
0100
0000
0000
1000
0000
0000
0001
0000
,
0000
0100
0000
0000
0001
0000
0001
0000
,
1000
0000
0000
0100
0000
0000
0010
0000
,
0000
0100
0000
0000
1000
0000
1000
0000
,
0010
0000
0000
0100
0000
0000
0001
0000
,
0000
0010
0000
0000
0100
0000
0100
0000
,
0010
0000
0000
0001
0000
0000
1000
0000
,
0000
0001
0000
0001
2000
0000
3020
0000
,
0130
0001
1000
0100
,
0010
0001
1000
0010
,
0100
0010
1000
0001
,
0010
0100
1000
0001
,
0100
0001
1000
0100
,
0010
0100
1000
0001
,
0010
0001
0100
0010
,
1000
0100
0012
0000
,
0103
0000
0100
0001
0000
0001
1000
0000
,
0100
1000
0000
0001
1000
0000
1000
0000
,
0010
0000
0100
0001
0000
0001
1000
0000
,
0100
0010
0000
0010
0001
1000
0001
1000
,
0040
0M30
1000
0001
0000
0100
0001
0000
,
1000
0000
0100
0000
1000
0000
0100
0000
001M
000M
000M
000M
010M
000M
000M
000M
,
1000
0000
0001
1000
0000
0010
1000
0100
,
0020
0030
0010
0001
1M00
0010
0100
0000
,
0001
0000
0001
1000
0000
1000
0100
0000
,
0010
0100
0000
0010
0001
0000
0001
0000
,
1000
0000
0010
1000
0000
1000
0001
0000
,
0010
0001
1000
0010
0100
0000
0100
0000
,
0004
M003
M010
0001
0000
0001
1000
0000
,
0010
0000
0100
0000
0010
0000
0100
0000
M001
M000
M000
M000
M010
M000
M000
M000
,
0100
0000
1000
0001
0000
1000
0100
0000
,
0010
0000
0001
1000
0000
0010
0200
0000
,
0302
00M0
00M0
00M0
,
00M0
1003
0001
0010
0100
1000
0010
0100
,
0000
0001
0000
0010
0000
0100
2000
0000
,
3001
1000
0000
0010
0000
0100
0002
0000
,
0003
0010
0010
0001
,
1000
0010
0100
0010
1000
0001
0200
0000
,
0310
1000
1000
0100
,
0010
0100
1000
0001
0100
0010
1000
0010
,
0200
0000
0301
1000
0000
0001
0010
0000
,
0001
0001
1000
0010
0100
0001
0010
0100
,
0000
1000
0000
0010
0000
1000
0002
0000
,
0013
0001
0000
1000
0000
0010
0200
0000
,
0000
0300
0010
0000
0010
0000
1000
0000
,
0100
1000
0001
0100
0010
0100
0002
0000
,
0013
0100
0100
1000
,
0001
0100
0010
0100
0001
1000
0100
1000
,
0001
0000
0001
1000
0000
0100
0010
0000
,
0001
1000
0000
0001
1000
0000
1001
0000
,
0001
0000
1000
0100
0000
0010
0001
0000
,
1000
0001
0000
1000
0001
0000
0110
0000
,
0001
0000
1000
0010
0000
0100
0001
0000
,
1000
0100
0000
1000
0100
0000
0011
0000
,
1000
0000
0001
0100
0000
0010
1000
0000
,
0001
0010
0000
0001
0010
0100
0010
0001
,
1000
0000
0010
0100
0000
0001
1000
0000
,
0100
0010
0000
0100
0010
0000
1100
0000
,
1000
0000
0001
0100
0000
0010
1000
0000
,
0001
1000
0000
0001
1000
0000
0011
0000
,
1000
0000
0010
0100
0000
0001
0100
0000
,
0001
1000
0000
0100
0010
0000
0011
0000
,
0001
0000
1000
0100
0000
1000
0010
0000
,
0100
0000
0000
0000
0000
0000
0010
0000
0000
0000
0000
0000
0000
0000
0000
0000
0000
0000
1000
0000
0000
0000
0000
0000
0M01
0000
0000
0000
00M0
0000
0000
0M00
0000
0000
00M0
0000
0000
0000
0000
0000
0000
0000
0000
0000
0000
0000
0000
0000
;

//---------------dance-single - ----------------
#NOTES:
     dance-single:
     :
     Beginner:
     2:
     0.098417,0.179188,0.006959,0.006959,0.000000,99.000000,98.000000,1.000000,1.000000,0.000000,0.000000,0.098417,0.179188,0.006959,0.006959,0.000000,99.000000,98.000000,1.000000,1.000000,0.000000,0.000000:
// measure 0
0000
0000
0000
0000
,  // measure 1
0000
0000
0000
0000
,  // measure 2
0000
0000
0000
0000
,  // measure 3
0000
0000
0000
0000
,  // measure 4
0000
0000
0000
0000
,  // measure 5
0000
0000
0000
0000
,  // measure 6
0000
0000
0000
0000
,  // measure 7
0000
0000
0000
0000
,  // measure 8
0001
0000
0000
0000
,  // measure 9
1000
0000
0000
0000
,  // measure 10
0010
0000
0000
0000
,  // measure 11
0100
0000
0000
0000
,  // measure 12
0001
0000
0000
0000
,  // measure 13
0010
0000
0000
0000
,  // measure 14
0100
0000
0000
0000
,  // measure 15
1000
0000
0000
0000
,  // measure 16
0001
0000
0000
0000
,  // measure 17
1000
0000
0000
0000
,  // measure 18
0010
0000
0000
0000
,  // measure 19
0100
0000
0000
0000
,  // measure 20
0001
0000
0000
0000
,  // measure 21
0010
0000
0000
0000
,  // measure 22
0100
0000
0000
0000
,  // measure 23
0010
0000
0000
0000
,  // measure 24
0001
0000
0000
0000
,  // measure 25
0000
0000
0000
0000
,  // measure 26
1000
0000
0000
0000
,  // measure 27
0010
0000
0000
0000
,  // measure 28
0100
0000
0000
0000
,  // measure 29
0001
0000
0000
0000
,  // measure 30
1000
0000
0000
0000
,  // measure 31
0001
0000
0000
0000
,  // measure 32
0010
0000
0000
0000
,  // measure 33
0100
0000
0000
0000
,  // measure 34
1000
0000
0000
0000
,  // measure 35
0010
0000
0000
0000
,  // measure 36
1000
0000
0000
0000
,  // measure 37
0001
0000
0000
0000
,  // measure 38
0100
0000
0000
0000
,  // measure 39
0001
0000
0000
0000
,  // measure 40
1001
0000
0000
0000
,  // measure 41
0000
0000
0000
0000
,  // measure 42
1000
0000
0000
0000
,  // measure 43
0000
0000
0000
0000
,  // measure 44
0001
0000
0000
0000
,  // measure 45
0000
0000
0000
0000
,  // measure 46
0010
0000
0000
0000
,  // measure 47
0000
0000
0000
0000
,  // measure 48
0001
0000
0001
0000
,  // measure 49
1000
0000
1000
0000
,  // measure 50
0010
0000
0010
0000
,  // measure 51
0100
0000
0100
0000
,  // measure 52
0001
0000
0001
0000
,  // measure 53
1000
0000
1000
0000
,  // measure 54
0100
0000
0100
0000
,  // measure 55
1000
0000
0002
0000
,  // measure 56
0013
0000
0000
0000
,  // measure 57
0100
0000
0000
0000
,  // measure 58
0010
0000
0000
0000
,  // measure 59
0001
0000
0000
0000
,  // measure 60
1000
0000
0000
0000
,  // measure 61
0010
0000
0000
0000
,  // measure 62
0100
0000
0000
0000
,  // measure 63
0001
0000
0000
0000
,  // measure 64
0100
0000
0000
0000
,  // measure 65
0001
0000
0000
0000
,  // measure 66
1000
0000
0000
0000
,  // measure 67
0100
0000
0000
0000
,  // measure 68
0010
0000
0000
0000
,  // measure 69
0100
0000
0000
0000
,  // measure 70
1000
0000
0000
0000
,  // measure 71
0001
0000
0000
0000
,  // measure 72
0100
0000
0000
0000
,  // measure 73
0000
0000
0000
0000
,  // measure 74
0001
0000
0000
0000
,  // measure 75
1000
0000
0000
0000
,  // measure 76
0100
0000
0000
0000
,  // measure 77
1000
0000
0000
0000
,  // measure 78
0010
0000
0000
0000
,  // measure 79
0100
0000
0000
0000
,  // measure 80
0001
0000
0000
0000
,  // measure 81
1000
0000
0000
0000
,  // measure 82
0100
0000
0000
0000
,  // measure 83
0010
0000
0000
0000
,  // measure 84
0001
0000
0000
0000
,  // measure 85
1000
0000
0000
0000
,  // measure 86
0010
0000
0000
0000
,  // measure 87
1000
0000
0000
0000
,  // measure 88
0001
0000
0000
0000
,  // measure 89
1000
0000
0000
0000
,  // measure 90
0001
0000
0000
0000
,  // measure 91
1000
0000
0000
0000
,  // measure 92
0010
0000
0000
0000
,  // measure 93
0100
0000
0000
0000
,  // measure 94
0010
0000
0000
0000
,  // measure 95
0100
0000
0000
0000
,  // measure 96
0001
0000
0000
0000
,  // measure 97
1000
0000
0000
0000
,  // measure 98
0010
0000
0000
0000
,  // measure 99
0100
0000
0000
0000
,  // measure 100
0001
0000
0000
0000
,  // measure 101
0010
0000
0000
0000
,  // measure 102
0100
0000
0000
0000
,  // measure 103
1000
0000
0000
0000
;

//---------------dance-single - ----------------
#NOTES:
     dance-single:
     :
     Easy:
     4:
     0.174963,0.216591,0.006959,0.055670,0.000000,176.000000,175.000000,1.000000,8.000000,0.000000,0.000000,0.174963,0.216591,0.006959,0.055670,0.000000,176.000000,175.000000,1.000000,8.000000,0.000000,0.000000:
0000
0000
0000
0000
,
0000
0000
0000
0000
,
0000
0000
0000
0000
,
0000
0000
0000
0000
,
0000
0000
0000
0000
,
0000
0000
0000
0000
,
0000
0000
0000
0000
,
0000
0000
0000
0000
,
0001
0000
0001
0000
,
1000
0000
1000
0000
,
0010
0000
0010
0000
,
0100
0000
0100
0000
,
0001
0000
0001
0000
,
0010
0000
0010
0000
,
0100
0000
0100
0000
,
1000
0000
0010
0000
,
0100
0000
0100
0000
,
0001
0000
0001
0000
,
0010
0000
0010
0000
,
0100
0000
0100
0000
,
1000
0000
1000
0000
,
0010
0000
0010
0000
,
0100
0000
0100
0000
,
0001
0000
1000
0000
,
0002
0000
0000
0000
,
0003
0000
0000
0000
,
1000
0000
0100
0000
,
1000
0000
0001
0000
,
0100
0000
0100
0000
,
0010
0000
1000
0000
,
0001
0000
0001
0000
,
0010
0000
0100
0000
,
1000
0000
0010
0000
,
1000
0000
0001
0000
,
0010
0000
0100
0000
,
1000
0000
0001
0000
,
0100
0000
0100
0000
,
0010
0000
1000
0000
,
0001
0000
0001
0000
,
0010
0000
0100
0000
,
1002
0000
0000
0000
,
0000
0000
0000
0000
,
0023
0000
0000
0000
,
0000
0000
0000
0000
,
0230
0000
0000
0000
,
0000
0000
0000
0000
,
2300
0000
0000
0000
,
0000
0000
0000
0000
,
3001
0000
0001
0000
,
1000
0000
1000
0000
,
0010
0000
0010
0000
,
0100
0000
0100
0000
,
0001
0000
0001
0000
,
1000
0000
1000
0000
,
0100
0000
0100
0000
,
0010
0001
0002
0000
,
1003
0000
0010
0000
,
0100
0000
0001
0000
,
0010
0000
0100
0000
,
0010
0000
0001
0000
,
1000
0000
0010
0000
,
1000
0000
0001
0000
,
0010
0000
0100
0000
,
1000
0000
1000
0000
,
0001
0000
0100
0000
,
0001
0000
1000
0000
,
0100
0000
0010
0000
,
0100
0000
1000
0000
,
0001
0000
0100
0000
,
0010
0000
1000
0000
,
0001
0000
1000
0000
,
0100
0000
0010
0000
,
0002
0000
0000
0000
,
0003
0000
0000
0000
,
1000
0000
0010
0000
,
1000
0000
0001
0000
,
0010
0000
0010
0000
,
0100
0000
1000
0000
,
0001
0000
0001
0000
,
0100
0000
0010
0000
,
1000
0000
0001
0000
,
1000
0000
0100
0000
,
1000
0000
0001
0000
,
0010
0000
0100
0000
,
1000
0000
1000
0000
,
0001
0000
0100
0000
,
0010
0000
0010
0000
,
1000
0000
0100
0000
,
1000
0000
1000
0000
,
0001
0000
0001
0000
,
0010
0000
0010
0000
,
0100
0000
0100
0000
,
1000
0000
1000
0000
,
0010
0000
0010
0000
,
0100
0000
0100
0000
,
0001
0000
0001
0000
,
1000
0000
0100
0000
,
1000
0000
0001
0000
,
0100
0000
0001
0000
,
1000
0000
0001
0000
,
0010
0000
0100
0000
,
0010
0000
0001
0000
,
1000
0000
0001
0000
,
1000
0000
0200
0300
;

//---------------dance-single - ----------------
#NOTES:
     dance-single:
     :
     Medium:
     6:
     0.299226,0.324887,0.006959,0.055670,0.000000,301.000000,300.000000,1.000000,8.000000,5.000000,0.000000,0.299226,0.324887,0.006959,0.055670,0.000000,301.000000,300.000000,1.000000,8.000000,5.000000,0.000000:
0000
0000
0000
0000
,
0000
0000
0000
0000
,
0000
0000
0000
0000
,
0000
0000
0000
0000
,
0000
0000
0000
0000
,
0000
0000
0000
0000
,
0000
0000
0000
0000
,
0000
0000
0000
0000
,
0001
0000
1000
1000
,
0010
0000
0100
0100
,
0001
0000
0010
0010
,
0100
0000
1000
1000
,
0001
0100
0001
1000
,
0100
0100
0040
0000
,
0031
0000
0100
0100
,
0010
1000
0M10
0100
,
0001
0000
1000
1000
,
0100
0000
0010
0010
,
0001
0000
0100
0100
,
0010
0000
1000
1000
,
0001
0100
0001
1000
,
0100
0100
0040
0000
,
0031
0000
1000
1000
,
0010
0100
0010
1000
,
0002
0000
0000
0000
,
0000
0000
1003
0010
,
0100
0000
0001
1000
,
0100
0000
1000
0001
,
0100
0010
0010
1000
,
0001
0000
1000
0000
,
0100
1000
1000
0001
,
0010
0100
0010
0001
,
1000
0000
0001
0000
,
1000
0000
0100
1000
,
0001
0000
0100
0010
,
1000
0000
0100
0000
,
0010
0001
0001
1000
,
0010
0100
0001
0010
,
0100
1000
1000
0001
,
0100
0010
1000
0100
,
0020
0000
0000
0000
,
0000
0000
0000
0000
,
0032
0000
0000
0000
,
0000
0000
0000
0000
,
0203
0000
0000
0000
,
0000
0000
0000
0000
,
0320
0000
0000
0000
,
0000
0000
0000
0000
,
1030
0001
1000
0100
,
1000
0010
0100
0001
,
0010
0100
0010
0001
,
1000
0001
0100
0001
,
1000
0100
0010
0100
,
1000
0001
1000
0100
,
0010
0001
1000
0010
,
1000
0000
0001
0000
0020
0000
0000
0030
,
0110
0000
1000
1000
,
0100
0000
0010
0010
,
0001
0000
0100
0100
,
0010
0000
1000
1000
,
0001
0010
0001
1000
,
0010
0010
0400
0000
,
0301
0000
0010
0010
,
0100
1000
01M0
0010
,
0001
0000
1000
1000
,
0010
0000
0100
0100
,
0001
0000
0010
0010
,
0100
0000
1000
1000
,
0001
0010
0001
1000
,
0010
0010
0400
0000
,
0301
0000
1000
1000
,
0100
0010
0100
1000
,
0002
0000
0000
0000
,
0000
0000
1003
0100
,
0010
0000
0001
1000
,
0010
0000
1000
0001
,
0010
0100
0100
1000
,
0001
0000
1000
0000
,
0010
1000
1000
0001
,
0100
0010
0100
0001
,
1000
0000
0001
0000
,
1000
0000
0010
1000
,
0001
0000
0010
0100
,
1000
0000
0010
0000
,
0100
0001
0001
1000
,
0100
0010
0001
0100
,
0010
1000
1000
0001
,
0010
0100
1000
0010
,
0100
0001
1000
0100
,
0010
0001
0010
0100
,
1000
0001
0100
0001
,
1000
0010
0100
0001
,
0010
0001
1000
0010
,
0100
0010
1000
0001
,
0010
0100
1000
0001
,
0100
0010
1000
0001
,
0010
0001
1000
0010
,
0100
0010
1000
0001
,
0010
0100
0010
0001
,
1000
0001
0100
0001
,
1000
0100
1000
0001
,
0010
0100
1000
0001
,
0100
0001
1000
0100
,
0010
0000
0100
0000
020M
000M
030M
0000
;
