#VERSION:0.83;
#TITLE:Nouveau parfum;
#SUBTITLE:;
#ARTIST:Boggie;
#TITLETRANSLIT:;
#SUBTITLETRANSLIT:;
#ARTISTTRANSLIT:;
#GENRE:;
#ORIGIN:;
#CREDIT:;
#BANNER:[Simfile Buffet] - Nouveau parfum.png;
#BACKGROUND:[Simfile Buffet] - Nouveau parfum-bg.png;
#PREVIEWVID:;
#JACKET:[Simfile Buffet] - Nouveau parfum-jacket.png;
#CDIMAGE:;
#DISCIMAGE:;
#LYRICSPATH:[Simfile Buffet] - Nouveau parfum.lrc;
#CDTITLE:cdtitle.png;
#MUSIC:[Simfile Buffet] - Nouveau parfum.ogg;
#OFFSET:0.000000;
#SAMPLESTART:96.745537;
#SAMPLELENGTH:12.000000;
#SELECTABLE:YES;
#BPMS:0.000=80.000,
176.000=65.000,
176.333=60.000,
176.667=63.000,
177.000=57.000,
177.333=46.000,
177.667=26.000,
178.000=32.000,
178.333=30.000,
178.667=16.000;
#STOPS:;
#DELAYS:;
#WARPS:;
#TIMESIGNATURES:0.000=2=4;
#TICKCOUNTS:0.000=4;
#COMBOS:0.000=1;
#SPEEDS:0.000=1.000=0.000=0;
#SCROLLS:0.000=1.000;
#FAKES:;
#LABELS:0.000=Song Start;
#BGCHANGES:-0.333=[Simfile Buffet] - Nouveau parfum.avi=1.000=1=0=1===CrossFade==,
178.667=[Simfile Buffet] - Nouveau parfum-bg.png=0.200=1=0=1===CrossFade==,
99999=-nosongbg-=1.000=0=0=0 // don't automatically add -songbackground-
;
#KEYSOUNDS:;
#ATTACKS:
;

//---------------dance-single - ----------------
#NOTEDATA:;
#CHARTNAME:C 01 X 01;
#STEPSTYPE:dance-single;
#DESCRIPTION:;
#CHARTSTYLE:;
#DIFFICULTY:Beginner;
#METER:1;
#RADARVALUES:0.060445,0.110451,0.070519,0.141039,0.000000,60.000000,50.000000,10.000000,20.000000,0.000000,0.000000,0.000000,0.000000,0.000000,0.060445,0.110451,0.070519,0.141039,0.000000,60.000000,50.000000,10.000000,20.000000,0.000000,0.000000,0.000000,0.000000,0.000000;
#CREDIT:vincentw;
#NOTES:
0000
0000
0000
0000
,
0000
0000
0000
0000
,
0000
0000
0000
0000
,
0000
0000
0000
0000
,
0000
0000
1000
0000
,
0000
0000
1000
0000
,
0000
0000
0001
0000
,
0000
0000
0001
0000
,
0000
0000
0100
0000
,
0000
0000
0100
0000
,
0000
0000
0010
0000
,
0000
0000
0010
0000
,
0000
0000
1000
0000
,
0000
0000
0001
0000
,
0000
0000
0010
0000
,
0000
0000
0100
0000
,
0000
0000
0110
0000
,
0000
0000
1001
0000
,
0000
0000
1000
0000
,
0001
0000
1000
0000
,
0000
0000
1001
0000
,
0000
0000
0110
0000
,
0000
0000
0010
0000
,
0100
0000
0010
0000
,
0000
0000
2002
0000
,
3003
0000
2000
0000
,
3000
0000
0002
0000
,
0003
0000
2000
0000
,
3000
0000
0020
0000
,
0030
0000
0200
0000
,
0300
0000
0020
0000
,
0030
0000
0200
0000
,
0300
0000
0000
0000
0000
0000
0220
0000
0000
0000
0000
0330
,
0000
0000
0000
0000
0000
0000
2002
0000
0000
0000
0000
3003
,
0000
0000
0001
0000
,
1000
0000
0000
0000
0000
0000
0002
0000
0000
0000
0000
0003
,
0000
0000
0000
0000
0000
0000
2002
0000
0000
0000
0000
3003
,
0000
0000
0000
0000
0000
0000
0220
0000
0000
0000
0330
0000
,
0000
0000
0100
0100
,
0100
0000
0000
0100
0000
0000
0020
0000
0000
0000
0000
0030
,
0000
0000
1001
0000
,
0001
0000
1000
0000
,
0001
0000
1000
0000
,
0010
0000
0100
0000
,
0020
0000
0000
0030
;

//---------------dance-single - ----------------
#NOTEDATA:;
#CHARTNAME:C 02 X 02;
#STEPSTYPE:dance-single;
#DESCRIPTION:;
#CHARTSTYLE:;
#DIFFICULTY:Easy;
#METER:2;
#RADARVALUES:0.100742,0.142008,0.084623,0.331441,0.000000,100.000000,88.000000,12.000000,47.000000,0.000000,0.000000,0.000000,0.000000,0.000000,0.100742,0.142008,0.084623,0.331441,0.000000,100.000000,88.000000,12.000000,47.000000,0.000000,0.000000,0.000000,0.000000,0.000000;
#CREDIT:vincentw;
#NOTES:
0000
0000
0000
0000
,
0000
0000
0000
0000
,
0000
0000
0000
0000
,
0000
0000
0000
0000
,
0000
0000
1000
0000
,
1000
0000
0010
0000
,
0010
0000
0100
0000
,
0100
0000
0002
0000
,
0003
0000
1000
0000
,
1000
0000
0100
0000
,
0100
0000
0010
0000
,
0010
0000
0002
0000
,
0003
0000
2002
0003
,
3000
0000
0220
0300
,
0030
0000
2002
3000
,
0003
0000
0220
0000
,
0330
0000
0000
0000
0000
0000
2020
0000
0000
0000
0000
3030
,
0000
0000
0000
0000
0000
0000
0202
0000
0000
0000
0000
0303
,
0000
0000
2000
0000
,
3002
0000
0000
0000
0000
0000
2003
0000
0000
0000
0000
3000
,
0000
0000
0000
0000
0000
0000
0022
0000
0000
0000
0000
0033
,
0000
0000
0000
0000
0000
0000
2000
0000
0000
0000
3000
0000
,
0200
0300
0010
0100
,
0010
0000
0000
0100
0000
0000
0020
0000
0000
0000
0000
0030
,
0000
0000
1002
0000
,
1000
0000
2003
0000
,
0010
0000
3020
0000
,
0100
0000
0230
0000
,
0302
0000
2003
0100
,
3100
0000
0200
0010
,
0310
0000
0020
0001
,
0031
0000
0002
1000
,
2000
0000
0000
3003
0000
0000
1002
0000
0000
1000
0000
0003
,
1000
0000
0000
0000
0000
0000
2010
0000
0000
0010
0000
3000
,
0010
0000
0020
1000
,
0230
0000
0000
0001
0000
0000
0320
0000
0000
0000
0000
0030
,
0000
0000
0000
1000
0000
0000
2200
0000
0000
0000
0000
3300
,
0000
0000
0000
0010
0000
0000
0002
0000
0000
0000
0003
0000
,
0100
0100
0200
2300
,
3020
0000
0000
0032
0000
0000
0203
0000
0000
0000
0000
0300
,
0000
0001
0101
0000
,
0100
0010
1000
0010
,
0100
0001
1000
0000
,
0001
0010
0100
1000
,
0002
0000
2003
3000
;

//---------------dance-single - ----------------
#NOTEDATA:;
#CHARTNAME:C 04 X 05;
#STEPSTYPE:dance-single;
#DESCRIPTION:;
#CHARTSTYLE:;
#DIFFICULTY:Medium;
#METER:4;
#RADARVALUES:0.165217,0.205123,0.063467,0.260922,0.052890,164.000000,155.000000,9.000000,37.000000,0.000000,0.000000,0.000000,0.000000,0.000000,0.165217,0.205123,0.063467,0.260922,0.052890,164.000000,155.000000,9.000000,37.000000,0.000000,0.000000,0.000000,0.000000,0.000000;
#CREDIT:vincentw;
#NOTES:
0000
0000
0000
0000
,
0000
0000
0000
0000
,
0000
0000
0000
0000
,
0000
0000
0000
0000
,
0000
0000
1000
0001
,
1000
0001
0100
0010
,
0100
0010
1000
0010
,
0100
0001
2000
3000
,
0002
0003
1000
0100
,
1000
0100
0010
0001
,
0010
0001
1000
0010
,
1000
0010
0200
0000
,
0301
0000
0002
2003
,
3001
0000
0020
0230
,
0310
0000
0002
0023
,
0031
0010
0011
0000
,
0100
0000
0000
0100
0000
0000
1200
0000
0000
1000
0000
0300
,
1000
0000
0000
1000
0000
0000
2010
0000
0000
0010
0000
3000
,
0010
0100
0200
0001
,
0320
0000
0000
1000
0000
0000
0230
0000
0000
0000
0000
0300
,
0000
0000
0000
0010
0000
0000
0201
0000
0000
0010
0000
0300
,
0001
0000
0000
0001
0000
0000
0012
0000
0000
2000
0003
0000
,
0010
0010
3002
0023
,
2030
0000
0000
3200
0000
0000
0302
0000
0000
0000
0000
0003
,
0000
0100
0020
1000
,
0130
0100
0200
0010
,
0301
0001
0002
1000
,
0013
0010
0020
0001
,
0130
0000
1000
0000
0100
0000
1000
0000
0000
1010
0000
0000
,
0010
0200
0301
0010
,
0100
2000
3010
0100
,
0001
0020
2030
3020
,
0031
0000
1000
0000
0001
0000
2000
0000
0000
0010
0000
3000
,
0001
0000
0000
1000
0000
0000
0002
0000
0000
0100
0000
0003
,
1000
0000
0000
0001
0000
0000
1000
0000
0100
0000
0010
0000
,
0001
0000
0100
0000
0010
0000
2000
0000
0000
0000
0000
3000
,
0001
0000
0010
0000
0001
0000
0010
0000
0000
0110
0000
0000
,
0100
1000
0010
1010
,
1000
0000
0000
0001
0000
0000
1000
0000
1000
0100
0000
0100
,
0010
0000
0010
0001
0000
0000
2000
0000
0000
0000
0000
3000
,
0001
0000
0000
0001
0000
0000
0101
0000
0000
0000
0000
0100
,
0010
1000
0001
0010
,
0100
0000
0000
1000
0000
0000
0001
0000
0000
0000
0000
1000
,
0010
0100
0001
0010
,
0200
0000
0320
0030
;

//---------------dance-single - ----------------
#NOTEDATA:;
#CHARTNAME:C 05 X 08;
#STEPSTYPE:dance-single;
#DESCRIPTION:;
#CHARTSTYLE:;
#DIFFICULTY:Hard;
#METER:5;
#RADARVALUES:0.255885,0.284017,0.028208,0.359649,0.370227,254.000000,250.000000,4.000000,51.000000,0.000000,0.000000,0.000000,0.000000,0.000000,0.255885,0.284017,0.028208,0.359649,0.370227,254.000000,250.000000,4.000000,51.000000,0.000000,0.000000,0.000000,0.000000,0.000000;
#CREDIT:vincentw;
#NOTES:
0000
0000
0000
0000
,
0000
0000
0000
0000
,
0000
0000
0000
0000
,
0000
0000
0000
0000
,
0000
0000
0000
0000
0000
0000
1000
0000
0000
0001
0000
0001
,
0100
0000
0000
0010
0000
0010
1000
0000
0000
0001
0000
0001
,
0010
0000
0000
0100
0000
0100
1000
0000
0000
0010
0000
0010
,
0100
0000
0000
0001
0000
0001
1000
0000
0000
0100
0000
0000
,
0100
0000
0000
0020
0000
0000
0031
0000
0001
1000
0000
1000
,
0020
0030
0000
0200
0300
0000
0002
0003
0001
1000
0000
1000
,
0200
0300
0000
0020
0030
0000
0002
0003
0001
0100
0000
0100
,
0020
0030
0000
2000
3000
0000
0002
0003
0001
0000
0010
0000
,
0100
0000
0000
0200
0000
0000
0310
0002
1000
2000
0000
0003
,
3000
0000
0000
0020
0000
0000
1030
0200
0010
0020
0000
0300
,
0030
0000
0000
0200
0000
0000
1300
0002
0010
0020
0000
0003
,
0030
0000
0000
0001
0010
0100
2000
0000
0000
3000
0010
0100
,
0001
0000
0000
1000
0000
1000
0020
0000
0000
0001
0000
0030
,
1000
0000
1000
0010
0000
0010
0200
0000
0000
1000
0000
0300
,
0001
0000
0000
0010
0000
0010
0200
0000
2300
0000
3020
0000
,
0230
0000
0302
0000
0023
0000
0230
0000
0000
0000
0000
0300
,
0000
0000
0000
1000
0000
1000
0020
0000
0000
0001
0000
0030
,
1000
0000
0000
0001
0000
0001
0200
0000
0000
1000
0300
0000
,
0001
0000
0000
0001
0000
0001
1000
0000
1000
0010
0000
0010
,
0001
0000
0001
0010
0000
0010
2000
0000
0000
0000
0000
3000
,
0010
0000
0100
0001
0000
0100
0010
0000
0010
1000
0000
1000
,
0010
0000
0000
0010
0100
0001
0010
0000
0010
0001
0000
0001
,
0010
0000
0000
0100
1000
0010
0100
0000
0100
0001
0000
0001
,
1000
0000
0000
1000
0001
1000
0100
0000
0010
0100
0000
0010
,
0200
0000
0302
0000
0023
0000
1030
0000
0000
1010
0000
0000
,
0010
0000
1000
0010
0100
0010
1000
0000
0000
0100
0000
0000
,
0010
0000
0001
0010
0100
0010
0001
0000
0000
1000
0000
0001
,
1000
0000
0000
0010
0100
0001
1000
0000
0000
0100
0000
0000
,
0002
0000
0203
0000
2300
0000
3010
0000
0010
1000
0000
1000
,
0001
0000
0001
0010
0000
0010
0001
0000
0001
0100
0000
0100
,
0010
0000
0010
1000
0000
1000
0002
0000
0203
0000
2300
0000
,
3002
0000
0023
0000
2030
0000
3001
0000
0001
0010
0000
0010
,
2000
0000
3020
0000
0032
0000
0103
0000
0000
0101
0000
0001
,
0100
0000
0100
1000
0000
1000
0100
0000
0000
0110
0000
0000
,
0020
0000
0000
0230
0000
0000
0301
0100
0001
1000
0100
1000
,
0001
0010
0001
1000
0000
0010
2000
0000
0000
0010
0000
3000
,
0001
0000
1000
0000
0010
0000
0110
0000
0000
0100
0000
0100
,
0001
0000
0000
1000
0000
1000
0100
0000
0000
0010
0000
0010
,
0100
0000
0000
1000
0010
0100
0001
0000
0000
0010
0000
0010
,
0001
0000
0000
1000
0000
1000
0100
0000
0000
0010
0000
0000
,
0002
0000
0000
0000
0000
0000
0013
0100
0010
0100
0000
0000
;

//---------------dance-double - ----------------
#NOTEDATA:;
#CHARTNAME:C 02 X 03;
#STEPSTYPE:dance-double;
#DESCRIPTION:;
#CHARTSTYLE:;
#DIFFICULTY:Easy;
#METER:2;
#RADARVALUES:0.098727,0.126230,0.014104,0.282078,0.000000,98.000000,96.000000,2.000000,40.000000,0.000000,0.000000,0.000000,0.000000,0.000000,0.098727,0.126230,0.014104,0.282078,0.000000,98.000000,96.000000,2.000000,40.000000,0.000000,0.000000,0.000000,0.000000,0.000000;
#CREDIT:vincentw;
#NOTES:
// measure 0
00000000
00000000
00000000
00000000
,  // measure 1
00000000
00000000
00000000
00000000
,  // measure 2
00000000
00000000
00000000
00000000
,  // measure 3
00000000
00000000
00000000
00000000
,  // measure 4
00000000
00000000
00010000
00000000
,  // measure 5
00010000
00000000
00001000
00000000
,  // measure 6
00001000
00000000
00010000
00000000
,  // measure 7
00010000
00000000
00020000
00000000
,  // measure 8
00030000
00000000
00001000
00000000
,  // measure 9
00001000
00000000
00010000
00000000
,  // measure 10
00010000
00000000
00001000
00000000
,  // measure 11
00001000
00000000
00002000
00000000
,  // measure 12
00003000
00000000
00100000
00200000
,  // measure 13
00300000
00000000
00010000
00020000
,  // measure 14
00030000
00000000
10000000
20000000
,  // measure 15
30000000
00000000
02200000
00000000
,  // measure 16
03300000
00000000
00000000
10000000
00000000
00000000
20000000
00000000
00000000
00000000
00000000
30000000
,  // measure 17
00000000
00000000
00000000
00010000
00000000
00000000
00020000
00000000
00000000
00000000
00000000
00030000
,  // measure 18
00000000
00100000
00200000
00000000
,  // measure 19
00302000
00000000
00000000
00000000
00000000
00000000
00023000
00000000
00000000
00000000
00000000
00030000
,  // measure 20
00000000
00000000
00000000
00000100
00000000
00000000
00000200
00000000
00000000
00000000
00000000
00000300
,  // measure 21
00000000
00000000
00000000
00000010
00000000
00000000
00000020
00000000
00000000
00000000
00000030
00000000
,  // measure 22
00000002
00000003
00001000
00000010
,  // measure 23
00001000
00000000
00000000
00000010
00000000
00000000
00002000
00000000
00000000
00000000
00000000
00003000
,  // measure 24
00000000
00000010
00020000
00000000
,  // measure 25
00001000
00000000
00032000
00000000
,  // measure 26
00100000
00000000
00203000
00000000
,  // measure 27
01000000
00000000
02300000
00000000
,  // measure 28
23000000
00000000
30020000
01000000
,  // measure 29
01030000
00000000
02000000
00100000
,  // measure 30
03100000
00000000
00200000
01000000
,  // measure 31
01300000
02000000
03002000
00000000
,  // measure 32
00003000
00000000
00000000
00010000
00000000
00000000
00020000
00000000
00000000
00000000
00000000
00030000
,  // measure 33
00000010
00000000
00000000
00001000
00000000
00000000
00000020
00000000
00000000
00000000
00000000
00000030
,  // measure 34
00000000
00000100
00000200
00000001
,  // measure 35
00000320
00000000
00000000
00001000
00000000
00000000
00000230
00000000
00000000
00000000
00000000
00000300
,  // measure 36
00000001
00000000
00000000
00000010
00000000
00000000
00000200
00000000
00000000
00000000
00000000
00000300
,  // measure 37
00000000
00000000
00000000
00001000
00000000
00000000
00000200
00000000
00000000
00000000
00000300
00000000
,  // measure 38
00010000
00001000
00200000
00302000
,  // measure 39
00023000
00000000
00000000
00030200
00000000
00000000
00002300
00000000
00000000
00000000
00000000
00003000
,  // measure 40
00000000
00000100
00011000
00000000
,  // measure 41
00010000
00001000
00100000
00001000
,  // measure 42
00010000
00000000
00001000
00000000
,  // measure 43
00010000
00000010
00001000
00000010
,  // measure 44
00020000
00000000
00032000
00003000
;

//---------------dance-double - ----------------
#NOTEDATA:;
#CHARTNAME:C 04 X 06;
#STEPSTYPE:dance-double;
#DESCRIPTION:;
#CHARTSTYLE:;
#DIFFICULTY:Medium;
#METER:4;
#RADARVALUES:0.161187,0.205123,0.035260,0.275026,0.052890,160.000000,155.000000,5.000000,39.000000,0.000000,0.000000,0.000000,0.000000,0.000000,0.161187,0.205123,0.035260,0.275026,0.052890,160.000000,155.000000,5.000000,39.000000,0.000000,0.000000,0.000000,0.000000,0.000000;
#CREDIT:vincentw;
#NOTES:
// measure 0
00000000
00000000
00000000
00000000
,  // measure 1
00000000
00000000
00000000
00000000
,  // measure 2
00000000
00000000
00000000
00000000
,  // measure 3
00000000
00000000
00000000
00000000
,  // measure 4
00000000
00000000
00001000
00010000
,  // measure 5
00001000
00010000
00001000
00100000
,  // measure 6
00001000
00100000
00001000
01000000
,  // measure 7
00001000
01000000
00002000
00003000
,  // measure 8
00020000
00030000
00010000
00001000
,  // measure 9
00010000
00001000
00010000
00000100
,  // measure 10
00010000
00000100
00010000
00000010
,  // measure 11
00010000
00000010
00020000
00000000
,  // measure 12
00031000
00000000
00200000
00302000
,  // measure 13
00013000
00000000
00000020
00020030
,  // measure 14
00031000
00000000
02000000
03002000
,  // measure 15
00013000
00000000
00020020
00030000
,  // measure 16
00001030
00000000
00000000
00001000
00000000
00000000
00002000
00000000
00000000
00000001
00000000
00003000
,  // measure 17
00000001
00000000
00000000
00000010
00000000
00000000
00000020
00000000
00000000
00000100
00000000
00000030
,  // measure 18
00000100
00001000
00000020
00001000
,  // measure 19
00020030
00000000
00000000
00001000
00000000
00000000
00030200
00000000
00000000
00000000
00000000
00000300
,  // measure 20
00010000
00000000
00000000
00001000
00000000
00000000
02000000
00000000
00000000
00100000
00000000
03000000
,  // measure 21
00010000
00000000
00000000
00100000
00000000
00000000
00020000
00000000
00000000
20000000
00030000
00000000
,  // measure 22
00100000
00100000
30020000
00230000
,  // measure 23
20300000
00000000
00000000
32000000
00000000
00000000
03002000
00000000
00000000
00000000
00000000
00003000
,  // measure 24
00000000
01000000
00002000
00100000
,  // measure 25
00013000
00001000
02000000
00010000
,  // measure 26
03001000
00010000
00000200
00010000
,  // measure 27
00001300
00000100
00000020
00000001
,  // measure 28
00000130
00000000
00001000
00000000
00000100
00000000
00001000
00000000
00000000
00010010
00000000
00000000
,  // measure 29
00001000
02000000
03001000
00100000
,  // measure 30
00010000
20000000
30100000
01000000
,  // measure 31
00001000
00020000
02030000
03020000
,  // measure 32
00031000
00000000
00010000
00000000
00001000
00000000
00020000
00000000
00000000
00100000
00000000
00030000
,  // measure 33
00001000
00000000
00000000
00010000
00000000
00000000
00000200
00000000
00000000
00000010
00000000
00000300
,  // measure 34
00001000
00000000
00000000
00000010
00000000
00000000
00000100
00000000
00000001
00000000
00000010
00000000
,  // measure 35
00000100
00000000
00001000
00000000
00000010
00000000
00000200
00000000
00000000
00000000
00000000
00000300
,  // measure 36
00000010
00000000
00001000
00000000
00000100
00000000
00010000
00000000
00000000
00011000
00000000
00000000
,  // measure 37
00001000
01000000
00010000
10010000
,  // measure 38
10000000
00000000
00000000
00010000
00000000
00000000
10000000
00000000
10000000
01000000
00000000
01000000
,  // measure 39
00100000
00000000
00100000
00010000
00000000
00000000
00200000
00000000
00000000
00000000
00000000
00300000
,  // measure 40
00001000
00000000
00000000
00010000
00000000
00000000
00011000
00000000
00000000
00000000
00000000
00001000
,  // measure 41
00100000
01000000
10000000
00100000
,  // measure 42
01000000
00000000
00000000
01000000
00000000
00000000
00001000
00000000
00000000
00000000
00000000
00010000
,  // measure 43
00000100
00000010
00001000
00000010
,  // measure 44
00000002
00000000
00002003
00003000
;

//---------------dance-double - ----------------
#NOTEDATA:;
#CHARTNAME:C 06 X 09;
#STEPSTYPE:dance-double;
#DESCRIPTION:;
#CHARTSTYLE:;
#DIFFICULTY:Hard;
#METER:6;
#RADARVALUES:0.254877,0.284017,0.028208,0.352597,0.370227,253.000000,249.000000,4.000000,50.000000,0.000000,0.000000,0.000000,0.000000,0.000000,0.254877,0.284017,0.028208,0.352597,0.370227,253.000000,249.000000,4.000000,50.000000,0.000000,0.000000,0.000000,0.000000,0.000000;
#CREDIT:vincentw;
#NOTES:
// measure 0
00000000
00000000
00000000
00000000
,  // measure 1
00000000
00000000
00000000
00000000
,  // measure 2
00000000
00000000
00000000
00000000
,  // measure 3
00000000
00000000
00000000
00000000
,  // measure 4
00000000
00000000
00000000
00000000
00000000
00000000
00001000
00000000
00000000
00010000
00000000
00010000
,  // measure 5
00000100
00000000
00000000
00001000
00000000
00001000
00000010
00000000
00000000
00000100
00000000
00000100
,  // measure 6
00000001
00000000
00000000
00000010
00000000
00000010
00000100
00000000
00000000
00001000
00000000
00001000
,  // measure 7
00000010
00000000
00000000
00010000
00000000
00010000
00001000
00000000
00000000
00000000
00010000
00000000
,  // measure 8
00001000
00000000
00000000
00200000
00000000
00000000
00310000
00000000
00010000
10000000
00000000
10000000
,  // measure 9
00200000
00300000
00000000
02000000
03000000
00000000
00020000
00030000
00010000
00100000
00000000
00100000
,  // measure 10
02000000
03000000
00000000
00200000
00300000
00000000
00020000
00030000
00010000
01000000
00000000
01000000
,  // measure 11
00002000
00003000
00000000
00200000
00300000
00000000
00020000
00030000
00010000
00000000
00100000
00000000
,  // measure 12
00001000
00000000
00000000
02000000
00000000
00000000
03001000
00020000
00000100
00000200
00000000
00030000
,  // measure 13
00000300
00000000
00000000
00000020
00000000
00000000
00001030
00100000
00010000
00020000
00000000
00000000
,  // measure 14
00030000
00000000
00000000
00200000
00000000
00000000
00301000
00020000
00000100
00000200
00000000
00030000
,  // measure 15
00000300
00000000
00000000
00010000
00001000
00100000
02000000
00000000
00000000
03000000
10000000
00100000
,  // measure 16
01000000
00000000
00000000
00010000
00000000
00010000
00200000
00000000
00000000
10000000
00000000
00300000
,  // measure 17
01000000
00000000
01000000
00100000
00000000
00100000
02000000
00000000
00000000
00010000
00000000
03000000
,  // measure 18
10000000
00000000
00000000
00010000
00000000
00010000
02000000
00000000
03200000
00000000
00320000
00000000
,  // measure 19
00032000
00000000
00003200
00000000
00000302
00000000
00000023
00000000
00000000
00000000
00000000
00000030
,  // measure 20
00000000
00000000
00000000
00000001
00000000
00000001
00002000
00000000
00000000
00000100
00000000
00003000
,  // measure 21
00000010
00000000
00000000
00010000
00000000
00010000
00000200
00000000
00000000
00001000
00000000
00000000
,  // measure 22
00000310
00000000
00000000
00000010
00000000
00000010
00000001
00000000
00000001
00000100
00000000
00000100
,  // measure 23
00001000
00000000
00001000
00000100
00000000
00000100
00000002
00000000
00000000
00000000
00000000
00000003
,  // measure 24
00001000
00000000
00000100
00010000
00000000
00001000
00100000
00000000
00100000
00010000
00000000
00010000
,  // measure 25
00100000
00000000
00000000
00100000
00010000
01000000
00100000
00000000
00100000
10000000
00000000
10000000
,  // measure 26
00100000
00000000
00000000
01000000
00100000
10000000
01000000
00000000
01000000
10000000
00000000
10000000
,  // measure 27
00010000
00000000
00000000
00010000
10000000
00010000
01000000
00000000
00100000
01000000
00000000
00100000
,  // measure 28
02000000
00000000
03020000
00000000
00230000
00000000
00301000
00000000
00000000
00010010
00000000
00000000
,  // measure 29
00000010
00000000
00001000
00000100
00010000
00000100
00001000
00000000
00000000
00000010
00000000
00000000
,  // measure 30
00000100
00000000
00000001
00000010
00000100
00000010
00000001
00000000
00000000
00001000
00000000
00000000
,  // measure 31
00000001
00000000
00000000
00000010
00000100
00000010
00000001
00000000
00000000
00000100
00000000
00000000
,  // measure 32
00002000
00000000
00003002
00000000
00000023
00000000
00010030
00000000
00010000
00001000
00000000
00001000
,  // measure 33
00010000
00000000
00010000
01000000
00000000
01000000
10000000
00000000
10000000
00100000
00000000
00100000
,  // measure 34
10000000
00000000
10000000
00010000
00000000
00010000
00200000
00000000
00320000
00000000
02030000
00000000
,  // measure 35
03002000
00000000
00023000
00000000
00030200
00000000
00000310
00000000
00000010
00000100
00000000
00000100
,  // measure 36
00000002
00000000
00000203
00000000
00002300
00000000
00003001
00000000
00000000
00001001
00000000
00001000
,  // measure 37
00000010
00000000
00000010
00000100
00000000
00000100
00000001
00000000
00000000
00000101
00000000
00000000
,  // measure 38
00000200
00000000
00000000
00000320
00000000
00000000
00000130
00000001
00000010
00000100
00001000
00000010
,  // measure 39
00010000
00001000
01000000
00010000
00000000
00100000
02000000
00000000
00000000
00100000
03000000
00000000
,  // measure 40
01000000
00000000
10000000
00000000
00100000
00000000
01100000
00000000
00000000
01000000
00000000
01000000
,  // measure 41
00010000
00000000
00000000
10000000
00000000
10000000
00100000
00000000
00000000
01000000
00000000
01000000
,  // measure 42
00001000
00000000
00000000
00100000
00001000
00010000
00000100
00000000
00000000
00000010
00000000
00000010
,  // measure 43
00000100
00000000
00000000
00001000
00000000
00001000
00000001
00000000
00000000
00000010
00000000
00000000
,  // measure 44
00000200
00000000
00000000
00000000
00000000
00000000
00010300
00001000
00010000
00001000
00000000
00000000
;

//---------------dance-single - ----------------
#NOTEDATA:;
#CHARTNAME:C 07 X 11;
#STEPSTYPE:dance-single;
#DESCRIPTION:;
#CHARTSTYLE:;
#DIFFICULTY:Challenge;
#METER:7;
#RADARVALUES:0.408005,0.394468,0.035260,0.035260,0.825077,405.000000,400.000000,5.000000,5.000000,19.000000,0.000000,0.000000,0.000000,0.000000,0.408005,0.394468,0.035260,0.035260,0.825077,405.000000,400.000000,5.000000,5.000000,19.000000,0.000000,0.000000,0.000000,0.000000;
#CREDIT:vincentw;
#NOTES:
0000
0000
0000
0000
0000
0000
0000
0000
0000
0000
0000
0000
M000
0000
0000
0000
0000
0000
0000
0000
0000
0000
000M
00M0
,
0M00
M000
00M0
0M00
,
000M
0000
0000
0000
0000
0000
000M
0000
00M0
0000
000M
0000
0M00
0000
0000
0000
0000
0000
0000
0000
0000
0000
00M0
M000
,
000M
00M0
0M00
M000
,
000M
0000
0000
0000
0000
1000
0010
0100
0010
1000
0001
1000
,
0100
0010
0100
0001
1000
0001
0100
0010
0100
1000
0001
1000
,
0010
0100
0010
0001
1000
0001
0010
1000
0100
0010
0001
0100
,
1000
0100
0001
0010
0100
1000
0010
0000
0000
1000
0010
0000
,
1000
0000
0001
0010
0000
0000
0001
0010
1000
0010
0100
0010
,
0001
0100
1000
0100
0010
0100
0001
0100
1000
0001
0010
1000
,
0001
0010
1000
0001
0100
1000
1000
0100
0001
0100
0010
0100
,
1000
0010
0001
0010
0100
0010
1000
0000
0001
0010
0100
1000
,
0001
0000
0000
0000
1000
0000
0010
0100
0010
0000
0000
0010
0100
0000
0001
0000
0010
0000
0020
0000
1000
0000
0100
0000
,
0031
0000
0001
1000
0000
1000
0001
0010
0100
0200
0001
0010
,
1300
0000
1000
0001
0000
0001
1000
0010
0100
0200
1000
0010
,
0301
0000
0001
0010
0000
0100
1000
0000
0100
0010
0000
0010
,
0001
0000
0100
0001
0100
0000
0010
1000
0000
1000
0010
0000
0100
0000
0000
0000
1000
0000
0100
0000
0000
0000
0010
0000
,
0100
0000
0001
0100
1000
0001
0010
0000
0100
0010
0000
1000
,
0010
0000
0100
0010
0100
0001
1000
0000
0010
1000
0100
0000
,
1000
0000
0100
1000
0010
0100
0001
0000
0010
0001
0000
1000
,
0001
0000
0010
0100
0000
0010
0001
0000
0100
0000
0010
0000
0001
0000
0000
0000
0010
0000
1000
0000
0000
0000
0100
0000
,
0001
0000
0100
1000
0000
0010
0100
0000
0001
0010
0000
0001
,
0100
0000
0000
0100
0000
0100
0001
0010
0001
0100
0001
0100
,
0010
0100
0010
1000
0000
1000
0001
0000
0010
0100
0000
0010
,
0001
0000
0000
1000
0010
0000
1000
0000
0000
0001
0010
0100
1000
0000
0000
0000
0010
0000
1000
0000
0001
0000
0010
0000
,
0001
0000
0100
0001
1000
0100
1000
0000
0001
0100
0001
0010
,
0001
0000
1000
0010
1000
0100
1000
0000
0001
0010
0100
0010
,
1000
0000
0001
0100
0010
0100
1000
0000
0001
0100
0000
1000
,
0100
0000
0010
0100
0010
0000
1000
0000
0000
0001
0000
0000
0010
0000
0000
0000
0100
0000
0110
0000
0000
0000
0010
0000
,
0001
0000
1000
0010
0001
0010
1000
0000
0001
0010
0100
0010
,
0001
0000
0000
0001
1000
0000
0010
0000
0100
0000
0010
1000
0100
0000
0000
0000
1000
0000
0100
0000
0010
0000
0100
0000
,
1000
0000
0000
0000
0001
0000
0100
0000
1000
0000
0100
0000
0001
0000
0000
0000
0001
0000
0010
0000
0100
0000
1000
0100
,
0010
0000
0001
0100
0010
0000
1000
0000
0010
0000
0100
0000
0001
0000
0000
0000
0010
0000
0100
0000
0000
0000
0010
0000
,
0001
0000
0100
1000
0001
0010
1000
0000
0001
0010
0000
0001
,
1000
0000
0100
0001
1000
0010
0001
0000
0100
0010
0001
0010
,
0100
0000
0010
0100
1000
0100
0010
0000
0100
0001
0000
1000
,
0100
0000
0000
0010
0001
0000
1000
0010
0000
0010
1000
0000
0001
0000
0000
0000
1000
0000
1001
0000
0000
0000
0001
0000
,
0010
0000
0100
0110
0000
0010
0001
0000
0001
1001
0000
1000
,
0010
0000
0000
0010
0000
0010
0010
1000
1000
1000
0001
0001
,
0001
0100
0100
0100
0000
0010
0020
0000
0001
0001
0000
0100
,
0100
0000
0000
0000
1000
0000
0030
0000
0010
0000
1000
0000
1010
0000
0000
0000
0010
0000
0100
0000
0000
0000
0001
0010
,
0001
0000
0001
0010
0000
0010
1000
0000
1000
0100
0000
0100
,
0001
0000
0000
0000
0000
0000
1000
0000
0010
0000
0100
0000
0001
0000
0000
0000
0001
0000
0010
0000
0000
0000
0010
0100
,
1000
0010
0001
0100
,
1000
0001
1000
0001
1000
0010
0200
1000
0010
0301
0000
0000
;
