#TITLE:No Controles (Don't control);
#SUBTITLE:;
#ARTIST:Olé Olé;
#TITLETRANSLIT:;
#SUBTITLETRANSLIT:;
#ARTISTTRANSLIT:Ole Ole;
#CREDIT:SupremeX;
#BANNER:No Controles.png;
#BACKGROUND:No Controles-bg.png;
#LYRICSPATH:;
#CDTITLE:SupremeX.png;
#MUSIC:No Controles.mp3;
#OFFSET:-1.288;
#SAMPLESTART:15.700;
#SAMPLELENGTH:12.000;
#SELECTABLE:YES;
#BPMS:0.000=132.720;
#STOPS:;
#BGCHANGES:;

//---------------dance-single - ----------------
#NOTES:
     dance-single:
     :
     Hard:
     7:
     0.333,0.345,0.026,0.017,0.017: // measure 1
0000
0000
0000
0000
,  // measure 2
0000
0000
0000
0000
,  // measure 3
0000
0000
0000
0000
,  // measure 4
0000
0000
0000
0000
,  // measure 5
1000
0010
1000
0000
0001
0010
0100
0000
,  // measure 6
1000
0010
0100
0000
0001
1000
0001
0000
,  // measure 7
1000
0010
0100
0000
0100
0001
1000
0000
,  // measure 8
1000
0100
0010
0000
0001
0100
0010
0000
,  // measure 9
1000
0000
0000
0010
0010
0000
0100
0000
,  // measure 10
0001
0000
0000
1000
1000
0000
0001
0000
,  // measure 11
0100
0000
0000
0000
0000
0000
0010
1000
0010
0000
0000
0000
0000
0000
0000
0000
,  // measure 12
1000
0010
1000
0010
0000
0100
0100
0000
,  // measure 13
0001
0000
0000
0100
0010
0000
0010
0000
,  // measure 14
1000
0000
0000
0001
0001
0000
0100
0000
,  // measure 15
0100
0000
0000
0000
0000
0000
0001
0100
0001
0000
0000
0000
0000
0000
0000
0000
,  // measure 16
1000
0100
0010
0001
0000
0100
0100
0000
,  // measure 17
0010
0000
1000
0000
0001
0100
0000
0010
,  // measure 18
1000
0001
0100
0010
1000
0000
0001
1000
,  // measure 19
0001
0000
1000
0000
1001
0000
0000
0010
,  // measure 20
0100
0000
0100
0000
0001
1000
0010
0000
,  // measure 21
0100
0000
0010
0000
1000
0010
0000
0100
,  // measure 22
0001
1000
0001
0100
0010
0000
1000
0000
,  // measure 23
1000
0000
0010
0010
0000
0000
0000
0100
,  // measure 24
0100
0000
0001
0000
1000
0100
0010
0001
,  // measure 25
1000
0000
0100
0000
1000
0010
0000
0010
,  // measure 26
0000
0000
0100
0000
0100
0001
0000
0001
,  // measure 27
0000
0000
1000
0000
1000
0010
0000
0010
,  // measure 28
0000
0000
0100
0000
0001
1000
0000
1000
,  // measure 29
0000
0000
0010
0000
0010
0100
0000
0100
,  // measure 30
0000
0000
0001
0000
1000
0010
0000
0010
,  // measure 31
0000
0000
0100
0000
0100
0001
0000
0001
,  // measure 32
0000
0000
1000
0000
1000
0010
0000
0000
,  // measure 33
0100
0000
0000
0001
1000
0000
0010
0000
,  // measure 34
1000
0000
0000
0001
0100
0000
0001
0000
,  // measure 35
0100
0000
0000
0000
0000
0000
0001
1000
0001
0000
0000
0000
0000
0000
0000
0000
,  // measure 36
1000
0100
0010
0001
0000
1000
1000
0000
,  // measure 37
0010
0000
0000
0100
0010
0000
1000
0000
,  // measure 38
1000
0000
0000
0001
0100
0000
0001
0000
,  // measure 39
1000
0000
0000
0000
0000
0000
0010
0100
0010
0000
0000
0000
0000
0000
0000
0000
,  // measure 40
1000
0001
0010
0100
0000
1000
1000
0000
,  // measure 41
0010
0000
0100
0000
0001
0001
0000
1000
,  // measure 42
0010
0100
0001
1000
0010
0000
1000
0001
,  // measure 43
0100
0000
0010
0000
0110
0000
0000
1000
,  // measure 44
0001
0000
0001
0000
1000
0010
0100
0000
,  // measure 45
0100
0000
0001
0000
0001
1000
0000
1000
,  // measure 46
0100
0010
0001
0100
0010
0000
0010
1000
,  // measure 47
0001
0000
0100
0100
0000
0000
0000
0010
,  // measure 48
1000
0000
1000
0000
0001
0100
0001
0000
,  // measure 49
0010
0000
0100
0000
1000
1000
0000
0010
,  // measure 50
0000
0000
0100
0000
0100
0001
0000
0001
,  // measure 51
0000
0000
1000
0000
1000
0010
0000
0010
,  // measure 52
0000
0000
0100
0000
0010
0010
0000
1000
,  // measure 53
0000
0000
0001
0000
0100
0100
0000
0001
,  // measure 54
0000
0000
1000
0000
0010
1000
0000
0010
,  // measure 55
0000
0000
0100
0000
0001
0100
0000
0001
,  // measure 56
0000
0000
1000
0000
0010
0100
0000
0000
,  // measure 57
0010
0000
1000
0000
0001
0000
0100
0010
,  // measure 58
1000
0000
0001
1000
0001
0000
1000
0100
,  // measure 59
0010
0000
0001
0010
0100
0000
1000
0010
,  // measure 60
0100
0000
0100
0001
1000
0000
0010
0000
,  // measure 61
2002
0000
0000
0000
,  // measure 62
0000
0000
0000
0000
,  // measure 63
3003
0000
0000
0000
;

//---------------dance-single - ----------------
#NOTES:
     dance-single:
     :
     Medium:
     5:
     0.249,0.239,0.009,0.009,0.000:
0000
0000
0000
0000
,
0000
0000
0000
0000
,
0000
0000
0000
0000
,
0000
0000
0000
0000
,
0010
0000
1000
0001
,
1000
0000
0010
0100
,
0010
0000
1000
0000
,
0001
0010
0100
1000
,
0010
0000
0000
0100
0001
0000
0001
0000
,
1000
0000
0000
0010
0100
0000
0100
0000
,
0001
0000
1000
0000
,
0010
0000
0100
0001
0000
1000
1000
0000
,
0010
0000
0000
0100
0001
0000
0001
0000
,
1000
0000
0000
0010
0100
0000
0100
0000
,
0001
0000
0000
1000
1000
0000
0000
0000
,
0001
0000
0000
0100
0000
0100
0010
0000
,
0010
1000
0001
0000
,
0100
0010
1000
0001
,
0100
0010
1010
0000
,
0100
0100
0001
0001
,
1000
0010
1000
0000
,
0001
0100
0010
1000
,
0001
0000
0100
0100
0000
0000
0000
0000
,
0010
1000
0001
1000
,
0010
0000
0100
0000
0001
0000
0000
1000
,
0000
0000
0010
0000
0010
0000
0000
0100
,
0000
0000
0001
0000
0001
0000
0000
1000
,
0000
0000
0010
0000
0010
0000
0000
1000
,
0000
0000
0010
0000
0100
0000
0000
0001
,
0000
0000
1000
0000
1000
0000
0000
0010
,
0000
0000
0100
0000
0100
0000
0000
0001
,
0000
1000
1000
0000
,
0010
0000
0000
0100
0001
0000
0100
0000
,
0100
0000
0000
0010
1000
0000
0010
0000
,
0010
0000
0100
0000
,
0001
0000
1000
0010
0000
0100
0100
0000
,
0001
0000
0000
1000
0010
0000
1000
0000
,
0001
0000
0000
0100
0010
0000
0100
0000
,
0001
0000
0000
1000
1000
0000
0000
0000
,
0010
0000
0000
0100
0000
0001
0001
0000
,
1000
0010
1000
0000
,
0010
0100
0001
1000
,
0010
1000
0001
0000
,
0100
0100
0010
0010
,
1000
0000
0001
0000
1000
1000
0000
0000
,
0010
0100
0001
1000
,
0010
0000
0100
0100
0000
0000
0000
0000
,
0001
0001
1000
0010
,
0100
0000
0100
0000
0001
0001
0000
1000
,
0000
0000
0010
0000
0100
0100
0000
0001
,
0000
0000
1000
0000
0010
0010
0000
0100
,
0000
0000
0001
0000
1000
0001
0000
0000
,
0100
0000
0010
0000
1000
1000
0000
0001
,
0000
0000
0100
0000
0010
0010
0000
1000
,
0000
0000
0001
0000
0100
0001
0000
1000
,
0000
0000
0010
0000
0100
0100
0000
0000
,
0001
1000
0001
0100
,
0010
1000
0001
0100
,
0010
1000
0001
0100
,
0010
1000
0001
1000
,
0020
0000
0000
0000
,
0000
0000
0000
0000
,
0030
0000
0000
0000
;

//---------------dance-single - ----------------
#NOTES:
     dance-single:
     :
     Easy:
     3:
     0.156,0.185,0.000,0.009,0.000:
0000
0000
0000
0000
,
0000
0000
0000
0000
,
0000
0000
0000
0000
,
0000
0000
0000
0000
,
1000
0000
0010
0000
,
0100
0000
0001
0000
,
1000
0000
0010
0000
,
0100
0000
0001
0000
,
1000
0000
0010
0010
,
0100
0000
0001
0001
,
1000
0000
0010
0000
,
1000
0001
1000
0001
,
0100
0000
0010
0010
,
1000
0000
0001
0001
,
0100
0000
0010
0000
,
1000
0001
1000
0001
,
0100
0000
0100
0000
,
0010
0000
0010
0000
,
0000
1000
1000
0000
,
0001
0000
0100
0000
,
0010
0000
0010
0000
,
1000
0000
1000
0000
,
0001
0100
0000
0000
,
0010
0000
1000
0000
,
0001
0000
0000
0000
0100
0000
0000
0010
,
0000
0000
0000
0000
1000
0000
0000
0001
,
0000
0000
0000
0000
0100
0000
0000
0010
,
0000
0000
0000
0000
1000
0000
0000
0001
,
0000
0000
0000
0000
0100
0000
0000
0010
,
0000
0000
0000
0000
1000
0000
0000
0001
,
0000
0000
0000
0000
0100
0000
0000
0010
,
0000
0000
1000
0000
,
0001
0000
0100
0100
,
0010
0000
1000
1000
,
0001
0000
0100
0000
,
0010
0000
0000
0010
0000
0000
0000
0000
,
1000
0000
0001
0001
,
1000
0000
0010
0010
,
0100
0000
0001
0000
,
1000
0000
0000
1000
0000
0000
0010
0000
,
0100
0000
0100
0000
,
0001
0000
0001
0000
,
1000
0010
1000
0000
,
0001
0000
0100
0000
,
0010
0000
0010
0000
,
1000
0000
1000
0000
,
0001
0100
0000
0000
,
0010
0000
1000
0000
,
0001
0000
0000
0000
0001
0000
0000
0100
,
0000
0000
0000
0000
0100
0000
0000
0010
,
0000
0000
0000
0000
0010
0000
0000
1000
,
0000
0000
0000
0000
1000
0000
0000
0001
,
0000
0000
0000
0000
0001
0000
0000
0100
,
0000
0000
0000
0000
0100
0000
0000
0010
,
0000
0000
0000
0000
0010
0000
0000
1000
,
0000
0000
1000
0000
,
0001
0000
0100
0000
,
0010
0000
1000
0000
,
0001
0000
1000
0000
,
0010
0000
0100
0000
,
0002
0000
0000
0000
,
0000
0000
0000
0000
0000
0000
0000
0000
0000
0000
0000
0000
0000
0000
0000
0000
0000
0000
0000
0000
0000
0000
0000
0000
0000
0000
0000
0000
0000
0000
0000
0000
0000
0000
0000
0000
0000
0000
0000
0000
0000
0000
0000
0000
0000
0000
0000
0000
0000
0000
0000
0000
0000
0000
0000
0000
0000
0000
0000
0000
0000
0000
0000
0000
0000
0000
0000
0000
0000
0000
0000
0000
0000
0000
0000
0000
0000
0000
0000
0000
0000
0000
0000
0000
0000
0000
0000
0000
0000
0000
0000
0000
0000
0000
0000
0000
0000
0000
0000
0000
0000
0000
0000
0000
0000
0000
0000
0000
0000
0000
0000
0000
0000
0000
0000
0000
0000
0000
0000
0000
0000
0000
0000
0000
0000
0000
0000
0000
0000
0000
0000
0000
0000
0000
0000
0000
0000
0000
0000
0000
0000
0000
0000
0000
0000
0003
0000
0000
0000
0000
0000
0000
0000
0000
0000
0000
0000
0000
0000
0000
0000
0000
0000
0000
0000
0000
0000
0000
0000
0000
0000
0000
0000
0000
0000
0000
0000
0000
0000
0000
0000
0000
0000
0000
0000
0000
0000
0000
0000
0000
0000
0000
;

//---------------dance-single - Copied from----------------
#NOTES:
     dance-single:
     Copied from:
     Beginner:
     1:
     0.066,0.077,0.000,0.000,0.000:
0000
0000
0000
0000
,
0000
0000
0000
0000
,
0000
0000
0000
0000
,
0000
0000
0000
0000
,
0001
0000
0000
0000
,
0001
0000
0000
0000
,
0001
0000
0000
0000
,
0001
0000
0000
0000
,
1000
0000
0000
0000
,
1000
0000
0000
0000
,
1000
0000
0000
0000
,
1000
0000
0000
0000
,
0010
0000
0000
0000
,
0010
0000
0000
0000
,
0010
0000
0000
0000
,
0010
0000
0000
0000
,
0100
0000
0000
0000
,
0100
0000
0000
0000
,
0000
0000
0100
0000
,
0000
0000
0000
0000
,
0010
0000
0000
0000
,
0010
0000
0000
0000
,
0000
0000
0000
0010
0000
0000
0000
0000
,
1000
0000
0000
0000
,
1000
0000
0000
0000
0000
0000
0000
1000
,
0000
0000
0000
0000
0000
0000
0000
0001
,
0000
0000
0000
0000
0000
0000
0000
0001
,
0000
0000
0000
0000
0000
0000
0000
0100
,
0000
0000
0000
0000
0000
0000
0000
0100
,
0000
0000
0000
0000
0000
0000
0000
0010
,
0000
0000
0000
0000
0000
0000
0000
0010
,
0000
0000
0000
0000
,
1000
0000
0000
0000
,
1000
0000
0000
0000
,
1000
0000
0000
0000
,
1000
0000
0000
0000
,
0001
0000
0000
0000
,
0001
0000
0000
0000
,
0001
0000
0000
0000
,
0001
0000
0000
0000
,
0100
0000
0000
0000
,
0100
0000
0000
0000
,
0000
0000
0100
0000
,
0000
0000
0000
0000
,
0010
0000
0000
0000
,
0010
0000
0000
0000
,
0000
0000
0000
0010
0000
0000
0000
0000
,
1000
0000
0000
0000
,
0001
0000
0000
0000
0000
0000
0000
1000
,
0000
0000
0000
0000
0000
0000
0000
0001
,
0000
0000
0000
0000
0000
0000
0000
1000
,
0000
0000
0000
0000
0000
0000
0000
0001
,
0000
0000
0000
0000
0000
0000
0000
1000
,
0000
0000
0000
0000
0000
0000
0000
0001
,
0000
0000
0000
0000
0000
0000
0000
1000
,
0000
0000
0000
0000
,
0001
0000
0000
0000
,
0000
0000
0000
0000
,
0100
0000
0000
0000
,
0100
0000
0000
0000
,
0010
0000
0000
0000
;
