#TITLE:Next To You;
#SUBTITLE:;
#ARTIST:Ken Arai;
#TITLETRANSLIT:;
#SUBTITLETRANSLIT:;
#ARTISTTRANSLIT:;
#GENRE:;
#CREDIT:;
#BANNER:Next To You.png;
#BACKGROUND:Next To You-bg.png;
#LYRICSPATH:;
#CDTITLE:;
#MUSIC:Next To You.ogg;
#OFFSET:-0.050000;
#SAMPLESTART:17.504999;
#SAMPLELENGTH:17.454544;
#SELECTABLE:YES;
#BPMS:0.000000=110.000000
;
#STOPS:
;
#BGCHANGES:;
#KEYSOUNDS:;
#ATTACKS:;

//---------------dance-single - ----------------
#NOTES:
     dance-single:
     :
     Hard:
     7:
     0.299364,0.333554,0.015076,0.256290,0.033921,278.000000,276.000000,2.000000,34.000000,0.000000,0.000000,0.299364,0.333554,0.015076,0.256290,0.033921,278.000000,276.000000,2.000000,34.000000,0.000000,0.000000:
// measure 0
0000
0000
0000
0000
,  // measure 1
0000
0000
0000
0000
,  // measure 2
0000
0000
0000
0000
,  // measure 3
0000
0000
0000
0000
,  // measure 4
2000
0000
3020
0000
,  // measure 5
0230
0000
0320
2030
,  // measure 6
3002
0000
0023
0000
,  // measure 7
0230
0000
0310
1001
,  // measure 8
1000
0001
0100
0010
0100
0000
0010
0100
,  // measure 9
0001
0000
1000
0001
0010
0100
0010
0000
,  // measure 10
0100
0010
0001
1000
0001
0000
1000
0001
,  // measure 11
0100
0000
0010
0100
0001
1000
0002
0000
,  // measure 12
1003
0001
0010
0100
0010
0000
0100
0010
,  // measure 13
0001
0000
0010
0100
2000
0000
3002
0000
,  // measure 14
0103
0000
0100
0010
0100
0000
0010
0100
,  // measure 15
0001
0000
1000
0000
0001
0010
1000
0010
,  // measure 16
0001
0100
1000
0010
,  // measure 17
0001
0000
0100
0000
0010
0000
0100
0001
,  // measure 18
1000
0100
0010
1000
,  // measure 19
0001
0000
0100
0000
1000
0000
0100
1000
,  // measure 20
0001
0100
1000
0010
,  // measure 21
0001
0000
1000
0000
0010
0000
0100
0010
,  // measure 22
1000
0000
0001
0000
0010
0000
0100
0010
,  // measure 23
0001
0000
0100
0010
0001
1000
0010
0100
,  // measure 24
0010
0000
0010
1000
0001
0000
0001
0010
,  // measure 25
0100
0000
0010
0100
1000
0001
0100
0010
,  // measure 26
0100
0000
0100
0010
1000
0000
1000
0001
,  // measure 27
0010
0000
0010
0100
0010
0001
1000
0010
,  // measure 28
0100
0000
0001
0100
0010
0100
0001
1000
,  // measure 29
0001
0000
1000
0100
0010
0100
1000
0001
,  // measure 30
1000
0000
0001
0100
0010
0000
1000
0100
,  // measure 31
0010
1000
0100
0002
,  // measure 32
2000
0000
3003
1001
,  // measure 33
0001
1000
0100
0010
0100
0000
0010
0100
,  // measure 34
1000
0000
0001
1000
0010
0100
0010
0000
,  // measure 35
0100
0010
1000
0001
1000
0000
0001
1000
,  // measure 36
0100
0000
0010
0100
1000
0001
2000
0000
,  // measure 37
3001
1000
0010
0100
0010
0000
0100
0010
,  // measure 38
1000
0000
0010
0100
0002
0000
2003
0000
,  // measure 39
3100
0000
0100
0010
0100
0000
0010
0100
,  // measure 40
1000
0000
0001
0000
1000
0010
0001
0010
,  // measure 41
1000
0000
0001
0000
0010
0000
0100
0000
1000
0000
0000
0000
0000
0000
0100
1000
,  // measure 42
0100
0000
0000
0000
0000
0000
0100
1000
0100
0000
1000
0000
0010
0000
0000
0000
,  // measure 43
0100
0000
0010
0000
1000
0000
0001
0000
0010
0000
0000
0000
0000
0000
0001
0010
,  // measure 44
0001
0000
0000
0000
0000
0000
0001
0010
0001
0000
0010
0000
0100
0000
0000
0000
,  // measure 45
1000
0000
0001
0000
0100
0000
0010
0000
1000
0000
0000
0000
0000
0000
0010
1000
,  // measure 46
0010
0000
0000
0000
0000
0000
0010
1000
0020
0000
0000
0000
0230
0000
0000
0000
,  // measure 47
0310
0000
0000
0000
0010
0000
0100
0000
0001
0000
0000
0000
0000
0000
0100
0001
,  // measure 48
0100
0000
0000
0000
0000
0000
0100
0001
0100
0000
0001
0000
2000
0000
0000
0000
,  // measure 49
3002
0000
0023
0000
,  // measure 50
2030
0000
0010
0010
,  // measure 51
3020
0000
0230
0000
,  // measure 52
2300
0000
0001
0010
,  // measure 53
3002
0000
0023
0000
,  // measure 54
2030
0000
3200
0302
,  // measure 55
2003
0000
3200
0000
,  // measure 56
0320
0000
0000
0000
0000
0000
0130
0010
0100
0000
0010
0000
0001
0000
0100
0000
,  // measure 57
0020
0000
0000
0000
,  // measure 58
0000
0000
0000
0000
,  // measure 59
0030
0000
0000
0000
;

//---------------dance-single - ----------------
#NOTES:
     dance-single:
     :
     Medium:
     5:
     0.270289,0.355791,0.120607,0.218601,0.000000,251.000000,235.000000,16.000000,29.000000,0.000000,0.000000,0.270289,0.355791,0.120607,0.218601,0.000000,251.000000,235.000000,16.000000,29.000000,0.000000,0.000000:
0000
0000
0000
0000
,
0000
0000
0000
0000
,
0000
0000
0000
0000
,
0000
0000
0000
0000
,
0002
0000
0203
0000
,
0302
0000
2003
3002
,
0203
0000
0320
0000
,
0230
0000
0000
0310
,
0100
0000
0010
0000
1000
0000
0001
1000
,
0001
0000
0001
1000
0001
0000
0001
0000
,
1000
0000
0100
0000
0010
0000
0100
0010
,
0100
0000
0100
0010
0100
0000
0010
0000
,
0100
0000
0010
0000
0001
0000
1000
0001
,
1000
0000
1000
0001
2000
0000
3002
0000
,
0103
0000
0100
0010
0100
0000
0100
0010
,
0100
0000
0000
0000
0010
0100
0001
0100
,
0001
0001
0010
0010
,
0100
0000
0100
0000
0010
0000
0001
0010
,
0001
0001
1000
1000
,
0010
0000
0010
0000
0100
0000
0010
0100
,
0010
0010
1000
1000
,
0100
0000
0010
0000
0001
0000
0010
0001
,
0010
0000
0001
0000
1000
0000
0010
1000
,
0010
0000
0010
1000
0010
0000
0110
0000
,
1001
0000
1000
0001
1000
0000
1000
0100
,
1000
0000
0100
0000
0010
0100
0010
0100
,
0010
0000
0001
0010
0001
0000
0001
1000
,
0001
0000
0001
1000
0001
1000
0001
1000
,
0001
0000
0000
0001
0100
0001
0100
0001
,
0100
0000
0000
0100
0010
0100
0010
0100
,
0010
0000
0000
0010
1000
0000
1000
0001
,
1000
0010
0100
0020
,
0200
0000
0000
0330
,
0100
0000
0010
0000
1000
0000
0001
1000
,
0001
0000
0001
1000
0001
0000
0001
0000
,
1000
0000
0100
0000
0010
0000
0100
0010
,
0100
0000
0100
0010
0100
0000
0010
0000
,
0100
0000
0010
0000
0001
0000
1000
0001
,
1000
0000
1000
0001
2000
0000
3002
0000
,
0103
0000
0100
0010
0100
0000
0100
0010
,
0100
0000
0000
0000
0010
0100
0001
0100
,
0001
0101
0001
1001
,
1000
0000
1100
0000
0100
1000
0100
1000
,
0100
1100
0100
0110
,
0010
0000
0011
0000
0001
0010
0001
0010
,
0001
0011
0001
1001
,
1000
1010
0110
1010
,
1001
1100
1001
0001
,
0100
0000
0000
0000
0010
0100
0010
0100
,
0020
0000
0230
0000
,
0302
0000
0100
0100
,
0203
0000
0302
0000
,
2003
0000
0001
0100
,
3002
0000
0203
0000
,
0320
0000
0230
0320
,
2030
0000
3200
0000
,
0320
0000
0000
0000
0031
0010
0001
0010
,
0200
0000
0000
0000
,
0000
0000
0000
0000
,
0300
0000
0000
0000
;

//---------------dance-single - ----------------
#NOTES:
     dance-single:
     :
     Beginner:
     1:
     0.091532,0.133422,0.007538,0.105531,0.000000,85.000000,84.000000,1.000000,14.000000,0.000000,0.000000,0.091532,0.133422,0.007538,0.105531,0.000000,85.000000,84.000000,1.000000,14.000000,0.000000,0.000000:
0000
0000
0000
0000
,
0000
0000
0000
0000
,
0000
0000
0000
0000
,
0000
0000
0000
0000
,
0020
0000
0000
0000
,
0230
0000
0000
0000
,
0302
0000
0000
0000
,
2003
0000
0000
3000
,
1000
0000
1000
0000
,
1000
0000
0100
0000
,
0010
0000
0010
0000
,
0010
0000
0001
0000
,
1000
0000
1000
0000
,
1000
0000
0001
0000
,
0100
0000
0010
0000
,
0010
0000
0100
0000
,
0001
0000
0000
0000
,
1000
0000
0000
0000
,
0100
0000
0000
0000
,
0010
0000
0000
0000
,
0001
0000
0000
0000
,
1000
0000
0000
0000
,
0010
0000
0000
0000
,
0100
0000
0000
0000
,
0110
0000
0000
0000
,
1000
0000
0000
0000
,
0001
0000
0000
0000
,
0010
0000
0000
0000
,
0100
0000
0000
0000
,
1000
0000
0000
0000
,
0100
0000
0000
0000
,
0010
0000
0000
0000
,
0002
0000
0000
0003
,
1000
0000
1000
0000
,
1000
0000
0010
0000
,
0100
0000
0100
0000
,
0100
0000
0001
0000
,
1000
0000
1000
0000
,
1000
0000
0001
0000
,
0010
0000
0100
0000
,
0100
0000
0010
0000
,
0001
0000
0100
0000
,
0010
0000
1000
1000
,
1000
0000
0001
0000
,
0010
0000
0100
0100
,
0100
0000
1000
0000
,
0001
0000
0100
0100
,
0100
0000
0100
0000
,
0010
0000
1000
1000
,
2000
0000
0000
0000
,
3200
0000
0000
0000
,
0320
0000
0000
0000
,
0032
0000
0000
0000
,
0203
0000
0000
0000
,
0320
0000
0000
0000
,
0230
0000
0000
0000
,
0302
0000
1003
1000
,
2000
0000
0000
0000
,
0000
0000
0000
0000
,
3000
0000
0000
0000
;

//---------------dance-single - ----------------
#NOTES:
     dance-single:
     :
     Easy:
     3:
     0.187372,0.289081,0.067842,0.218601,0.000000,174.000000,165.000000,9.000000,29.000000,0.000000,0.000000,0.187372,0.289081,0.067842,0.218601,0.000000,174.000000,165.000000,9.000000,29.000000,0.000000,0.000000:
0000
0000
0000
0000
,
0000
0000
0000
0000
,
0000
0000
0000
0000
,
0000
0000
0000
0000
,
2000
0000
3200
0000
,
0320
0000
0100
0100
,
0230
0000
0320
0000
,
0032
0000
0000
1003
,
0001
0100
1000
0000
,
1000
0000
1000
0100
,
0001
0010
1000
0000
,
1000
0000
1000
0010
,
0001
0100
1000
0000
,
1000
0000
2000
3020
,
0031
0100
1000
0000
,
1000
0000
1000
0100
,
0001
1000
0001
0010
,
0100
0010
0100
0010
,
0001
1000
0001
0100
,
0010
0100
0001
1000
,
0100
0010
0100
0010
,
0001
1000
0010
0100
,
0010
0100
0001
1000
,
0100
0010
0100
1000
,
0001
0001
0010
0010
,
0100
0000
0100
0010
,
0001
0000
1000
0000
,
0001
0001
0100
0010
,
1000
0000
1000
0100
,
0010
0000
0100
0010
,
0001
0000
0100
0000
,
0010
0100
0010
0200
,
0000
0000
0000
0301
,
1000
0100
0001
0000
,
0001
0000
0001
0100
,
1000
0010
0001
0000
,
0001
0000
0001
0010
,
1000
0100
0001
0000
,
0001
0000
0002
0023
,
1030
0100
0001
0000
,
0001
0000
0001
0100
,
1000
0010
0100
0101
,
1000
0101
1000
0010
,
0100
0010
1000
1100
,
0010
1100
0010
1000
,
0001
0010
0100
1100
,
0001
1100
0020
2030
,
3001
0011
0100
0011
,
0100
1000
0001
1000
,
0002
0000
0203
0000
,
0320
0000
0000
0000
,
2030
0000
3200
0000
,
0320
0000
0000
0100
,
0230
0000
2300
0000
,
3002
0000
0203
0320
,
0230
0000
0302
0000
,
2003
0000
0001
3001
,
2002
0000
0000
0000
,
0000
0000
0000
0000
,
3003
0000
0000
0000
;
