#TITLE:Nakakapagpabagabag;
#SUBTITLE:;
#ARTIST:Dasu feat. 鏡音レン;
#TITLETRANSLIT:;
#SUBTITLETRANSLIT:;
#ARTISTTRANSLIT:Dasu feat. Kagamine Len;
#GENRE:;
#CREDIT:;
#BANNER:Nakakapagpabagabag.jpg;
#BACKGROUND:Nakakapagpabagabag-bg.jpg;
#LYRICSPATH:;
#CDTITLE:;
#MUSIC:Nakakapagpabagabag.mp3;
#OFFSET:-0.089076;
#SAMPLESTART:55.974926;
#SAMPLELENGTH:13.241379;
#SELECTABLE:YES;
#DISPLAYBPM:145.000000;
#BPMS:0.000000=145.000000
,214.000000=4640.000000
,222.000000=580.000000
,239.000000=145.000000
,421.750000=4640.000000
,429.750000=290.000000
;
#STOPS:222.000000=0.621000,
223.000000=0.310000,
224.000000=0.310000,
225.000000=0.310000,
226.000000=0.310000,
227.000000=0.310000,
228.000000=0.310000,
229.000000=0.310000,
230.000000=0.310000,
231.000000=0.310000,
232.000000=0.310000,
233.000000=0.310000,
234.000000=0.310000,
235.000000=0.233000,
235.750000=0.233000,
236.500000=0.156000,
237.000000=0.233000,
237.750000=0.233000,
238.500000=0.156000,
429.750000=0.517000,
430.750000=0.207000,
431.750000=0.207000
;
#BGCHANGES:15.750=[Simfile Buffet] - Nakakapagpabagabag.avi=1.000=1=0=0=StretchNoLoop==CrossFade==,
99999=-nosongbg-=1.000=0=0=0 // don't automatically add -songbackground-
;
#KEYSOUNDS:;
#ATTACKS:;

//---------------dance-single - ----------------
#NOTES:
     dance-single:
     :
     Medium:
     6:
     0.408677,0.451224,0.334683,0.270934,0.000000,359.000000,317.000000,42.000000,34.000000,0.000000,0.000000,0.408677,0.451224,0.334683,0.270934,0.000000,359.000000,317.000000,42.000000,34.000000,0.000000,0.000000:
0000
0000
0000
0000
,
0000
0000
0000
0000
,
0000
0000
0000
0000
,
0000
0000
0000
0000
,
2000
3010
0020
1030
,
2000
3020
0230
0302
,
2003
3100
0200
0310
,
0001
0010
0100
0000
1000
0010
0100
0000
,
0001
0000
0000
0000
1001
0000
0000
1000
,
0001
0000
0000
0100
0100
0000
0010
0000
,
1001
0000
0000
0001
1000
0000
0000
0100
,
0010
0000
0001
1000
0010
0000
0100
0001
,
1000
0000
0000
0000
1001
0000
0000
0001
,
0010
0000
0000
0100
0100
0000
0110
0000
,
1100
0000
0000
0001
1001
0000
0000
1000
,
1010
0000
0010
0100
0001
0000
1000
0100
,
0010
0011
0001
1001
,
2000
0000
3010
0100
0002
0000
1003
0100
,
0010
0110
0001
1001
,
1000
0010
1000
0000
0001
0010
0001
0000
,
1000
1100
1000
1001
,
0001
0000
0100
0000
0010
0010
0100
0010
,
1000
1010
0001
0011
,
0001
1000
1001
0000
,
0001
0100
1000
0100
,
0010
1000
0001
0010
0100
0000
1000
0001
,
1000
0100
0001
0100
,
0010
0100
0010
0000
0001
1000
0001
0000
,
0100
0100
0200
0310
,
0220
0000
0330
0010
,
2020
3030
0022
0033
,
0001
1000
2002
3003
,
1000
1000
0001
0001
,
1000
0001
1000
0001
1000
0000
0001
0001
,
0010
0000
0001
0000
1000
0010
0100
0010
,
1000
0000
0001
0000
0100
0010
0100
0010
,
1000
0000
0001
0000
1000
0100
0010
0100
,
1000
0010
0220
0330
,
0010
0000
0100
0000
0001
0010
0100
0010
,
0001
0000
1000
0000
0001
0100
0010
0100
,
0001
0000
1000
0000
0010
0100
0001
1000
,
0200
0000
0000
0010
0020
0000
0330
0000
,
0100
0010
0100
0000
1000
0001
1000
0000
,
0010
0100
0010
0000
0110
0000
1001
0000
,
0110
0000
0000
0100
0010
0000
0001
0000
,
0011
0000
1001
0000
1010
0000
0010
1000
,
0010
0000
1000
0001
1000
0000
0001
0010
,
0001
0000
0010
0100
0010
0000
0110
0000
,
0110
0000
0000
0100
0010
0001
1000
0010
,
0100
0001
2002
3003
,
1000
0000
1100
0000
,
0100
0000
0000
0010
0001
0000
0011
0000
,
1001
0000
0000
1000
0001
0000
0100
0000
,
0010
1000
2002
0000
,
0000
0000
0000
0000
,
0000
0000
3003
0001
,
0001
1000
1000
0001
,
1000
0010
0100
0001
,
0001
1000
1000
0100
,
0000
0000
0110
0000
0000
0000
0010
0001
,
0010
0000
0001
1000
0001
0000
1000
0010
,
0001
0010
0100
0000
0110
0000
1001
0000
,
0000
0001
0100
0010
1000
0001
0020
0000
,
0000
0100
0230
0000
0310
0100
0010
0001
,
0010
0000
0001
1000
0001
0000
1000
0010
,
1000
1010
1001
0011
,
0000
0001
1000
0100
0001
0100
0020
0000
,
0031
2002
3003
0001
,
0001
0100
0100
0010
,
1000
0001
1000
0000
0000
0000
0001
0000
,
0001
1000
1000
0001
,
0010
0100
1000
0000
0000
0000
0100
0000
,
1000
0001
0100
0010
,
1000
0010
1000
0001
1000
0100
0010
0000
,
0000
0001
0001
1000
,
0001
2002
3003
0000
;

//---------------dance-single - ----------------
#NOTES:
     dance-single:
     :
     Challenge:
     10:
     0.741083,0.873811,0.860613,0.191247,0.227106,651.000000,543.000000,108.000000,24.000000,0.000000,0.000000,0.741083,0.873811,0.860613,0.191247,0.227106,651.000000,543.000000,108.000000,24.000000,0.000000,0.000000:
0000
0000
0000
0000
,
0000
0000
0000
0000
,
0000
0000
0000
0000
,
0000
0000
0000
0000
,
1000
0100
1000
0100
0010
0001
0010
0001
,
1000
0010
1000
0010
0100
0001
0100
0001
,
0100
0010
0100
0010
1000
0001
1000
0001
,
0010
0100
0010
0100
1000
0001
1001
0000
,
1010
0000
1000
0010
0100
0001
1000
0000
1001
0000
1000
0001
0010
0100
1000
0000
,
1001
0000
1000
0001
0010
0100
0010
0000
0012
0000
0023
0000
0032
0000
1003
0000
,
1001
0000
0001
0100
0010
1000
0001
0000
1001
0000
1000
0100
0010
0001
1000
0000
,
1001
0000
1000
0100
0010
0100
1000
0000
1100
0000
1000
0001
1000
0000
0010
0100
,
0010
0000
1000
0010
0100
0001
0010
0000
0110
0000
0100
1000
0001
0100
0010
0000
,
0110
0000
0010
1000
0001
0010
0100
0000
1000
0000
0100
0000
0001
0000
0100
0000
,
0110
0000
0010
0001
0010
0001
0010
0000
0011
0000
0001
1000
0001
1000
0001
0000
,
1001
0000
1000
0010
1000
0010
1000
0000
0001
0000
0010
0100
1000
0000
0001
0000
,
1001
0000
1000
0010
0001
0010
1000
0001
,
0010
0000
0000
0010
0100
0000
1000
0000
0001
0000
0100
0000
1000
0000
0100
0000
,
0001
0000
1001
0000
1000
1010
0001
0011
,
1000
0100
0010
0001
1000
0010
0100
0010
,
0002
0000
0023
0000
1030
0010
0100
0001
,
1000
0000
0100
1000
0100
0000
0010
0000
0001
0000
0001
0000
0010
0000
0100
0000
,
1000
0000
1100
1000
0001
0000
0101
0000
,
0110
0000
0010
1000
0001
0000
0010
0000
0110
0000
0000
0000
4004
0000
0000
0000
,
3003
0101
0100
0010
1010
1001
0001
0010
,
0110
0000
1100
0000
1000
0100
0001
0100
1000
0000
0100
0000
1000
0000
0001
0000
,
1001
1001
1000
0100
0110
0110
1001
1001
,
1000
0000
0000
0010
0000
0000
0100
0000
0001
0000
0100
0000
0001
0000
0000
1001
0000
0000
1000
0000
0000
1001
0000
0000
,
0011
0000
0110
0000
2200
0000
3300
1000
,
2002
0000
0000
0000
3003
0000
0001
0100
1000
0100
0010
1000
0001
0000
0010
0000
,
0011
0000
0001
0010
0100
0000
1000
0000
1100
0000
0001
0000
0100
0000
0010
0000
,
0110
0000
0010
0000
1000
0010
0001
0010
1000
0000
0010
0000
1000
0000
0001
0000
,
0100
0010
0100
0010
1000
0001
1000
0001
,
1000
0100
0001
0100
0110
0000
0010
0001
,
1000
0100
0001
0100
1000
0100
0010
0001
,
1000
0010
0001
0010
1000
0010
0001
1000
,
0100
0001
0100
1000
0100
0001
0010
1000
,
0010
0001
0010
0100
1000
0010
0100
0001
,
0101
0100
1000
0100
0001
0100
0010
1000
,
0001
0010
1000
0010
0001
0010
1000
0001
,
0100
0010
0100
1000
0001
0001
0100
0100
,
0010
0010
0010
1000
0001
0001
1001
1001
,
1000
0010
0100
0001
1000
0100
0010
0001
,
1000
0100
0001
0100
0010
0010
0001
0001
,
1000
0000
1000
0000
0001
0000
1000
0001
1000
0000
0001
0000
0100
0000
0010
0000
,
0110
0010
1010
1000
1001
0001
0011
0110
,
1100
1000
0001
0100
0101
0001
1000
0010
,
1010
1000
0001
0010
0011
0010
0110
0100
,
1100
1000
0001
0101
0110
1010
1001
0011
,
0110
0100
1100
1000
1001
0001
1001
1000
,
1020
0130
0210
0301
,
2001
0000
3100
0000
1000
0100
0001
0100
,
1000
1100
0001
0101
,
1010
0000
1001
0001
2002
0000
0000
0000
,
0000
0000
0000
0000
,
0000
0000
3003
1010
,
1010
1001
1001
0011
,
0011
0110
0110
1100
,
1100
0000
0000
0000
1001
0000
0000
0000
1001
0000
0000
0000
0101
0000
0000
0110
,
0000
0000
0010
0000
1000
0000
0000
1001
0000
0000
0001
0000
1000
0000
0100
0000
,
0001
0100
1000
0010
0001
0010
1000
0010
,
0100
0001
0100
0001
1000
0000
0100
0000
0001
0000
0100
0000
0010
0000
0001
0000
,
1000
0100
0010
0100
1000
0000
1100
0000
0100
0000
0010
0000
0011
0000
0001
0000
,
1000
0000
0000
0000
0001
0000
0000
0000
1000
0000
0000
0000
0010
0000
0000
0000
0000
0000
0100
0000
0000
0010
0000
0000
0100
0000
0000
0000
0000
0000
0001
0000
0000
1000
0000
0000
0001
0000
0000
0000
0000
0000
0001
0000
0000
0000
0000
0000
,
0010
0001
1000
1000
0010
0100
0010
0010
,
0100
0000
0001
0000
1000
0000
1000
0000
0001
0000
0001
0000
0010
0000
0001
0010
,
0100
1000
0001
0100
0010
1000
1010
0000
,
1001
0011
0110
1200
,
1300
2001
3001
0201
,
0310
0120
1030
2010
,
3001
0010
0021
0000
0130
1000
1002
0000
,
0103
0000
0010
0000
0120
0000
0000
0000
1030
0000
0010
0000
1010
0000
1000
0001
,
1000
0001
0020
0000
0031
0010
0001
1000
,
0001
0000
0000
0100
0000
0000
0010
0000
0000
0100
0000
0000
0001
0000
0000
0000
0000
0000
0100
0000
0000
0000
0000
0000
0010
0000
0000
0000
1000
0000
0000
0000
0001
0000
0000
0000
0020
0000
0000
0000
0000
0000
0000
0000
0000
0000
0000
0000
,
0000
0000
0130
1000
1001
0000
0001
0100
,
1000
0100
0001
0001
1001
1001
0000
0000
;

//---------------dance-single - ----------------
#NOTES:
     dance-single:
     :
     Hard:
     8:
     0.519100,0.542365,0.278902,0.502024,0.015937,456.000000,421.000000,35.000000,63.000000,0.000000,0.000000,0.519100,0.542365,0.278902,0.502024,0.015937,456.000000,421.000000,35.000000,63.000000,0.000000,0.000000:
0000
0000
0000
0000
,
0000
0000
0000
0000
,
0000
0000
0000
0000
,
0000
0000
0000
0000
,
0002
0100
0203
0010
,
0320
0000
1000
0000
1030
0010
0100
0001
,
2000
0100
3200
0010
,
0310
0001
0020
0000
0031
1000
0002
0000
,
1003
0010
1000
0010
0100
0001
0100
0001
,
1000
0001
1000
0001
1000
0100
0001
0100
,
1000
0100
1000
0100
0010
0100
0010
0100
,
0010
0001
0010
0001
1000
0010
0001
0010
,
0100
0010
0100
0010
1000
0001
1000
0001
,
0010
0100
0010
0100
1000
0100
0010
0001
,
1000
0010
1000
0010
0100
0001
0100
0001
,
1000
0100
1000
0100
0010
0001
1000
0010
,
0100
0110
0001
1001
,
1000
0100
0001
0100
1000
0010
0001
0010
,
1000
1010
0001
0011
,
1000
0100
0001
1000
0010
0001
0010
0100
,
1000
1100
0001
0101
,
1000
0010
0100
0001
1000
0100
0010
0001
,
1000
1001
0001
1001
,
1010
0011
1001
0000
,
1000
0010
0100
0001
0100
0010
1000
0001
,
1000
0100
0001
0100
1000
0000
0001
0001
,
1000
0100
0010
0001
1000
0010
0100
0001
,
1000
0010
0001
0010
1000
1000
0001
0001
,
0020
0130
0220
0330
,
2002
0000
3003
0001
0100
0010
1000
0001
,
0020
0030
0200
2300
,
3001
0100
1000
0100
0002
0000
0000
0000
,
1003
0010
1000
0001
,
1000
0100
0010
0001
1000
0000
0001
0001
,
1000
0100
0010
0001
2000
0000
3001
0001
,
1000
0010
0001
0010
2000
0000
3010
0100
,
0001
0000
1001
1000
0100
0010
0100
0001
,
0200
0000
0320
0000
0032
0000
1003
1000
,
0001
0100
0010
1000
0002
0000
1003
1000
,
0001
0100
1000
0100
0002
0000
1003
0001
,
1000
0000
1001
0001
0010
1000
0001
0100
,
2000
0000
3100
1000
0002
0000
0103
0001
,
1000
0010
0100
0010
1000
1000
0010
1000
,
0001
0010
0100
0010
0002
0000
1003
0001
,
2002
0000
0000
0000
3003
0000
1000
0100
1000
0000
0100
0000
0010
0000
0001
0000
,
0011
0000
1001
0000
1010
0000
0010
0100
,
0001
0100
1000
0100
0010
0010
1000
0001
,
1000
0100
0001
0100
0020
0000
0031
1000
,
0001
0000
1001
0001
0100
0010
0100
1000
,
0200
0302
1003
1001
,
0002
0100
0203
0010
,
0320
0000
1000
0000
1030
0010
0100
0001
,
2000
0100
3002
0100
,
2003
0000
3001
1000
2002
0000
0000
0000
,
0000
0000
0000
0000
,
0000
0000
3003
1000
,
1100
0100
1100
0001
,
0101
0100
0101
0010
,
0110
0000
0000
0000
0100
0000
0000
0000
0110
0000
0000
0000
0010
0000
0000
1010
,
0000
0000
1000
0000
0001
0000
0000
0011
0000
0000
0010
0000
0100
0000
1000
0000
,
0100
1000
0001
1000
0001
1000
0001
0100
,
1000
0100
0020
0000
1030
0001
0020
0000
,
0031
0000
1000
0010
1000
0000
0010
0000
0100
0000
0001
0000
0020
0000
0000
0000
,
0031
1000
0020
0000
1030
0001
0100
0010
,
1000
0001
1000
0100
0010
0001
1000
0100
,
0001
0000
0100
0000
0020
0000
0000
0000
0002
0030
0000
0000
1000
0003
0000
0000
,
1001
1000
0010
0100
0010
0001
0020
0000
,
1030
2002
3003
0002
,
0203
0320
0230
0302
,
0103
0010
2000
0000
3000
0000
0002
0000
,
0023
0230
0320
0032
,
0013
0100
2000
0000
3000
0000
0001
0010
,
1000
0010
0002
0000
1003
0000
2000
0000
,
3010
0010
1000
0010
0100
0001
2000
0000
,
0000
0000
3001
0000
1001
0000
0001
0010
,
0100
1000
0001
0001
1001
1001
0000
0000
;

//---------------dance-single - ----------------
#NOTES:
     dance-single:
     :
     Easy:
     4:
     0.262965,0.359784,0.103592,0.175310,0.000000,231.000000,218.000000,13.000000,22.000000,0.000000,0.000000,0.262965,0.359784,0.103592,0.175310,0.000000,231.000000,218.000000,13.000000,22.000000,0.000000,0.000000:
// measure 0
0000
0000
0000
0000
,  // measure 1
0000
0000
0000
0000
,  // measure 2
0000
0000
0000
0000
,  // measure 3
0000
0000
0000
0000
,  // measure 4
2000
3000
0020
0030
,  // measure 5
1000
0010
1000
1000
,  // measure 6
0002
0003
0020
0030
,  // measure 7
0001
0001
1000
1000
,  // measure 8
0001
0000
1000
0000
,  // measure 9
0001
0000
0010
0010
,  // measure 10
0100
0000
1000
0000
,  // measure 11
0001
0000
0100
0010
,  // measure 12
0100
0000
0010
0000
,  // measure 13
1000
0000
0001
0001
,  // measure 14
1000
0000
0001
0000
,  // measure 15
0010
0010
0100
0010
,  // measure 16
0100
0100
1000
1000
,  // measure 17
0001
0100
0101
0000
,  // measure 18
0001
0001
0100
0100
,  // measure 19
0010
1010
1000
1001
,  // measure 20
0001
0010
0011
0000
,  // measure 21
0001
1000
1010
0000
,  // measure 22
0010
0000
0100
0000
,  // measure 23
0001
1000
1001
0000
,  // measure 24
0001
0001
0010
0010
,  // measure 25
0001
0010
0100
0000
,  // measure 26
1000
1000
0010
0010
,  // measure 27
0100
0010
1000
0001
,  // measure 28
0010
0010
0020
0030
,  // measure 29
0220
0000
0330
0000
,  // measure 30
0100
0000
1000
0000
,  // measure 31
0001
1000
0002
0000
,  // measure 32
1003
0000
0001
0000
,  // measure 33
1000
0001
1000
0000
,  // measure 34
0010
0010
0100
0100
,  // measure 35
0001
0100
0010
1000
,  // measure 36
0001
0000
0010
0100
,  // measure 37
0010
0100
0010
0000
,  // measure 38
0100
0100
1000
1000
,  // measure 39
0100
0010
0001
1000
,  // measure 40
0010
0000
0100
0010
,  // measure 41
0200
0000
0020
0330
,  // measure 42
0010
0010
1000
1000
,  // measure 43
0100
0010
0001
1000
,  // measure 44
1001
0000
0001
0010
,  // measure 45
1000
0010
0001
0000
,  // measure 46
1000
1000
0001
0001
,  // measure 47
0100
0010
1000
0001
,  // measure 48
0010
0000
0100
0010
,  // measure 49
0001
0011
1000
1010
,  // measure 50
0010
0000
0100
0000
,  // measure 51
0001
0001
1000
1000
,  // measure 52
0001
0000
1000
0100
,  // measure 53
0010
0001
2000
0000
,  // measure 54
0000
0000
0000
0000
,  // measure 55
0000
0000
0000
0000
0000
0000
0000
0000
0000
0000
0000
0000
0000
0000
0000
0000
0000
0000
0000
0000
0000
0000
0000
0000
0000
0000
0000
0000
0000
0000
0000
0000
0000
0000
0000
0000
0000
0000
0000
0000
0000
0000
0000
0000
0000
0000
0000
0000
0000
0000
0000
0000
0000
0000
0000
0000
0000
0000
0000
0000
0000
0000
0000
0000
0000
0000
0000
0000
0000
0000
0000
0000
0000
0000
0000
0000
0000
0000
0000
0000
0000
0000
0000
0000
0000
0000
0000
0000
0000
0000
0000
0000
0000
0000
0000
3000
0000
0000
0000
0000
0000
0000
0000
0000
0000
0000
0000
0000
0000
0000
0000
0000
0000
0000
0000
0000
0000
0000
0000
0000
0000
0000
0000
0000
0000
0000
0000
0000
0000
0000
0000
0000
0000
0000
0000
0000
0000
0000
0000
0000
0000
0000
0000
0000
0100
0000
0000
0000
0000
0000
0000
0000
0000
0000
0000
0000
0000
0000
0000
0000
0000
0000
0000
0000
0000
0000
0000
0000
0000
0000
0000
0000
0000
0000
0000
0000
0000
0000
0000
0000
0000
0000
0000
0000
0000
0000
0000
0000
0000
0000
0000
0000
,  // measure 56
0100
0100
0100
0010
,  // measure 57
0010
0010
0010
0001
,  // measure 58
0001
1000
1000
2002
,  // measure 59
0000
0000
0000
0000
0000
3003
0001
0000
,  // measure 60
0100
0001
1000
0001
,  // measure 61
0010
1000
0010
0001
,  // measure 62
0000
1000
0100
0010
,  // measure 63
0000
1001
0000
1000
,  // measure 64
0100
1000
0001
1000
,  // measure 65
0010
0001
0010
1000
,  // measure 66
0000
0010
0100
0001
,  // measure 67
1000
1001
0000
0002
,  // measure 68
0000
0203
0000
0320
,  // measure 69
2030
3001
0000
2000
,  // measure 70
0000
3200
0000
0320
,  // measure 71
0032
2003
3000
0100
,  // measure 72
0010
0100
0000
1000
,  // measure 73
1000
0001
0001
0100
,  // measure 74
0000
0010
0000
1000
,  // measure 75
0001
1000
0000
0000
;

//---------------dance-single - ----------------
#NOTES:
     dance-single:
     :
     Beginner:
     2:
     0.113838,0.209874,0.023906,0.071718,0.000000,100.000000,97.000000,3.000000,9.000000,0.000000,0.000000,0.113838,0.209874,0.023906,0.071718,0.000000,100.000000,97.000000,3.000000,9.000000,0.000000,0.000000:
0000
0000
0000
0000
,
0000
0000
0000
0000
,
0000
0000
0000
0000
,
0000
0000
0000
0000
,
0001
0000
0000
0000
,
0001
0000
0000
0000
,
1000
0000
0000
0000
,
1000
0000
0000
0000
,
0010
0000
0000
0000
,
0100
0000
0000
0000
,
0001
0000
0000
0000
,
1000
0000
1000
0000
,
1000
0000
0000
0000
,
0100
0000
0000
0000
,
0010
0000
0000
0000
,
0001
0000
0001
0000
,
0001
0000
1000
0000
,
0001
0000
0000
0000
,
0100
0000
0010
0000
,
0100
0000
0000
0000
,
0010
0000
0000
0000
,
1000
0000
0000
0000
,
0001
0000
1000
0000
,
0001
0000
1001
0000
,
1000
0000
1000
0000
,
1000
0000
0000
0000
,
0001
0000
0001
0000
,
0001
0000
0000
0000
,
0010
0000
0000
0000
,
0010
0000
0000
0000
,
0100
0000
0000
0000
,
0100
0000
0000
0000
,
0000
0000
0000
0000
,
0000
0000
0000
0000
,
1000
0000
0000
0000
,
1000
0000
0001
0000
,
1000
0000
0001
0000
,
0002
0000
0003
0000
,
0010
0000
0000
0000
,
0100
0000
0010
0000
,
0100
0000
1000
0000
,
2000
0000
3000
0000
,
0010
0000
0000
0000
,
0100
0000
0010
0000
,
0100
0000
0010
0000
,
0020
0000
0030
0000
,
0100
0000
0000
0000
,
0001
0000
1000
0000
,
0100
0000
0010
0000
,
0020
0030
0200
0300
,
0100
0000
0000
0000
,
1000
0000
0000
0000
,
0001
0000
0001
0000
,
1000
0000
2000
0000
,
0000
0000
0000
0000
,
0000
0000
0000
0000
0000
0000
0000
0000
0000
0000
0000
0000
0000
0000
0000
0000
0000
0000
0000
0000
0000
0000
0000
0000
0000
0000
0000
0000
0000
0000
0000
0000
0000
0000
0000
0000
0000
0000
0000
0000
0000
0000
0000
0000
0000
0000
0000
0000
0000
0000
0000
0000
0000
0000
0000
0000
0000
0000
0000
0000
0000
0000
0000
0000
0000
0000
0000
0000
0000
0000
0000
0000
0000
0000
0000
0000
0000
0000
0000
0000
0000
0000
0000
0000
0000
0000
0000
0000
0000
0000
0000
0000
0000
0000
0000
3000
0000
0000
0000
0000
0000
0000
0000
0000
0000
0000
0000
0000
0000
0000
0000
0000
0000
0000
0000
0000
0000
0000
0000
0000
0000
0000
0000
0000
0000
0000
0000
0000
0000
0000
0000
0000
0000
0000
0000
0000
0000
0000
0000
0000
0000
0000
0000
0000
0001
0000
0000
0000
0000
0000
0000
0000
0000
0000
0000
0000
0000
0000
0000
0000
0000
0000
0000
0000
0000
0000
0000
0000
0000
0000
0000
0000
0000
0000
0000
0000
0000
0000
0000
0000
0000
0000
0000
0000
0000
0000
0000
0000
0000
0000
0000
0000
,
0000
0000
0000
1000
,
0000
0000
0000
0001
,
0000
1000
0000
2002
,
0000
3003
0000
0001
,
0000
1000
0000
0001
,
0000
0001
0000
0100
,
0000
0010
0010
0020
,
0000
0030
0000
1000
,
0000
0001
0000
1000
,
0000
0100
0000
0010
,
0000
0001
0001
0001
,
0000
1001
0000
1000
,
0000
0000
0000
0000
,
0000
0000
0000
0010
,
0000
0000
0000
0000
,
0000
0000
0000
0100
,
0000
0000
0000
0001
,
0000
0001
0000
0001
,
0000
0000
0000
1000
,
0000
0001
0000
0000
;
