#TITLE:Marry me, Nightmare;
#SUBTITLE:;
#ARTIST:t+pazolite;
#TITLETRANSLIT:;
#SUBTITLETRANSLIT:;
#ARTISTTRANSLIT:;
#GENRE:;
#CREDIT:;
#BANNER:[Simfile Buffet] - Marry me, Nightmare.png;
#BACKGROUND:[Simfile Buffet] - Marry me, Nightmare-bg.png;
#LYRICSPATH:;
#CDTITLE:cdtitle.png;
#MUSIC:[Simfile Buffet] - Marry me, Nightmare.mp3;
#OFFSET:-1.190000;
#SAMPLESTART:7.910000;
#SAMPLELENGTH:15.000000;
#SELECTABLE:YES;
#BPMS:0.000000=249.999985
,98.000000=242.000000
,190.000000=249.999985
,237.000000=228.000000
,242.000000=229.000000
,247.000000=230.000000
,252.000000=231.000000
,257.000000=232.000000
,258.000000=233.000000
,259.000000=234.000000
,260.000000=235.000000
,261.000000=236.000000
,262.000000=237.000000
,263.000000=238.000000
,264.000000=239.000000
,265.000000=240.000000
,266.000000=241.000015
,267.000000=242.000000
,268.000000=243.000015
,269.000000=244.000000
,270.000000=245.000015
,271.000000=246.000000
,272.000000=247.000000
,273.000000=248.000000
,274.000000=249.000000
,275.000000=249.999985
,282.000000=251.999985
,287.000000=253.999985
,292.000000=256.000000
,297.000000=258.000000
,302.000000=260.000000
,307.000000=268.000000
,314.000000=284.000000
,450.000000=270.000000
;
#STOPS:
;
#BGCHANGES:;
#KEYSOUNDS:;
#ATTACKS:;

//---------------dance-single - ----------------
#NOTES:
     dance-single:
     :
     Hard:
     9:
     0.698941,0.811302,0.116122,0.774144,0.301916,517.000000,15.000000,100.000000,0.000000,0.000000,0.000000,0.698941,0.811302,0.116122,0.774144,0.301916,517.000000,15.000000,100.000000,0.000000,0.000000,0.000000:
0000
0000
0000
0000
,
0000
0000
0000
0000
,
0000
0000
0000
0000
,
0000
0000
0000
0000
,
0000
0000
0000
0000
,
0000
0000
0000
0000
,
0000
2000
0000
3001
,
0100
0000
0001
0010
0000
0001
0100
0000
,
0001
0000
0010
0000
0100
1000
0000
0200
,
0000
0000
1300
0000
0010
1000
0000
0100
,
1000
0000
0001
0000
0010
0000
0001
0200
,
0000
0000
0301
0000
0100
0010
0000
0100
,
0001
0000
0100
0000
0010
0000
1000
0100
,
0000
0020
0000
0000
0130
0000
1000
0001
,
0000
0100
0001
0000
1000
0000
0100
0000
,
1000
0020
0000
0000
0030
0000
1000
0000
,
0100
0010
0000
0100
1000
0000
0010
0000
,
0100
0000
0001
0010
0000
0002
0000
0000
,
0013
0000
0100
1000
0000
0100
0010
0000
,
0001
0000
0100
0000
0010
2000
0000
0000
,
3001
0000
0100
0010
0000
1000
0001
0000
,
0100
0000
0010
0000
1000
0010
0000
0200
,
0000
0000
0301
0000
0100
0010
0000
1000
,
0100
0000
0010
0000
0100
0000
1000
0020
,
0000
0000
0130
0001
0020
0000
0000
0000
,
0000
0000
0000
0030
,
0002
0000
0100
0200
,
0003
0010
0020
0300
,
1000
2000
0030
0100
,
0200
3000
0320
0001
,
0031
2000
0000
0010
,
0020
3000
0100
0200
,
0030
0001
0002
0300
,
0010
0020
0003
0100
,
0200
0030
1300
0020
,
0000
0000
0001
0031
,
0200
0000
0000
0000
0301
1000
0002
0000
,
0000
1003
0020
0000
,
0130
0002
2003
3002
,
0023
0000
0000
0000
0130
0010
0002
0000
,
0000
1003
0200
0000
,
0310
0001
0001
0020
,
0000
0000
0031
1000
0002
0000
0000
0000
,
0103
0000
0010
0000
1000
0010
0100
0000
,
0002
2003
3020
0230
,
0000
0000
0301
0100
0020
0000
0000
0000
,
0130
0000
0001
0000
0100
0001
1000
0010
,
1000
1000
0200
0000
,
1300
0001
0020
0000
0000
0000
0130
0000
,
1000
0001
1000
0010
0100
0000
0100
0000
,
0100
0100
0002
0000
,
0013
0100
2000
0000
0000
0000
3100
0000
,
0010
0001
0010
0100
1000
0100
1000
0010
,
0100
0001
0020
0000
0000
0000
0000
0000
,
0000
0000
0000
0200
,
0000
0000
0330
0000
0000
1001
0000
0110
,
0000
0001
2000
0000
0000
0000
3100
0010
,
0002
0000
2003
3010
,
1000
0010
0100
0001
1000
0001
0010
0100
,
1000
0001
0020
0000
0000
0000
0000
0000
,
0000
0000
0000
0000
0000
0000
0000
0001
,
0000
1000
0031
0200
,
0000
0000
0000
0000
0300
0000
0000
1100
,
0000
2020
0000
0000
,
0000
0000
0000
0000
3030
0000
0000
0000
0000
0000
0000
0000
0000
0001
0000
0000
,
0000
1000
0000
0000
0000
0001
0000
0000
0000
1000
0000
0000
0000
0001
0000
0000
,
0000
1000
0000
0000
0000
0001
0000
0000
0000
1000
0000
0000
0001
0000
0000
1000
,
0000
0000
0001
0000
0000
1000
0000
0000
0001
0000
0000
1000
0000
0000
0001
0000
,
0000
1000
0000
0000
0001
0000
1000
0000
0001
0000
1000
0000
0001
0000
1000
0000
,
0002
0000
0103
0000
0001
0010
0000
0001
,
0100
0000
0010
0000
1000
0000
0100
1000
,
0000
0010
1000
0000
0001
0000
0010
0000
,
0100
1000
0000
1000
0001
0000
0100
0000
,
0010
0000
1000
0001
0000
0001
0100
0000
,
0001
0000
1000
0000
1000
0100
0000
1000
,
0001
0010
0001
0010
0001
0000
0001
0100
,
0000
0001
1000
0010
1000
0010
0100
0000
,
0001
0010
0000
0100
1000
0000
0010
0100
,
0000
0002
0000
0000
1003
0100
0000
0010
,
0000
0000
0100
1000
0000
0001
0100
0000
0000
2002
0000
0000
,
0000
3003
0001
0100
,
0001
0000
1000
0100
0000
0010
0000
0000
0100
1000
0000
0000
,
0001
0000
0100
0010
0000
2000
0000
0000
0000
3020
0000
0000
,
0230
0000
0000
0302
0000
0000
0013
0000
0100
1000
0000
0100
,
0000
0000
1000
0001
0000
0010
0000
0000
0000
0001
0000
0000
,
0100
0000
0010
0000
0000
1000
0000
0000
1000
0100
0000
0000
,
0100
0000
1000
0001
0000
0200
0000
0000
0000
0302
0000
0000
,
2003
0000
0000
3020
0000
0000
1030
0000
0100
0000
0000
0100
,
0010
0000
0001
0100
0000
0010
0000
0000
1000
0100
0000
0000
,
0100
0000
1000
0010
0000
0100
0000
0000
0001
0010
0000
0000
,
0001
0000
1000
0010
0000
2000
0000
0000
0000
3002
0000
0000
,
0203
0000
0000
0320
0000
0000
0130
0000
0001
0000
0000
0001
,
1000
0000
0100
0010
0000
0001
0000
0000
0001
0010
0000
0000
,
0100
0000
1000
0000
0000
0010
0000
0000
1000
0010
0000
0100
,
0001
0000
0000
0010
0000
0200
0000
0000
0000
0310
0000
0000
,
0100
0000
1000
0001
0000
0020
0000
0000
0000
0000
0000
0000
,
0130
0000
0000
0000
0000
2100
0000
0000
0000
3001
0000
0000
,
0100
0000
0000
0000
0000
0102
0000
0000
0000
1003
0000
0000
,
0100
0000
0000
0000
0000
2020
0000
0000
0000
3030
0000
0000
,
0022
0000
0000
0033
0000
0202
0000
0000
0000
0303
0000
0000
,
0001
1000
1001
0001
,
0101
0100
0110
0010
,
1010
1000
1100
0100
,
0010
0000
0000
0001
0000
0000
0100
0000
0010
0000
0000
0010
,
1000
0000
0010
0100
0000
0001
0000
0000
0001
1000
0000
0000
,
0001
0000
0100
0010
0000
1000
0000
0000
1000
0001
0000
0000
,
0200
0000
0000
0000
0000
0000
0310
0000
1000
0000
0010
0000
,
0100
0000
0001
0000
0100
0000
0001
0000
0010
0000
0000
0010
,
0100
0000
1000
0001
0000
0010
0000
0000
0001
1000
0000
0000
,
0010
0000
0100
0000
0000
1000
0000
0000
0100
0001
0000
0010
,
0100
0000
0000
0100
0000
0001
0000
0000
0000
0100
0000
0000
,
0010
0000
0001
0100
0000
0020
0000
0000
0000
2030
0000
0000
,
3002
0000
0023
0000
0130
0000
1000
0001
,
0000
1000
0010
0000
1000
0001
0000
1000
,
0100
0000
0010
0000
0001
0000
0100
0001
,
0000
1000
0001
0000
0010
0001
0000
1000
,
0001
0000
0100
0000
0010
0000
1000
0001
,
0000
0010
0100
0000
1000
0001
0000
0100
,
0010
0000
1000
0000
0100
0000
0010
0001
,
0000
1000
0010
0000
0100
0000
0100
0000
,
0001
0000
0100
0000
0020
0000
2000
0030
,
0002
3000
0200
0003
0002
0300
0020
0003
,
0200
0030
2000
0300
0020
3000
2000
0030
,
0002
3000
0200
0003
0002
0300
2000
0003
,
0200
3000
0020
0300
0031
0100
0001
0100
,
0010
0100
0010
0100
0010
1000
0010
1000
,
0001
1000
0001
0000
0001
0100
0010
1000
,
0100
0010
0001
1000
0020
0000
0000
0000
,
0000
0000
0000
0000
,
0000
0000
0000
0000
,
0000
0000
0000
0000
,
0030
0000
0000
0000
;

//---------------dance-single - ----------------
#NOTES:
     dance-single:
     :
     Challenge:
     10:
     0.790732,0.912715,0.433520,0.719954,0.390943,566.000000,56.000000,93.000000,0.000000,0.000000,0.000000,0.790732,0.912715,0.433520,0.719954,0.390943,566.000000,56.000000,93.000000,0.000000,0.000000,0.000000:
// measure 0
0000
0000
0000
0000
,  // measure 1
0000
0000
0000
0000
,  // measure 2
0000
0000
0000
0000
,  // measure 3
0000
0000
0000
0000
,  // measure 4
0000
0000
0000
0000
,  // measure 5
0000
0000
0000
0000
,  // measure 6
0000
0000
0001
1000
0001
1000
1001
0000
,  // measure 7
0001
0000
0100
0010
0000
1000
0001
0000
,  // measure 8
1000
0000
0001
0000
0100
0010
0000
1000
,  // measure 9
0100
1000
0001
0000
0100
0010
0000
1000
,  // measure 10
0001
0000
1000
0000
0001
0000
0010
0210
,  // measure 11
0000
0000
1300
0000
0001
0010
0000
0100
,  // measure 12
1000
0000
0001
0000
1000
0000
0001
0010
,  // measure 13
0000
0100
0010
0100
1000
0000
0001
0010
,  // measure 14
0000
0100
1000
0000
0001
0000
1000
0000
,  // measure 15
0100
0120
0000
0000
0031
0000
0001
0000
,  // measure 16
0100
0010
0000
0100
0001
0000
0010
0000
,  // measure 17
0100
0000
1000
0010
0000
1000
0001
0100
,  // measure 18
0010
0000
1000
0001
0000
1000
0010
0000
,  // measure 19
0100
0000
0001
0000
0010
0210
0000
0000
,  // measure 20
1300
0000
0001
0100
0000
0001
1000
0000
,  // measure 21
0010
0000
0100
0000
0001
0010
0000
0100
,  // measure 22
1000
0001
1000
0000
0010
0100
0000
0001
,  // measure 23
1000
0000
0100
0000
0010
0000
0001
0201
,  // measure 24
0000
0000
0301
1000
1020
0000
0000
0000
,  // measure 25
0000
0000
0000
0100
,  // measure 26
2000
0030
0100
0002
,  // measure 27
3000
0100
0020
0003
,  // measure 28
0001
0200
0030
0001
,  // measure 29
2000
0300
0001
0100
,  // measure 30
3200
0020
0300
1000
,  // measure 31
0002
0030
1000
0200
,  // measure 32
0003
1000
0020
0300
,  // measure 33
0100
2000
0030
0001
,  // measure 34
0002
3000
0010
2003
,  // measure 35
0000
0000
3001
0101
,  // measure 36
0210
0000
0000
0000
0310
1000
0020
0000
,  // measure 37
0000
0130
0002
0000
,  // measure 38
0203
0320
2030
3001
,  // measure 39
0021
0000
0000
0000
0130
1000
0200
0000
,  // measure 40
0000
0310
0002
0000
,  // measure 41
0013
0011
0110
2100
,  // measure 42
0000
0000
3001
0010
0002
0000
0000
0000
,  // measure 43
0013
0000
0100
0000
1000
0001
0200
0000
,  // measure 44
0302
2003
3100
0120
,  // measure 45
0000
0000
0031
0100
0002
0000
0000
0000
,  // measure 46
0103
0000
0020
0000
1030
0001
0100
0010
,  // measure 47
1000
1000
1020
0000
,  // measure 48
0130
0001
2000
0000
0000
0000
3200
0000
,  // measure 49
0310
0001
1000
0002
0100
0000
1000
0000
,  // measure 50
0100
1003
0201
0000
,  // measure 51
0310
0100
0002
0000
0003
0000
0110
0000
,  // measure 52
0001
0100
0010
1000
0001
0010
0100
1000
,  // measure 53
0001
0100
0020
0000
0000
0000
0000
0000
,  // measure 54
0000
0000
0000
0200
,  // measure 55
0000
0000
0330
0000
0000
1010
0000
0011
,  // measure 56
0000
0001
2001
0000
0000
0000
3001
0010
,  // measure 57
0200
0000
1300
0010
,  // measure 58
1000
0010
1000
0001
1000
0100
0010
0001
,  // measure 59
1000
0001
0200
0000
0000
0000
0000
0000
,  // measure 60
0000
0000
0000
0000
0000
0000
0000
1000
,  // measure 61
0000
0001
1300
0020
,  // measure 62
0000
0000
0000
0000
0030
0000
0000
0101
,  // measure 63
0000
0021
0000
0100
,  // measure 64
0100
0000
0000
0000
0130
0000
0000
0000
0100
0000
0000
0000
0000
1000
0000
0000
,  // measure 65
0000
0010
0000
0000
0000
0100
0000
0000
0000
0001
0000
0000
0000
0010
0000
0000
,  // measure 66
0000
0100
0000
0000
0000
1000
0000
0000
0000
0010
0000
0000
0100
0000
0000
0001
,  // measure 67
0000
0000
0010
0000
0000
0100
0000
0000
1000
0000
0000
0010
0000
0000
0100
0000
,  // measure 68
0000
0001
0000
0000
0010
0000
0100
0000
1000
0000
0010
0000
0100
0000
0001
0000
,  // measure 69
0020
0000
0031
0000
0100
0010
0000
0100
,  // measure 70
0001
0000
1001
0000
1000
0000
0100
1000
,  // measure 71
0000
0010
1000
0000
1001
0000
0001
0000
,  // measure 72
1000
0010
0000
1000
0100
0000
0110
0000
,  // measure 73
1000
0000
0001
0100
0000
0010
1000
0000
,  // measure 74
0110
0000
0001
0000
1000
0010
0000
1000
,  // measure 75
0001
0100
0001
0100
0010
0000
1000
0001
,  // measure 76
0000
0010
0100
1000
0100
1000
0001
0000
,  // measure 77
1000
0010
0000
0100
0001
0000
1000
0100
,  // measure 78
0000
0020
0000
0000
0031
1000
0000
1000
,  // measure 79
0000
0000
0001
1000
0000
0010
0100
0000
0000
0110
0000
0000
,  // measure 80
0100
0000
0001
0100
0000
0010
0000
0000
0010
1000
0000
0000
,  // measure 81
1000
0000
0100
1000
0000
0001
0000
0000
0001
0010
0000
0000
,  // measure 82
0001
0000
1000
0100
1000
0100
0000
0000
1000
0010
0000
0100
,  // measure 83
0010
0000
0100
0001
0000
0010
0001
0000
0010
0100
0000
1000
,  // measure 84
0000
0000
0001
0100
0000
0010
0000
0000
0000
1010
0000
0000
,  // measure 85
0010
0000
0100
0000
0000
0001
0000
0000
0001
0100
0000
0000
,  // measure 86
0100
0000
0001
0010
0000
0100
0000
0000
0100
1000
0000
0001
,  // measure 87
0100
0000
0001
1000
0000
0100
1000
0000
0010
0000
0000
0100
,  // measure 88
0001
0000
1000
0100
0000
0010
0000
0000
0010
0001
0000
0000
,  // measure 89
0010
0000
0001
1000
0000
0010
0000
0000
0010
0100
0000
0000
,  // measure 90
0100
0000
0001
0010
0001
0010
0000
0000
0000
0001
0000
1000
,  // measure 91
0001
0000
0010
0100
0000
1000
0010
0000
0100
0000
0000
0100
,  // measure 92
0001
0000
0100
0010
0000
1000
0000
0000
1000
0001
0000
0000
,  // measure 93
0100
0000
0001
0000
0000
0010
0000
0000
0001
1000
0000
0100
,  // measure 94
1000
0000
0000
0001
0000
0020
0000
0000
0000
0031
0000
0000
,  // measure 95
0100
0010
0100
0010
0000
2000
0000
0000
0000
0000
0000
0000
,  // measure 96
3001
0000
0000
0000
0000
0101
0000
0000
0000
1002
0000
0000
,  // measure 97
0013
0000
0000
0000
0000
1010
0000
0000
0000
2001
0000
0000
,  // measure 98
3100
0000
0000
0000
0000
0120
0000
0000
0000
0031
0000
0000
,  // measure 99
0011
0000
0000
0000
0000
1020
0000
0000
0000
0130
0000
0000
,  // measure 100
0101
0001
0101
1001
,  // measure 101
1100
1001
0011
1001
,  // measure 102
1010
1001
0110
0100
,  // measure 103
0001
0000
0000
0010
0000
0000
0100
0000
1000
0000
0000
1000
,  // measure 104
0010
0000
0100
0001
0000
0010
0000
0000
0010
0001
0000
0000
,  // measure 105
0001
0000
0100
0010
0000
1000
0000
0000
1000
0010
0000
0000
,  // measure 106
1000
0000
0001
0100
0010
1000
0001
0000
0010
0000
0100
0000
,  // measure 107
1000
0000
0100
0000
0010
0000
0001
0000
0100
0000
0000
0100
,  // measure 108
0001
0000
1000
0010
0000
0100
0000
0000
0100
0001
0000
0000
,  // measure 109
0100
0000
0010
0000
0000
2000
0000
0000
3001
0010
0000
0001
,  // measure 110
0100
0001
1000
0100
0000
0020
0000
0000
0000
0130
0000
0000
,  // measure 111
1000
0001
0100
0010
0000
1000
0000
0000
0000
0101
0000
0000
,  // measure 112
1010
0000
0011
0000
1002
0000
2003
0010
,  // measure 113
0000
3002
0100
0000
2003
0010
0000
3002
,  // measure 114
0203
0000
0302
0000
2003
0000
3002
0010
,  // measure 115
0000
2003
0100
0000
3002
0010
0000
2003
,  // measure 116
3200
0000
0320
0000
0032
0000
0203
0010
,  // measure 117
0000
0320
1000
0000
2030
0100
0000
3200
,  // measure 118
0320
0000
0032
0000
0203
0000
0302
1000
,  // measure 119
0000
2003
3010
0000
1000
0000
1000
0000
,  // measure 120
0001
0001
0102
1003
,  // measure 121
2010
3001
0012
1003
,  // measure 122
2100
3001
1002
0013
,  // measure 123
0120
0031
2001
3010
,  // measure 124
0120
0000
1030
0000
1000
0100
0010
0100
,  // measure 125
1000
0010
0100
0010
1000
0001
0010
0001
,  // measure 126
1000
0010
1000
0000
0001
0100
0001
1000
,  // measure 127
0010
1000
0001
0010
0200
0010
0000
0001
,  // measure 128
0000
1300
0000
0020
0002
0000
0000
0000
,  // measure 129
0000
0000
0000
0000
,  // measure 130
0000
0000
0000
0000
,  // measure 131
0033
0000
0000
0000
;

//---------------dance-single - ----------------
#NOTES:
     dance-single:
     :
     Medium:
     7:
     0.544112,0.709890,0.038707,0.789626,0.166441,385.000000,5.000000,102.000000,0.000000,0.000000,0.000000,0.544112,0.709890,0.038707,0.789626,0.166441,385.000000,5.000000,102.000000,0.000000,0.000000,0.000000:
0000
0000
0000
0000
,
0000
0000
0000
0000
,
0000
0000
0000
0000
,
0000
0000
0000
0000
,
0000
0000
0000
0000
,
0000
0000
0000
0000
,
0000
2000
0000
3001
,
0200
0000
0000
0310
0000
0000
0100
0000
,
0001
0000
0020
0000
0000
0130
0000
2000
,
0000
0000
3020
0000
0000
0130
0000
0000
,
0010
0000
1000
0000
0100
0000
0000
0200
,
0000
0000
0320
0000
0000
0130
0000
0000
,
0010
0000
0001
0000
0200
0000
0000
0310
,
0000
2000
0000
0000
3200
0000
0000
0310
,
0000
0001
0100
0010
,
0000
0020
0000
0000
0030
0000
2000
0000
,
0000
3100
0000
0000
0010
0000
0001
0000
,
0200
0000
0000
0301
0000
2000
0000
0000
,
3020
0000
0000
1030
0000
0000
0001
0000
,
0100
0000
0001
0000
0000
0002
0000
0000
,
0203
0000
0000
0310
0000
0000
0100
0000
,
0001
0000
0020
0000
0000
0130
0000
2000
,
0000
0000
3002
0000
0000
0103
0000
0000
,
0010
0000
1000
0000
0001
0000
0000
0020
,
0000
0000
0031
1000
0002
0000
0000
0000
,
0000
0000
0000
0003
,
2000
3000
1000
0200
,
0300
0100
0020
0030
,
0010
0002
0003
0001
,
0200
0300
0100
0010
,
0010
2000
3000
0100
,
0020
0030
1000
0002
,
0003
0010
2000
3000
,
0100
0020
0030
0001
,
0200
0300
1000
0020
,
0000
0000
1030
1000
,
0002
0000
0000
0000
1003
0100
2000
0000
,
0000
3001
0020
0000
,
0230
2300
3002
0203
,
0320
0000
0000
0000
0130
0001
0200
0000
,
0000
0310
2000
0000
,
3002
0000
0003
2000
,
0000
0000
3001
0100
0002
0000
0000
0000
,
1003
0000
0100
0000
0010
0001
0010
0000
,
0200
2300
3020
0230
,
0000
0000
0301
1000
0020
0000
0000
0000
,
1030
0100
0010
0001
,
0200
0300
0002
0000
,
1003
0100
2000
0000
0000
0000
3001
0000
,
0010
0001
0010
0002
0000
0000
0000
0000
,
0000
0003
2000
0000
,
3010
0100
0002
0000
0000
0000
1003
0000
,
0010
0100
0010
0100
,
0001
0020
0000
0000
,
0000
0000
0030
0020
,
0000
0000
0030
0000
0000
0100
0000
1000
,
0000
0001
0200
0000
0000
0000
0310
1000
,
0200
0000
0310
0001
,
1000
0010
0100
0000
0001
0100
0010
0000
,
1000
0001
0020
0000
0000
0000
0000
0000
,
0000
0000
0000
0030
,
0000
0000
0000
0002
,
0000
0000
0000
0000
0003
0000
0000
2000
,
0000
0200
0000
0000
,
0000
0000
0000
0000
3300
0000
0000
0000
0000
0000
0000
0000
0000
1000
0000
0000
,
0000
0000
0000
0000
0000
0001
0000
0000
0000
0000
0000
0000
0000
1000
0000
0000
,
0000
0000
0000
0000
0000
0001
0000
0000
0000
0000
0000
1000
0000
0000
0000
0000
,
0000
0001
0000
0000
0000
0000
0000
1000
0000
0000
0000
0000
0000
0001
0000
0000
,
0000
1000
0000
0000
0001
0000
1000
0000
,
0002
0000
0103
0000
0000
1000
0000
0000
,
0020
0000
2030
0000
3100
0000
0000
0001
,
0000
0020
0032
0103
,
0000
0010
0000
0000
2000
0000
3002
0000
,
0013
0000
0000
0100
0000
0000
2000
0000
,
3002
0000
0103
0000
0000
0100
0000
0000
,
0010
0000
0010
0000
0100
0000
0000
0100
,
0000
0010
0010
0200
,
0000
0302
0000
0000
2003
0000
3000
0000
,
0002
0000
0003
0000
0010
0000
0000
0010
,
0000
0100
1000
2000
,
0000
3000
0001
0100
,
0001
0000
0000
1000
0000
0010
0000
0000
0000
1000
0000
0000
,
0010
0000
0000
1000
0000
0100
0000
0000
0000
1000
0000
0000
,
0100
0000
0000
1000
0000
0000
0001
0000
0010
0000
0000
0010
,
0000
0000
0001
0000
0000
1000
0000
0000
0000
0001
0000
0000
,
1000
0000
0001
0000
0000
0100
0000
0000
0000
0010
0000
0000
,
0100
0000
0010
0000
0000
1000
0000
0000
0000
0010
0000
0000
,
0100
0000
0000
0001
0000
0000
0010
0000
0100
0000
0000
0200
,
0000
0300
1000
0001
,
0010
0000
0000
0000
0000
0001
0000
0000
0000
1000
0000
0000
,
0010
0000
0000
0000
0000
1000
0000
0000
0000
0001
0000
0000
,
0100
0000
0000
0001
0000
0000
1000
0000
0100
0000
0000
0100
,
0000
0000
1000
0000
0000
0001
0000
0000
0000
1000
0000
0000
,
0010
0000
0100
0000
0000
0001
0000
0000
0000
0010
0000
0000
,
0100
0000
0000
1000
0000
0010
0000
0000
0000
1000
0000
0000
,
0100
0000
0000
0010
0000
0002
0000
0000
0000
0000
0000
0000
,
0003
0000
0000
0000
0000
0102
0000
0000
0000
0103
0000
0000
,
0000
0000
0000
0000
0000
2100
0000
0000
0000
3100
0000
0000
,
0000
0000
0000
0000
0000
1001
0000
0000
0000
0000
0000
0000
,
0110
0000
0000
0000
0000
1001
0000
0000
0000
0000
0000
0000
,
0001
1000
0002
0103
,
0002
1003
2000
3010
,
2000
3100
0010
0001
,
0010
0000
0000
0100
0000
0000
1000
0000
0010
0000
0000
0010
,
0000
0000
1000
0001
,
1000
0001
0010
0100
,
0010
0000
0000
0100
0000
0000
1000
0000
0000
0000
0001
0000
,
0100
0000
0000
0000
1000
0000
0100
0000
0000
0000
0000
0000
,
0200
0000
0000
0000
0000
0310
0000
0000
0000
0001
0000
0000
,
0100
0000
0000
0000
0000
0020
0000
0000
0000
1030
0000
0000
,
0100
0000
0000
0000
0000
0020
0000
0000
0000
0031
0000
0000
,
1000
0000
0010
1000
0000
0020
0000
0000
0000
2030
0000
0000
,
3002
0000
2003
0000
3100
0000
1000
0001
,
0000
0000
0100
0000
1000
0001
0000
0000
,
2000
0000
3002
0000
0103
0000
0001
1000
,
0000
0000
0100
0000
0001
1000
0000
0000
,
0002
0000
0203
0000
0310
0000
1000
0001
,
0000
0000
0010
0000
1000
0001
0000
0000
,
2000
0000
3002
0000
0013
0000
0001
1000
,
0000
1000
0001
0000
0010
0000
0010
0000
,
0100
0100
1000
0100
,
1000
0010
0100
0001
,
0010
0001
1000
0010
,
0100
0001
1000
0100
,
0010
0001
0100
1000
,
0100
0001
0100
0010
,
0100
0000
0000
0000
0001
1000
0001
1000
,
0010
0100
0010
0100
0002
0000
0000
0000
,
0000
0000
0000
0000
,
0000
0000
0000
0000
,
0000
0000
0000
0000
,
0003
0000
0000
0000
;

//---------------dance-single - ----------------
#NOTES:
     dance-single:
     :
     Beginner:
     2:
     0.128287,0.202826,0.038707,0.007741,0.019354,110.000000,5.000000,1.000000,0.000000,0.000000,0.000000,0.128287,0.202826,0.038707,0.007741,0.019354,110.000000,5.000000,1.000000,0.000000,0.000000,0.000000:
0000
0000
0000
0000
,
0000
0000
0000
0000
,
0000
0000
0000
0000
,
0000
0000
0000
0000
,
0000
0000
0000
0000
,
0000
0000
0000
0000
,
0000
0000
0000
0000
,
1000
0000
0000
0000
,
0000
1000
0000
0000
,
0000
1000
0000
0000
,
0000
0000
0100
0000
,
0000
0001
0000
0000
,
0000
0000
0001
0000
,
0000
0000
0001
0000
,
0000
0000
0000
0100
,
0000
0000
0000
1000
,
0000
0000
0000
0000
,
1000
0000
0000
0000
,
1000
0000
0000
0000
,
0000
0100
0000
0000
,
0001
0000
0000
0000
,
0000
0001
0000
0000
,
0000
0001
0000
0000
,
0000
0000
0100
0000
,
0000
0000
0010
0000
,
0000
0000
0000
0000
,
0000
0000
0000
0000
,
0000
0000
0001
0000
,
0000
0001
0000
0000
,
1000
0000
0000
1000
,
0000
0001
0000
0000
,
0001
0000
0000
1000
,
0000
0000
1000
0000
,
0000
0001
0000
0000
,
0001
0000
0000
1000
,
0000
0000
0000
0000
,
0010
0000
0000
0000
,
0000
0000
0100
0000
,
0000
0000
0000
0000
,
0010
0000
0000
0000
,
0000
0000
0100
0000
,
0000
0000
0000
0001
,
0000
0000
0000
0000
,
0000
1000
0000
0000
,
0000
0000
0000
0001
,
0000
0000
0000
0000
,
0000
1000
0000
0000
,
0000
0000
0100
0000
,
0000
0000
0000
0000
,
0010
0000
0000
0000
,
0000
0000
0100
0000
,
0000
0000
0000
0000
,
0010
0000
0000
0000
,
0000
0001
0000
0000
,
0000
0000
0000
0000
,
0000
0000
0000
0000
,
0000
1000
0000
0000
,
1000
0000
0000
0001
,
0000
0000
0001
0000
,
0000
1000
0000
0000
,
0000
0000
0000
0000
,
0000
0000
0000
0000
,
0000
0000
0000
0000
,
0000
0000
0000
0000
,
0000
0000
0000
0000
0000
0000
0000
0000
0000
0000
0000
0000
0000
1001
0000
0000
,
0000
0000
0000
0000
,
0000
0000
0000
0000
,
0000
0000
0000
0000
,
0000
0000
0000
0000
,
0000
1000
0000
0000
,
0000
0000
0100
0000
,
0000
0000
0000
0001
,
0000
0000
0000
0000
,
0100
0000
0000
0000
,
0000
0010
0000
0000
,
0000
0000
0010
0000
,
0000
0000
0000
0010
,
0000
0000
0000
0000
,
0000
0000
0100
0000
,
0000
0000
0100
0000
,
0000
0000
0001
0000
,
0000
0000
0010
0000
,
0000
0000
0001
0000
,
0001
0000
0010
0000
,
0000
0000
0100
0000
,
0000
0000
1000
0000
,
0000
0000
0100
0000
,
0100
0000
1000
0000
,
0000
0000
0010
0000
,
0000
0000
1000
0000
,
0000
0000
0010
0000
,
0010
0000
1000
0000
,
0000
0000
0001
0000
,
0000
0000
0100
0000
,
0000
0000
0001
0000
,
0001
0000
0100
0000
,
0000
0000
0000
0000
0000
0010
0000
0000
0000
0000
0000
0000
,
0000
0000
0000
0000
0000
0010
0000
0000
0000
0000
0000
0000
,
0000
0000
0000
0000
0000
0010
0000
0000
0000
0000
0000
0000
,
0000
0000
0000
0000
0000
0010
0000
0000
0000
0000
0000
0000
,
0000
0000
1000
0000
,
1000
0000
1000
0000
,
1000
0000
0001
0000
,
0001
0000
0001
0000
,
0000
0000
0100
0000
,
0000
0000
0100
0000
,
0000
0000
0010
0000
,
0000
0000
0010
0000
,
0000
0000
0100
0000
,
0000
0000
0100
0000
,
0000
0000
0010
0000
,
0000
0000
0000
0000
,
0000
0000
1001
0000
,
0000
0000
0000
0000
,
0000
0000
1001
0000
,
0000
0000
0000
0000
,
0000
0000
1001
0000
,
0000
0000
0000
0000
,
0000
0000
1001
0000
,
0000
0000
0000
0000
,
0000
0000
0001
0000
,
0001
0000
1000
0000
,
1000
0000
0001
0000
,
0001
0000
1000
0000
,
1000
0000
0010
0000
,
0000
0000
0100
0000
,
0000
0000
1000
0000
,
0000
0000
0002
0000
,
0000
0000
0000
0000
,
0000
0000
0000
0000
,
0000
0000
0000
0000
,
0003
0000
0000
0000
;

//---------------dance-single - ----------------
#NOTES:
     dance-single:
     :
     Easy:
     4:
     0.359424,0.405651,0.015483,0.712212,0.042578,231.000000,2.000000,92.000000,0.000000,0.000000,0.000000,0.359424,0.405651,0.015483,0.712212,0.042578,231.000000,2.000000,92.000000,0.000000,0.000000,0.000000:
0000
0000
0000
0000
,
0000
0000
0000
0000
,
0000
0000
0000
0000
,
0000
0000
0000
0000
,
0000
0000
0000
0000
,
0000
0000
0000
0000
,
0000
0002
0000
0003
,
2000
0000
0000
3000
0000
0000
0100
0000
,
0010
0000
0002
0000
0000
0003
0000
0100
,
0000
0000
0020
0000
0000
0030
0000
0000
,
1000
0000
0001
0000
0200
0000
0000
0300
,
0000
0000
0002
0000
0000
0003
0000
0000
,
0010
0000
0100
0000
2000
0000
0000
3000
,
0000
0010
0000
0000
0200
0000
0000
0300
,
0000
0001
1000
0020
,
0000
0030
0000
0000
0000
0000
0002
0000
,
0000
0003
0000
0000
0100
0000
0010
0000
,
2000
0000
0000
3000
0000
0001
0000
0000
,
0020
0000
0000
0030
0000
0000
0001
0000
,
1000
0000
0200
0000
0000
0300
0000
0000
,
0020
0000
0000
0030
0000
0000
0001
0000
,
1000
0000
0020
0000
0000
0030
0000
1000
,
0000
0000
0200
0000
0000
0300
0000
0000
,
0010
0000
0001
0000
0200
0000
0000
0300
,
0000
0020
0000
0000
,
0000
0000
0000
0030
,
2000
0000
3000
0200
,
0000
0300
2000
0000
,
3000
0002
0000
0003
,
0020
0000
0030
0100
,
0100
0020
0000
0030
,
0002
0000
0003
0200
,
0000
0300
0020
0000
,
0030
2000
0000
3000
,
0200
0000
0300
0020
,
0000
0030
0001
0001
,
2000
3000
0020
0000
,
0030
0200
0000
0300
,
0001
0010
0001
0010
,
0200
0300
2000
0000
,
3000
0002
0000
0003
,
0010
0000
0000
0002
,
0003
0200
0000
0300
,
0020
0030
0200
0300
,
0010
1000
0010
2000
,
3000
0002
0000
0003
,
0100
0001
0200
0000
,
0300
0000
0002
0003
,
2000
0000
3000
0100
,
0020
0000
0030
0000
,
0000
0000
0002
0003
,
0200
0000
0300
1000
,
0100
1000
0001
1000
,
0001
0020
0000
0000
,
0000
0000
0030
0020
,
0000
0000
0030
0000
0000
0001
0000
0001
,
0000
0002
0000
0000
0003
0000
2000
0000
,
0000
3000
0100
0010
,
0001
0010
0100
1000
,
0100
2000
0000
0000
,
0000
0000
0000
3000
,
0000
0000
0000
0002
,
0000
0000
0000
0000
0003
0000
0000
0100
,
0000
0100
0000
0000
,
0000
0000
0000
0000
0000
0000
0000
0000
0000
0000
0000
0000
0000
2002
0000
0000
,
0000
0000
0000
0000
,
0000
0000
0000
0000
,
0000
0000
0000
0000
,
0000
0000
0000
0000
,
3003
0000
0002
0000
0000
0003
0000
0000
,
0100
0000
0010
0000
2000
0000
0000
3000
,
0000
0001
0100
0020
,
0000
0030
0000
0000
1000
0000
0001
0000
,
0200
0000
0000
0300
0000
0000
0010
0000
,
1000
0000
0200
0000
0000
0300
0000
0010
,
0000
0000
0000
0000
0020
0000
0000
0030
,
0000
0100
0000
0000
0000
0000
2000
0000
,
0000
3000
0000
0000
0002
0000
0003
0000
,
2000
3000
0100
0000
,
0000
0000
1001
0000
,
2000
0000
0000
3000
,
0200
0000
0000
0300
,
0020
0000
0030
0001
,
0000
0001
0000
0100
,
0000
0200
0000
0300
,
0020
0000
0000
0030
,
2000
0000
3000
0001
,
0000
0001
0010
0000
,
0200
0000
0000
0300
,
0020
0000
0000
0030
,
0001
0000
1000
0000
,
0100
0000
0010
0000
,
0002
0000
0000
0003
,
1000
0000
0000
0000
0000
0010
0000
0000
0000
1000
0000
0000
,
1000
0000
0000
0000
0000
0001
0000
0000
0000
0010
0000
0000
,
0010
0000
0000
0000
0000
0200
0000
0000
0000
0000
0000
0000
,
0300
0000
0000
0000
0000
0001
0000
0000
0000
0100
0000
0000
,
0000
0000
0000
0000
0000
1000
0000
0000
0000
0100
0000
0000
,
0000
0000
0000
0000
0000
0001
0000
0000
0000
0000
0000
0000
,
1000
0000
0000
0000
0000
0001
0000
0000
0000
0000
0000
0000
,
0100
0001
0020
0030
,
0020
0030
0020
0030
,
0020
0030
0001
1000
,
0001
1000
0100
0000
,
2000
0000
0000
3000
,
0002
0000
0000
0003
,
0200
0300
0010
0000
,
1000
0000
0001
0000
,
0020
0000
0000
0030
,
0100
0000
0000
0000
0000
0100
0000
0000
0000
0000
0000
0000
,
1000
0000
0000
0000
0000
0010
0000
0000
0000
1000
0000
0000
,
0100
0000
0000
0000
0000
0010
0000
0000
0000
0010
0000
0000
,
0001
0001
2000
0000
,
3000
2000
0000
3000
,
0100
0010
0002
0000
,
0003
0002
0000
0003
,
0100
0010
2000
0000
,
3000
2000
0000
3000
,
0001
0010
0200
0000
,
0300
0100
0010
0000
,
0010
0000
0001
1000
,
0001
1000
0001
1000
,
0001
1000
0010
0100
,
0010
0100
0010
0100
,
0010
0100
0001
0001
,
0100
0100
0010
0010
,
1000
0000
2000
0000
,
0000
0000
3002
0000
,
0000
0000
0000
0000
,
0000
0000
0000
0000
,
0000
0000
0000
0000
,
0003
0000
0000
0000
;
