#TITLE:La Gozadera;
#SUBTITLE:;
#ARTIST:Gente De Zona ft. Marc Anthony;
#TITLETRANSLIT:;
#SUBTITLETRANSLIT:;
#ARTISTTRANSLIT:;
#CREDIT:;
#BANNER:La Gozadera.png;
#BACKGROUND:La Gozadera-bg.png;
#LYRICSPATH:;
#CDTITLE:;
#MUSIC:La Gozadera.ogg;
#OFFSET:0.000;
#SAMPLESTART:19.060;
#SAMPLELENGTH:18.840;
#SELECTABLE:YES;
#BPMS:0.000=95.000;
#STOPS:;
#BGCHANGES:;

//---------------dance-single - Kitty Box----------------
#NOTES:
     dance-single:
     Kitty Box:
     Challenge:
     9:
     0.661,0.558,0.305,0.037,0.945: // measure 1
0000
0000
0000
0000
,  // measure 2
0000
0000
0000
0000
,  // measure 3
0000
0000
0000
0000
,  // measure 4
0000
0000
0000
0000
,  // measure 5
1001
0000
0000
0101
0000
0000
0011
0000
1001
0000
0000
1010
0000
0000
1100
0000
,  // measure 6
1001
0000
0000
0101
0000
0000
0011
0000
1001
0000
0000
1010
0000
0000
1100
0000
,  // measure 7
0110
0000
0000
1010
0000
0000
0011
0000
0110
0000
0000
0101
0000
0000
1100
0000
,  // measure 8
0110
0000
0000
1010
0000
0000
0011
0000
0100
0010
1000
0001
1000
0100
0010
0001
,  // measure 9
1000
0100
0010
0100
1000
0000
0001
0100
0001
0010
0100
0010
0001
0000
1000
0100
,  // measure 10
1000
0010
0100
0010
1000
0000
0001
0010
0001
0100
0010
0100
0001
0010
0100
1000
,  // measure 11
0001
0010
0100
0010
0001
0000
1000
0010
1000
0100
0010
0100
1000
0000
0001
0010
,  // measure 12
0001
0100
0010
0100
0001
0000
0001
1000
0100
0010
0001
0010
0100
1000
0001
1000
,  // measure 13
0001
0100
0010
1000
0001
0000
1000
0001
1000
0010
0100
0001
1000
0000
0001
1000
,  // measure 14
0001
0010
0100
1000
0001
0000
1000
0001
1000
0100
0010
0001
1000
0000
0001
1000
,  // measure 15
0001
0100
0010
1000
0001
0000
1000
0001
1000
0010
0100
0001
1000
0000
0001
1000
,  // measure 16
0001
0010
0100
1000
0001
0000
1000
0001
1000
0000
0100
0010
0100
1000
0001
0010
,  // measure 17
0000
0100
1000
0010
0100
0001
0100
0010
0100
0001
0000
1000
0100
0010
0001
0000
,  // measure 18
1000
0010
1000
0100
1000
0001
0010
0000
1000
0010
0001
1000
0001
0100
0001
0010
,  // measure 19
0100
0010
0100
1000
0100
0010
0100
0001
0100
1000
0010
0100
0010
1000
0010
0100
,  // measure 20
0010
0000
0000
1000
0100
0010
0001
0000
0110
0000
1010
0000
0011
0000
0110
0000
,  // measure 21
1000
0100
1000
0100
0001
0000
0001
0100
1000
0000
1001
0000
0110
0000
1001
0000
,  // measure 22
1000
0010
1000
0010
0001
0000
0001
0010
1000
0000
0110
0000
1001
0000
0110
0000
,  // measure 23
0001
0100
0001
0100
1000
0000
1000
0100
0001
0000
1001
0000
0110
0000
1001
0000
,  // measure 24
0001
0010
0001
0010
1000
0010
1000
0010
0001
0000
0110
0000
1001
0000
0110
0000
,  // measure 25
1000
0000
0000
0000
0100
0000
0000
0000
0010
0000
0000
0000
0001
0000
0000
0000
0010
0000
0000
0000
0100
0000
0000
0000
1000
0000
0000
0100
0000
0000
0010
0000
0000
0001
0000
0000
0010
0000
0000
0100
0000
0000
1000
0000
0000
0001
0000
0000
,  // measure 26
1000
0100
0010
0100
1000
0000
0001
0100
0001
0010
0100
0010
0001
0000
1000
0100
,  // measure 27
1000
0010
0100
0010
1000
0000
0001
0010
0001
0100
0010
0100
0001
0010
0100
1000
,  // measure 28
0001
0010
0100
0010
0001
0000
1000
0010
1000
0100
0010
0100
1000
0000
0001
0010
,  // measure 29
0001
0100
0010
0100
0001
0000
0001
1000
0100
0010
0001
0010
0100
1000
0001
1000
,  // measure 30
0001
0100
0010
1000
0001
0000
1000
0001
1000
0010
0100
0001
1000
0000
0001
1000
,  // measure 31
0001
0010
0100
1000
0001
0000
1000
0001
1000
0100
0010
0001
1000
0000
0001
1000
,  // measure 32
0001
0100
0010
1000
0001
0000
1000
0001
1000
0010
0100
0001
1000
0000
0001
1000
,  // measure 33
0001
0010
0100
1000
0001
0000
1000
0001
1000
0000
0100
0000
0010
0000
0001
1000
,  // measure 34
0000
0100
0000
0001
0000
0100
2000
0000
3010
0100
0010
0100
0010
0000
1000
0001
,  // measure 35
0000
0100
0000
1000
0000
0100
0002
0000
0013
0100
0010
0100
0010
0000
0001
1000
,  // measure 36
0000
0010
0000
0001
0000
0010
2000
0000
3100
0010
0100
0010
0100
1000
0100
0010
,  // measure 37
0000
0001
0000
0100
0000
0010
2000
0000
0100
0000
0010
0000
3001
1000
0000
0100
,  // measure 38
0000
0010
0000
0001
0000
0100
1000
0000
1001
0000
0010
0100
0010
0000
0001
0010
,  // measure 39
0000
1000
0000
0010
0000
0001
1000
0000
0110
0000
0010
0001
0010
0000
0001
1000
,  // measure 40
0000
0100
0000
0001
0000
0100
1000
0000
0101
0000
0100
0010
0100
0000
0001
1000
,  // measure 41
0000
0100
0000
0010
0000
1000
0020
0000
0001
0000
0100
0000
0001
0000
0130
0000
,  // measure 42
0001
0000
0000
0000
0010
0000
0000
0000
0100
0000
0000
0000
1000
0000
0000
0000
0100
0000
0000
0000
0010
0000
0000
0000
0001
0000
0000
0100
0000
0000
0010
0000
0000
1000
0000
0000
0100
0000
0000
0010
0000
0000
0001
0000
0000
1000
0000
0000
,  // measure 43
0001
0010
0100
0010
0001
0000
1000
0010
1000
0100
0010
0100
1000
0000
0001
0010
,  // measure 44
0001
0100
0010
0100
0001
0000
1000
0100
1000
0010
0100
0010
1000
0100
0010
0001
,  // measure 45
1000
0100
0010
0100
1000
0000
0001
0100
0001
0010
0100
0010
0001
0000
1000
0100
,  // measure 46
1000
0010
0100
0010
1000
0000
1000
0001
0010
0100
1000
0100
0010
0001
1000
0001
,  // measure 47
1000
0010
0100
0001
1000
0000
0001
1000
0001
0100
0010
1000
0001
0000
1000
0001
,  // measure 48
1000
0100
0010
0001
1000
0000
0001
1000
0001
0010
0100
1000
0001
0000
1000
0001
,  // measure 49
1000
0010
0100
0001
1000
0000
0001
1000
0001
0100
0010
1000
0001
0000
1000
0001
,  // measure 50
1000
0000
0000
0100
0000
0000
0010
0000
0000
0001
0000
0000
1000
0000
0000
0000
0000
0000
0001
0000
0000
1000
0000
0000
0001
0000
0000
0000
0010
0000
0000
0000
0100
0000
0000
0000
1000
0000
0000
0001
0000
0000
1000
0000
0000
0000
0000
0000
,  // measure 51
0110
0000
0000
0000
;

//---------------dance-single - Kitty Box----------------
#NOTES:
     dance-single:
     Kitty Box:
     Hard:
     8:
     0.488,0.577,0.089,0.037,0.610:
0000
0000
0000
0000
,
0000
0000
0000
0000
,
0000
0000
0000
0000
,
0000
0000
0000
0000
,
1000
0000
0000
1000
0000
0000
1000
0000
0100
0000
0000
0100
0000
0000
0100
0000
,
0010
0000
0000
0010
0000
0000
0010
0000
0001
0000
0000
0001
0000
0000
0001
0000
,
1000
0000
0000
1000
0000
0000
1000
0000
0100
0000
0000
0100
0000
0000
0100
0000
,
0001
0000
0000
0001
0000
0000
0001
0000
0100
1000
0100
1000
0001
1000
0001
1000
,
0001
0000
0000
0010
0100
0000
1000
0000
0001
0000
0000
0100
0010
0000
1000
0000
,
0100
0000
0000
0010
0001
0000
1000
0000
0001
0000
0001
0100
0010
1000
0010
1000
,
0001
0000
0000
0010
0100
0000
0010
0000
0001
0000
0000
0100
0010
0000
0100
0000
,
0001
0000
0000
1000
0100
0000
0010
0000
0001
0100
0001
0100
0010
1000
0010
1000
,
0001
0000
0000
0010
1000
0000
0010
0000
0001
0000
0000
0100
1000
0000
0100
0000
,
0001
0000
0000
1000
0100
0000
0001
0000
0100
0000
0000
1000
0010
0000
0001
0000
,
0010
0000
0000
1000
0001
0000
0010
0000
1000
0000
0000
0010
0001
0000
1000
0000
,
0001
0000
0000
0000
0000
0000
0000
0000
0000
0010
0000
0000
0100
0000
0000
0000
0000
0000
1000
0000
0000
0000
0000
0000
0100
0000
0000
0000
0010
0000
0000
0000
0100
0000
0000
0000
0010
0000
0000
0001
0000
0000
0010
0000
0000
0001
0000
0000
,
1000
0100
1000
0100
1000
0000
0010
0000
0100
0010
0100
0010
0100
0000
0001
0000
,
0010
0001
0010
0001
0010
0000
0001
0000
1000
0001
1000
0001
1000
0010
1000
0010
,
1000
0100
1000
0100
0010
0001
0010
0001
1000
0010
1000
0010
0100
0001
0100
0001
,
1000
0000
0000
0100
0010
0001
0010
0000
0100
0000
1000
0000
0001
0000
1000
0000
,
0001
0010
0001
0010
0100
0000
0010
0000
1001
0000
0110
0000
1001
0000
0110
0000
,
1000
0100
1000
0100
0010
0000
0100
0000
1000
0000
0100
0000
0010
0000
0001
0000
,
1000
0010
1000
0010
0100
0000
0010
0000
1001
0000
0110
0000
1001
0000
0110
0000
,
0001
0100
0001
0100
0010
0100
0010
0100
0001
0010
0001
0010
0100
1000
0100
1000
,
0001
0000
0000
0000
0010
0000
0000
0000
0100
0000
0000
0000
1000
0000
0000
0000
0100
0000
0000
0000
0010
0000
0000
0000
0001
0000
0000
1000
0000
0000
0001
0000
0000
1000
0000
0000
0001
0000
0000
0100
0000
0000
0001
0000
0000
0100
0000
0000
,
0001
0000
0000
0010
0100
0000
1000
0000
0001
0000
0000
0100
0010
0000
1000
0000
,
0100
0000
0000
0010
0001
0000
1000
0000
0001
0000
0001
0100
0010
1000
0010
1000
,
0001
0000
0000
0010
0100
0000
0010
0000
0001
0000
0000
0100
0010
0000
0100
0000
,
0001
0000
0000
1000
0100
0000
0010
0000
0001
0100
0001
0100
0010
1000
0010
1000
,
0001
0000
0000
0010
1000
0000
0010
0000
0001
0000
0000
0100
1000
0000
0100
0000
,
0001
0000
0000
1000
0100
0000
0001
0000
0100
0000
0000
1000
0010
0000
0001
0000
,
0010
0000
0000
1000
0001
0000
0010
0000
1000
0000
0000
0010
0001
0000
1000
0000
,
0001
0000
0000
0010
0100
0000
1000
0000
0100
0000
0010
0000
0001
0000
1000
0001
,
0000
0010
0000
0100
0000
1000
0002
0000
0100
0000
0010
0000
0103
0000
0010
0001
,
0000
1000
0000
0100
0000
0010
0002
0000
0010
0000
0100
0000
0013
0000
0100
1000
,
0000
0100
0000
0001
0000
1000
0200
0000
0010
0000
0301
0000
0100
1000
0001
1000
,
0000
0100
0000
0010
0000
0001
2000
0000
0010
0000
0010
0000
3100
1000
0000
0010
,
0000
0100
0000
0001
0000
0010
0100
0000
1001
0000
0000
0100
0010
0000
0000
0100
,
0000
0001
0000
0010
0000
0100
1000
0000
0110
0000
0000
1000
0100
0000
0000
0010
,
0000
0001
0000
0100
0000
1000
0100
0000
0110
0000
0000
0001
1000
0000
0000
0100
,
0000
0010
0000
0100
0000
1000
0002
0000
0010
0000
0010
0000
0100
0000
0103
0000
,
1000
0000
0000
0000
0100
0000
0000
0000
0010
0000
0000
0000
0001
0000
0000
0000
0010
0000
0000
0000
0100
0000
0000
0000
1000
0000
0000
0001
0000
0000
1000
0000
0000
0001
0000
0000
1000
0000
0000
0010
0000
0000
1000
0000
0000
0010
0000
0000
,
1000
0000
0000
0100
0010
0000
0001
0000
1000
0000
0000
0010
0100
0000
0001
0000
,
0010
0000
0000
0100
1000
0000
0001
0000
1000
0000
1000
0010
0100
0001
0100
0001
,
1000
0000
0000
0100
0010
0000
0100
0000
1000
0000
0000
0010
0100
0000
0010
0000
,
1000
0000
0000
0001
0010
0000
0100
0000
1000
0010
1000
0010
0100
0001
0100
0001
,
1000
0000
0000
0100
0001
0000
0100
0000
1000
0000
0000
0010
0001
0000
0010
0000
,
1000
0000
0000
0001
0010
0000
1000
0000
0010
0000
0000
0001
0100
0000
1000
0000
,
0100
0000
0000
0001
1000
0000
0100
0000
0001
0000
0000
0100
1000
0000
0001
0000
,
1000
0000
0000
0000
0000
0000
0000
0000
0000
0100
0000
0000
0010
0000
0000
0000
0000
0000
0001
0000
0000
0000
0000
0000
0010
0000
0000
0000
0100
0000
0000
0000
0010
0000
0000
0000
0100
0000
0000
0000
0000
0000
1000
0000
0000
0000
0000
0000
,
0110
0000
0000
0000
;

//---------------dance-single - Kitty Box----------------
#NOTES:
     dance-single:
     Kitty Box:
     Medium:
     6:
     0.402,0.354,0.007,0.000,0.246:
0000
0000
0000
0000
,
0000
0000
0000
0000
,
0000
0000
0000
0000
,
0000
0000
0000
0000
,
1000
0000
0000
0001
0000
0000
1000
0000
0010
0000
0000
1000
0000
0000
0010
0000
,
0100
0000
0000
0001
0000
0000
0100
0000
0010
0000
0000
0001
0000
0000
0010
0000
,
1000
0000
0000
0001
0000
0000
1000
0000
0010
0000
0000
1000
0000
0000
0010
0000
,
0100
0000
0000
0001
0000
0000
0100
0000
0001
0000
0010
0000
0100
0000
1000
0000
,
0001
0100
0001
1000
0100
0010
0100
1000
,
0010
0100
0010
1000
0100
0010
0001
1000
,
0001
0010
0001
1000
0010
0100
0001
1000
,
0100
0010
0100
1000
0010
0100
0001
1000
,
0001
0100
0001
0100
1000
0100
0001
1000
,
0001
0010
0001
0010
1000
0010
0001
1000
,
0100
0001
0100
0001
0100
1000
0010
0100
,
0001
0000
0000
0010
0000
0000
0100
0000
0000
1000
0000
0000
0100
0000
0010
0000
0100
0000
0010
0000
0000
0001
0000
0000
,
1000
0000
0000
0100
1000
0000
0001
0000
1000
0000
0000
0010
0100
0000
0001
0000
,
1000
0000
0000
0100
0010
0000
0001
0000
1000
0000
0010
0000
1000
0000
0010
0000
,
0001
0010
1000
0010
1000
0100
0001
0100
,
0001
0000
0000
0100
1000
0000
0010
0000
0100
0000
0010
0000
1000
0000
0001
0000
,
1000
0000
0000
1000
0100
0000
0010
0000
0001
0000
0010
0000
1000
0000
0010
0000
,
0001
0000
0000
0001
0100
0000
0010
0000
1000
0000
0010
0000
0001
0000
0010
0000
,
1000
0000
0000
1000
0010
0000
0100
0000
0001
0000
0100
0000
1000
0000
0100
0000
,
0001
0000
0000
0001
0010
0000
0100
0000
1000
0000
0010
0000
0001
0000
0010
0000
,
1000
0000
0001
0000
1000
0000
0001
0000
1000
0000
0001
0000
1000
0000
0000
0100
0000
0000
0010
0000
0000
0001
0000
0000
,
1000
0010
1000
0001
0010
0100
0010
0001
,
0100
0010
0100
0001
0010
0100
1000
0001
,
1000
0100
1000
0001
0100
0010
1000
0001
,
0010
0100
0010
0001
0100
0010
1000
0001
,
1000
0010
1000
0010
0001
0010
1000
0001
,
1000
0100
1000
0100
0001
0100
1000
0001
,
0010
1000
0010
1000
0010
0001
0100
0010
,
1000
0000
0000
0000
0000
0000
0100
0000
0000
0000
0000
0000
0010
0000
0000
0000
0000
0000
0001
0000
0000
0000
0000
0000
0010
0000
0000
0000
0100
0000
0000
0000
0010
0000
0000
0000
0100
0000
0000
0000
0000
0000
1000
0000
0000
0001
0000
0000
,
0000
0010
0000
0100
0000
1000
0001
0000
0010
0000
0000
0100
0010
0000
0001
1000
,
0000
0100
0000
0010
0000
0001
1000
0000
0100
0000
0000
0010
0100
0000
1000
0001
,
0000
0100
0000
0010
0000
1000
0010
0000
0100
0000
0000
0010
1000
0100
1000
0100
,
0000
0010
0000
0001
0000
0100
0010
0000
1000
0000
0100
0000
0000
0010
0000
0001
,
0000
1000
0000
0010
0000
0100
0001
0000
1000
0000
0010
0000
1000
0000
0100
0010
,
0000
0001
0000
0010
0000
0100
1000
0000
0001
0000
0100
0000
0001
0000
0010
0001
,
0000
1000
0000
0010
0000
0100
0001
0000
1000
0000
0010
0000
1000
0000
0100
0010
,
0000
0100
0000
0010
0000
0001
1000
0000
0010
0000
0100
0000
0001
0000
1000
0000
,
0010
0000
0100
0000
0010
0000
0100
0000
0010
0000
0100
0000
0010
0000
0000
0100
0000
0000
0001
0000
0000
1000
0000
0000
,
0001
0100
0001
1000
0100
0010
0100
1000
,
0010
0100
0010
1000
0100
0010
0001
1000
,
0001
0010
0001
1000
0010
0100
0001
1000
,
0100
0010
0100
1000
0010
0100
0001
1000
,
0001
0100
0001
0100
1000
0100
0001
1000
,
0001
0010
0001
0010
1000
0010
0001
1000
,
0100
0001
0100
0001
0100
1000
0010
0100
,
0001
0000
0000
0010
0000
0000
0100
0000
0000
1000
0000
0000
0100
0000
0010
0000
0100
0000
0010
0000
0000
0100
0000
0000
,
1001
0000
0000
0000
;

//---------------dance-single - Kitty Box----------------
#NOTES:
     dance-single:
     Kitty Box:
     Easy:
     4:
     0.319,0.316,0.007,0.000,0.026:
0000
0000
0000
0000
,
0000
0000
0000
0000
,
0000
0000
0000
0000
,
0000
0000
0000
0000
,
1000
0000
0000
0001
0000
0000
1000
0000
0001
0000
0000
1000
0000
0000
0001
0000
,
1000
0000
0000
0010
0000
0000
1000
0000
0010
0000
0000
1000
0000
0000
0010
0000
,
1000
0000
0000
0100
0000
0000
1000
0000
0100
0000
0000
1000
0000
0000
0100
0000
,
1000
0000
0000
0010
0000
0000
0100
0000
0001
0000
0010
0000
0100
0000
1000
0000
,
0001
0000
0010
0000
0100
1000
0100
1000
,
0001
0000
0100
0000
0010
1000
0010
1000
,
0100
0000
0010
0000
0001
1000
0001
1000
,
0100
0000
0010
0000
0001
0010
0100
1000
,
0001
0000
0010
0000
0100
1000
0100
1000
,
0001
0000
0100
0000
0010
1000
0010
1000
,
0100
0000
0010
0000
0001
1000
0001
1000
,
0100
0000
0010
0000
0001
0010
0100
1000
,
0001
0000
0010
0100
0010
0000
1000
0010
,
1000
0000
0010
0100
0010
0001
1000
0001
,
1000
0100
1000
0100
0010
0001
0010
0001
,
1000
0000
0100
0010
0100
0010
0001
1000
,
0001
0000
0010
1000
0010
0001
1000
0001
,
1000
0000
0010
0001
0010
1000
0001
1000
,
0001
0000
0100
1000
0100
0001
1000
0001
,
1000
0000
0100
0001
0100
1000
0001
1000
,
0001
1000
0001
1000
0001
0010
0100
1000
,
0001
0000
0010
0000
0100
1000
0100
1000
,
0001
0000
0100
0000
0010
1000
0010
1000
,
0100
0000
0010
0000
0001
1000
0001
1000
,
0100
0000
0010
0000
0001
0010
0100
1000
,
0001
0000
0010
0000
0100
1000
0100
1000
,
0001
0000
0100
0000
0010
1000
0010
1000
,
0100
0000
0010
0000
0001
1000
0001
1000
,
0100
0000
0010
0000
0001
0010
0100
1000
,
0001
0000
0100
0010
1000
0000
0100
0010
,
0001
0000
0100
0010
1000
0000
0100
1000
,
0010
0000
0001
0010
1000
0000
0100
0010
,
0001
0000
0100
0010
1000
0100
0010
0001
,
1000
0001
1000
0001
1000
0010
1000
0010
,
1000
0100
1000
0100
0010
0001
0010
0001
,
1000
0001
1000
0001
1000
0100
1000
0100
,
1000
0010
1000
0010
1000
0100
0010
0001
,
1000
0001
1000
0001
1000
0100
0010
0001
,
1000
0000
0100
0000
0010
0001
0010
0001
,
1000
0000
0010
0000
0100
0001
0100
0001
,
0010
0000
0100
0000
1000
0001
1000
0001
,
0010
0000
0100
0000
1000
0100
0010
0001
,
1000
0000
0100
0000
0010
0001
0010
0001
,
1000
0000
0010
0000
0100
0001
0100
0001
,
0010
0000
0100
0000
1000
0001
1000
0001
,
0010
0000
0100
0000
1000
0100
0010
0100
,
1001
0000
0000
0000
;

//---------------dance-single - Kitty Box----------------
#NOTES:
     dance-single:
     Kitty Box:
     Beginner:
     3:
     0.197,0.242,0.037,0.000,0.000:
0000
0000
0000
0000
,
0000
0000
0000
0000
,
0000
0000
0000
0000
,
0000
0000
0000
0000
,
1000
0000
1000
0000
,
0001
0000
0001
0000
,
0100
0000
0100
0000
,
0010
0000
0010
0000
,
1000
0100
1000
0010
,
0100
0001
0010
0001
,
0100
0010
0100
0001
,
1000
0100
0010
0100
,
1000
0010
0100
0001
,
1000
0100
0010
0001
,
1000
0010
0100
0010
,
1000
0100
0010
0001
,
1000
0100
0010
0001
,
0010
0100
1000
0001
,
1000
0010
0001
0010
,
0100
0010
1001
0000
,
1000
0000
0010
0000
1000
0001
1000
0001
,
1000
0000
0100
0000
1000
0001
1000
0001
,
1000
0000
0010
0000
1000
0001
1000
0001
,
1000
0000
0100
0000
1000
0001
1000
0001
,
1000
0100
0010
0001
,
1000
0100
1000
0010
,
0100
0001
0010
0001
,
0100
0010
0100
0001
,
1000
0100
0010
0100
,
1000
0010
0100
0001
,
1000
0100
0010
0001
,
1000
0010
0100
0010
,
1000
0100
0010
0001
,
1000
0100
0010
0100
,
0001
0100
1000
0001
,
1000
0010
0100
1000
,
0100
0001
1000
0000
,
0100
0010
1001
0000
,
0010
0100
1001
0000
,
0100
0010
1001
0000
,
1000
0100
0010
0001
,
1000
0010
0100
0001
,
1000
0100
1000
0010
,
0100
0001
0010
0001
,
0100
0010
0100
0001
,
1000
0100
0010
0100
,
1000
0010
0100
0001
,
1000
0100
0010
0001
,
1000
0010
0100
0010
,
1000
0100
0010
0001
,
0110
0000
0000
0000
;
