#TITLE:Journey;
#SUBTITLE:;
#ARTIST:猫叉Master;
#TITLETRANSLIT:;
#SUBTITLETRANSLIT:;
#ARTISTTRANSLIT:Nekomata Master;
#GENRE:;
#CREDIT:;
#BANNER:Journey.png;
#BACKGROUND:Journey-bg.png;
#LYRICSPATH:;
#CDTITLE:;
#MUSIC:Journey.ogg;
#OFFSET:-0.309000;
#SAMPLESTART:77.451859;
#SAMPLELENGTH:17.142853;
#SELECTABLE:YES;
#BPMS:0.000000=112.000000
;
#STOPS:
;
#BGCHANGES:;
#KEYSOUNDS:;
#ATTACKS:;

//---------------dance-single - ----------------
#NOTES:
     dance-single:
     :
     Hard:
     7:
     0.410113,0.456374,0.043105,0.129315,0.073278,333.000000,328.000000,5.000000,15.000000,0.000000,0.000000,0.410113,0.456374,0.043105,0.129315,0.073278,333.000000,328.000000,5.000000,15.000000,0.000000,0.000000:
0000
0000
0000
0000
,
0000
0000
0000
0000
,
0000
0000
0000
0000
,
0000
0000
0000
0000
,
0000
0001
0000
1000
0000
0010
0100
0010
,
0000
0100
0000
0001
0000
1000
0010
1000
,
0000
0100
0000
0010
0000
0001
1000
0001
,
0000
1000
0100
0010
0100
1000
0100
1000
,
0000
0010
0100
0010
1000
0001
0100
0000
,
0000
0010
0100
0010
0100
0001
1000
0000
,
0000
0100
0010
0100
1000
0100
0010
0001
,
2000
0100
0010
3001
,
0000
1000
0010
0100
0001
0010
0100
0000
,
0000
0010
0100
1000
0001
0100
0001
0000
,
0000
1000
0010
0100
0001
0010
0001
1000
,
0010
0000
1000
0000
0100
0010
0001
1000
,
0100
1000
0010
0100
0001
1000
0100
1000
,
0000
0001
1000
0010
1000
0100
1000
0001
,
0000
1000
0001
0010
0001
0100
0001
1000
,
0100
0001
0100
1000
0010
0001
0010
1000
,
0000
0001
0100
0001
1000
0100
0010
0100
,
0000
0010
0001
1000
0010
0100
0001
1000
,
0000
0100
1000
0010
0100
0001
0010
0001
,
0100
0100
0010
1000
0001
0001
0010
0100
,
1000
0000
0000
0000
1000
0000
0000
0001
1000
0000
0000
0001
1000
0000
0000
0001
,
1000
0100
1000
0010
0100
0000
0010
1000
,
0001
0000
0000
0000
0001
0000
0000
1000
0001
0000
0000
1000
0100
0000
0000
1000
,
0001
0000
0000
0100
0000
0000
0001
0000
1000
0000
0000
0000
0100
0000
0010
0000
,
0001
0000
0000
1000
0001
0000
0000
0010
0001
0000
0000
0100
0001
0000
0000
1000
,
0001
0010
0001
1000
0100
0000
1000
0001
,
0000
1000
0001
1000
0000
0001
1000
0001
,
0000
1000
0001
1000
0001
0010
0100
1000
,
0000
0001
1000
0001
0000
1000
0001
1000
,
0000
0001
1000
0001
1000
0100
0010
0001
,
1000
0001
0010
0001
1000
0010
1000
0001
,
1000
0100
1000
0001
0100
0001
1000
0001
,
2000
0000
0000
0000
3100
0000
0000
0010
0002
0000
0000
0000
1003
0000
0010
0000
,
1000
0001
0010
0100
1100
0000
1000
0001
,
1000
0001
0010
0100
1100
0000
0100
0010
,
0002
0100
0010
2003
,
3002
0000
0000
0000
0013
0000
0000
0100
0020
0000
0000
0000
0130
0000
1000
0000
,
0001
0100
1000
0100
0110
0000
0010
0100
,
0001
0100
1000
0100
0110
0000
0010
1000
,
0200
0000
0010
0000
0310
0000
0100
1000
,
0002
0000
2003
0000
3020
0000
1030
0010
,
0100
0001
0010
0001
1001
0000
1000
0010
,
0100
0001
0100
0010
1000
1000
0010
0010
,
0000
0100
0010
1000
0001
0001
0010
0010
,
0002
0023
0230
0320
,
0031
0010
0100
0010
0001
0000
0001
1000
,
0010
1000
0010
0100
0010
0010
1000
1000
,
0001
0010
0100
0010
0001
0001
1000
1000
,
0001
0000
0100
0000
0010
0000
1000
0000
0001
1000
0010
0100
0001
1000
0010
0100
;

//---------------dance-single - ----------------
#NOTES:
     dance-single:
     :
     Easy:
     2:
     0.179809,0.251302,0.034484,0.172420,0.000000,146.000000,142.000000,4.000000,20.000000,0.000000,0.000000,0.179809,0.251302,0.034484,0.172420,0.000000,146.000000,142.000000,4.000000,20.000000,0.000000,0.000000:
0000
0000
0000
0000
,
0000
0000
0000
0000
,
0000
0000
0000
0000
,
0000
0000
0000
0000
,
1000
0000
0000
0010
,
0000
0000
0000
0100
,
0000
0000
0000
0001
,
1000
0000
0001
1000
,
0010
1000
0010
0000
,
0100
0001
0100
0000
,
0001
1000
0001
0010
,
0001
1000
0100
1000
,
0010
1000
0010
1000
,
0000
0001
0100
0001
,
0000
1000
0100
1000
,
0100
0010
0001
1000
,
0000
0001
0100
0010
,
0000
1000
0100
0001
,
0000
0001
0100
1000
,
0010
0001
0010
1000
,
0000
0010
0100
0001
,
0000
1000
0010
0001
,
0000
0001
0010
1000
,
0100
0001
0100
1000
,
0010
0010
0100
0100
,
0010
0100
0001
1000
,
0001
0001
1000
0001
,
1000
0010
0100
0000
,
0010
0010
0100
0100
,
0010
0100
0001
1000
,
0200
0000
0000
0000
,
0000
0000
0000
0000
0000
0000
0000
0300
,
0020
0000
0000
0000
,
0000
0000
0000
0000
0000
0000
0000
0030
,
0001
0001
1000
1000
,
0010
0100
0001
1000
,
0002
2003
3002
0103
,
0001
0010
0011
0001
,
0010
0001
0011
0010
,
0200
0000
0300
1000
,
0020
2030
3002
1003
,
0100
0010
0110
0100
,
0010
0100
0110
0100
,
1000
0000
0000
0000
,
0002
0203
0320
1030
,
0010
0100
0001
1000
,
0200
0000
0000
0000
,
1300
0000
0000
0000
,
0002
0023
0230
2300
,
3010
0100
0001
1000
,
0002
0000
0000
0000
,
2003
0000
0000
0000
,
3020
0000
0000
0000
,
0030
0000
0000
0000
;

//---------------dance-single - ----------------
#NOTES:
     dance-single:
     :
     Medium:
     4:
     0.268482,0.296293,0.051726,0.172420,0.000000,218.000000,212.000000,6.000000,20.000000,0.000000,0.000000,0.268482,0.296293,0.051726,0.172420,0.000000,218.000000,212.000000,6.000000,20.000000,0.000000,0.000000:
0000
0000
0000
0000
,
0000
0000
0000
0000
,
0000
0000
0000
0000
,
0000
0000
0000
0000
,
0000
1000
0000
0000
0000
0001
0100
0001
,
0000
0010
0000
0000
0000
0100
1000
0100
,
0000
0010
0000
0000
0000
0001
1000
0001
,
0000
1000
0100
0000
1010
0000
0101
0000
,
0001
0000
1000
0000
0010
1000
0010
0000
,
1000
0000
0001
0000
0010
0001
0010
0000
,
0001
0000
1000
0000
0100
0010
0100
0000
,
0010
0011
0101
1001
,
1000
0000
0001
0000
1000
0010
0100
0000
,
0010
0000
1000
0000
0001
0010
0001
0000
,
0010
0000
0100
0000
0010
0000
0001
1000
,
0010
0000
1000
0000
0100
0010
0001
1000
,
0001
0000
0100
0000
0010
1000
0010
1000
,
0000
0010
0100
0000
0010
1000
0010
1000
,
0000
1000
0001
0000
0010
0000
0100
0000
,
1000
0100
0010
0001
0010
0100
1000
0001
,
0000
1000
0010
0000
0100
0000
0001
0000
,
0000
0010
0001
0000
0010
0000
0001
0000
,
0000
0010
0100
0000
1000
0000
0001
0000
,
0100
0001
0100
0010
,
1000
1000
0001
0001
,
1000
0010
0100
0001
1000
0000
0001
1000
,
0001
0001
1000
1000
,
0010
0100
1001
1000
,
0001
0100
0001
0100
,
0001
0100
0010
1000
0100
0000
1000
0001
,
2000
0000
0000
0000
,
3020
0000
0000
0000
,
0230
0000
0000
0000
,
0302
0000
0000
0000
,
1003
0001
0100
0010
,
2000
3100
0002
0013
,
0002
0023
0230
0310
,
0100
0000
1000
0001
0100
0000
0010
0000
,
0100
0000
0001
1000
0010
0000
0100
0001
,
0020
0000
0030
0001
,
2000
3020
2030
3100
,
1000
0000
0001
0010
0100
0000
0010
0000
,
0001
0000
0100
0010
1000
0000
0001
1000
,
0002
0000
0000
0000
0003
0000
1000
0010
,
0100
0000
0001
0000
0100
0000
0010
1000
,
0100
0000
0010
0100
1000
0000
0001
1000
,
0020
0000
1000
0000
,
0100
0000
1000
0000
,
2030
3001
0002
1003
,
0001
0100
0010
0100
,
0002
0000
0103
0000
0010
0100
0001
0000
,
2000
0000
3100
0000
0010
0100
1000
0000
,
0002
0000
1003
0000
0010
0100
0010
0100
;

//---------------dance-double - ----------------
#NOTES:
     dance-double:
     :
     Challenge:
     6:
     0.355924,0.410736,0.051726,0.284493,0.034484,289.000000,283.000000,6.000000,33.000000,0.000000,0.000000,0.355924,0.410736,0.051726,0.284493,0.034484,289.000000,283.000000,6.000000,33.000000,0.000000,0.000000:
00000000
00000000
00000000
00000000
,
00000000
00000000
00000000
00000000
,
00000000
00000000
00000000
00000000
,
00000000
00000000
00000000
00000000
,
10000000
00100000
00000000
00000000
00000000
01000000
00010000
00100000
,
00000000
00001000
00000000
00000000
00000000
00010000
00000100
00001000
,
00000000
00000010
00000000
00000000
00000000
00000100
00000010
00000100
,
00000000
00000001
00000100
00000010
00001010
00000000
00001000
00001000
,
00000000
00000100
00000010
00000001
00001000
00000010
00010000
00000000
,
00000000
00001000
00100000
00010000
01000000
00010000
10000000
00000000
,
00000000
01000000
10000000
00100000
01000000
00010000
00100000
00010000
,
02000000
03002000
00023000
00030200
,
00000300
00001000
00000100
00000001
00000100
00001000
00000001
00000000
,
00000000
00001000
00000010
00000001
00000010
00001000
00000001
00000000
,
00000000
00001000
00000010
00010000
01000000
00100000
00010000
01000000
,
00200000
00000000
10300000
00000000
00100000
00100000
10000000
10000000
,
00000000
00010000
00100000
00001000
00010000
00000100
00010000
00001000
,
00000000
00010000
00000100
00001000
00000100
00010000
00001000
00100000
,
00000000
00001000
00010000
00000100
00001000
00000010
00000100
00000010
,
00001000
00000100
00010000
01000000
10000000
01000000
00010000
01000000
,
00000000
00010000
01000000
00010000
00100000
00001000
00010000
00000100
,
00000000
00001000
00000100
00010000
00001000
01000000
00010000
01000000
,
00000000
00010000
00100000
00001000
00010000
00000100
00000010
00000100
,
00000010
00000001
00000100
00001000
00000100
00000010
00001000
00000001
,
00000020
00000230
00002300
00003200
,
00010300
00001000
00100000
01000000
10000000
00000000
00010000
10000000
,
02000000
03200000
00320000
00230000
,
00301000
00000000
00000000
00001000
00000000
00000000
00010000
00000000
00001000
00000000
00000000
00000000
00010000
00000000
00000100
00000000
,
00002000
00003020
00000230
00000302
,
00001003
00000100
00010000
00001000
00100000
00000000
00010000
01000000
,
00200000
10000000
00000000
10000000
,
00000000
00000000
10300000
00000000
01000000
00000000
01000000
00010000
,
00200000
00001000
00000000
00010000
,
00000000
00000000
00301000
00000000
00010000
00000100
00001000
00000010
,
00000200
00000301
00000002
00001003
,
00000001
00000100
00000010
00001000
00000100
00010000
00001000
00100000
,
02000000
00000000
00000000
00000000
13000000
00000000
00000000
00100000
02000000
00000000
00000000
00000000
03010000
00000000
00100000
00000000
,
00001000
00100000
00001000
00010000
00010010
00000000
00000010
00000100
,
00000001
00001000
00000100
00010000
00011000
00000000
00001000
00100000
,
00020000
01000000
01030000
00100000
,
02000000
00000000
00000000
00000000
03100000
00000000
00000000
00010000
20000000
00000000
00000000
00000000
30010000
00000000
00100000
00000000
,
00001000
00010000
00000010
00000100
00000101
00000000
00000001
00001000
,
00000010
00010000
00001000
00100000
00110000
00000000
00100000
01000000
,
20000000
00000000
01000000
00000000
31000000
00000000
00100000
00010000
,
01000000
00000000
00000000
00000000
00010000
00000000
00000000
00100000
00001000
00000000
00000000
00000000
00010000
00000000
00000100
00000000
,
00001000
00000010
00000001
00000010
00001010
00000000
00000010
00001000
,
00000002
00000100
00000000
00000100
,
00000000
00001000
00000000
00001003
,
00000002
00002003
00003020
00020030
,
00031000
00100000
01000000
10000000
00100000
00000000
01000000
00010000
,
20000000
01000000
00000000
31000000
,
00000000
10000000
00010000
00100000
00001000
00010000
00000100
00000010
,
00000000
00000000
00000001
00000000
00000100
00000000
00000010
00000000
00010000
00001000
00100000
00001000
00010000
00000100
00010000
00001000
;

//---------------dance-single - ----------------
#NOTES:
     dance-single:
     :
     Beginner:
     1:
     0.075126,0.136427,0.000000,0.000000,0.000000,61.000000,61.000000,0.000000,0.000000,0.000000,0.000000,0.075126,0.136427,0.000000,0.000000,0.000000,61.000000,61.000000,0.000000,0.000000,0.000000,0.000000:
// measure 0
0000
0000
0000
0000
,  // measure 1
0000
0000
0000
0000
,  // measure 2
0000
0000
0000
0000
,  // measure 3
0000
0000
0000
0000
,  // measure 4
0000
0000
0000
0000
,  // measure 5
0000
0000
0000
0000
,  // measure 6
0000
0000
0000
0000
,  // measure 7
0000
0000
0000
0000
,  // measure 8
0010
0000
0000
0000
,  // measure 9
1000
0000
0000
0000
,  // measure 10
0001
0000
0000
0000
,  // measure 11
0100
0000
0010
0000
,  // measure 12
1000
0000
0000
0000
,  // measure 13
0001
0000
0000
0000
,  // measure 14
0010
0000
0000
0000
,  // measure 15
0001
0000
0000
0000
,  // measure 16
1000
0000
0000
0000
,  // measure 17
0001
0000
0000
0000
,  // measure 18
0010
0000
0000
0000
,  // measure 19
0001
0000
1000
0000
,  // measure 20
0010
0000
0000
0000
,  // measure 21
1000
0000
0000
0000
,  // measure 22
0001
0000
0000
0000
,  // measure 23
0010
0000
0000
0000
,  // measure 24
0001
0000
0001
0000
,  // measure 25
0001
0000
0000
0000
,  // measure 26
1000
0000
1000
0000
,  // measure 27
1000
0000
0000
0000
,  // measure 28
0010
0000
0010
0000
,  // measure 29
0010
0000
0000
0000
,  // measure 30
0100
0000
0000
0000
,  // measure 31
0000
0000
0000
0000
,  // measure 32
0010
0000
0000
0000
,  // measure 33
0000
0000
0000
0000
,  // measure 34
1000
0000
1000
0000
,  // measure 35
0001
0000
0001
0000
,  // measure 36
0100
0100
0100
0000
,  // measure 37
0010
0000
0000
0000
,  // measure 38
1000
0000
0000
0000
,  // measure 39
0001
0000
0000
0000
,  // measure 40
1000
1000
1000
0000
,  // measure 41
0010
0000
0000
0000
,  // measure 42
0010
0000
0000
0000
,  // measure 43
0100
0000
0000
0000
,  // measure 44
0001
0001
0001
0000
,  // measure 45
1000
0000
0000
0000
,  // measure 46
0010
0000
0000
0000
,  // measure 47
0010
0000
0000
0000
,  // measure 48
0100
0000
0010
0000
,  // measure 49
1000
1000
1000
0000
,  // measure 50
0001
0000
0000
0000
,  // measure 51
1000
0000
0000
0000
,  // measure 52
0010
0000
0100
0100
;
