#TITLE:John Wayne;
#SUBTITLE:;
#ARTIST:Lady Gaga;
#TITLETRANSLIT:;
#SUBTITLETRANSLIT:;
#ARTISTTRANSLIT:;
#GENRE:;
#CREDIT:;
#BANNER:[Simfile Buffet] - John Wayne-bn.png;
#BACKGROUND:[Simfile Buffet] - John Wayne-bg.png;
#LYRICSPATH:;
#CDTITLE:;
#MUSIC:[Simfile Buffet] - John Wayne.ogg;
#OFFSET:0.402565;
#SAMPLESTART:40.974739;
#SAMPLELENGTH:12.000000;
#SELECTABLE:YES;
#BPMS:0.000000=97.000000
;
#STOPS:
;
#BGCHANGES:2.500=[Simfile Buffet] - John Wayne.avi=1.000=0=0=1=====,
99999=-nosongbg-=1.000=0=0=0 // don't automatically add -songbackground-
;
#KEYSOUNDS:;
#ATTACKS:;

//---------------dance-single - ----------------
#NOTES:
     dance-single:
     :
     Hard:
     8:
     0.396927,0.467819,0.112100,0.040036,0.212190,347.000000,333.000000,14.000000,5.000000,0.000000,0.000000,0.396927,0.467819,0.112100,0.040036,0.212190,347.000000,333.000000,14.000000,5.000000,0.000000,0.000000:
// measure 0
0000
0000
0000
0000
,  // measure 1
0000
0000
0000
0000
,  // measure 2
0000
0000
0000
0000
,  // measure 3
0000
0000
0000
0000
,  // measure 4
0000
0000
0000
0000
0000
0000
1000
0100
,  // measure 5
1000
0001
1000
0010
1000
1000
0010
0100
,  // measure 6
0010
1000
0010
0100
0010
0010
1000
0100
,  // measure 7
0100
0001
0100
1000
1000
0010
0100
0001
,  // measure 8
0001
1000
0001
0100
1000
0100
0001
0010
,  // measure 9
0001
1000
0001
0100
0001
0001
0010
1000
,  // measure 10
0010
0100
0010
0001
0010
0010
0100
1000
,  // measure 11
1000
0001
0100
0010
0010
1000
0001
0100
,  // measure 12
0100
0001
0001
0100
1000
0100
0020
0000
,  // measure 13
0000
0000
0000
0230
,  // measure 14
0000
0000
0000
0302
,  // measure 15
1000
0000
1000
0000
1000
0000
1003
0100
,  // measure 16
0010
0000
0001
0000
1000
0001
1000
0001
1000
0000
0010
0100
0001
0000
0100
0001
,  // measure 17
0100
0001
0000
0000
1000
0000
0100
1000
0100
1000
0000
0000
0010
0000
0100
0010
,  // measure 18
0100
0010
0000
0000
1000
0000
0100
0000
0010
0000
0000
0000
0001
0000
0100
0000
,  // measure 19
1000
0100
0001
0010
0001
1000
0010
1000
,  // measure 20
0001
0000
1000
0000
1100
0000
0000
0000
0011
0000
0000
0000
0001
0000
0100
0010
,  // measure 21
0100
0010
0000
0000
1000
0000
0100
1000
0100
1000
0000
0000
0001
0000
1000
0001
,  // measure 22
1000
0001
0000
0000
0010
0000
0100
0000
1000
0000
0000
0000
1000
0000
0100
0000
,  // measure 23
0001
0100
1000
0001
0010
0100
1000
0010
,  // measure 24
0100
0000
0001
0000
0011
0000
0000
0000
0101
0000
0000
0000
1000
0000
0000
1000
,  // measure 25
0000
0000
1000
0000
0000
0000
1100
0000
0000
0000
0000
0000
0001
0000
0000
0001
,  // measure 26
0000
0000
0001
0000
0000
0000
0101
0000
0000
0000
0000
0000
0010
0000
0000
0010
,  // measure 27
0000
0010
0000
1001
0000
0000
2000
0000
,  // measure 28
3010
0000
0010
0000
0000
0000
0200
0000
0000
0000
0000
0000
0301
0000
0000
1000
,  // measure 29
0000
0000
0100
0000
0000
0000
1100
0000
0000
0000
0000
0000
0100
0000
0000
0010
,  // measure 30
0000
0000
0001
0000
0000
0000
0101
0000
0000
0000
0000
0000
0001
0000
0000
0100
,  // measure 31
0000
0010
0000
0110
0000
0000
0010
0000
,  // measure 32
1000
0000
1000
0000
0100
1000
0010
0100
0001
0010
0001
0100
0010
0000
1000
0100
,  // measure 33
1000
0100
0000
0000
0100
0000
1000
0001
1000
0001
0000
0000
0001
0000
0100
0010
,  // measure 34
0100
0010
0000
0000
0010
0000
1000
0000
0100
0000
0010
0000
0001
0000
0100
0000
,  // measure 35
1000
0100
0010
1000
0001
1000
0100
0100
,  // measure 36
0010
0000
0100
0000
1100
0000
1000
0000
1001
0000
0001
0000
0100
0000
0001
0100
,  // measure 37
0001
0100
0000
0000
0010
0000
1000
0001
1000
0001
0000
0000
0010
0000
0100
0010
,  // measure 38
0100
0010
0000
0000
0100
0000
1000
0000
0010
0000
1000
0000
0001
0000
0010
0000
,  // measure 39
1000
0010
0100
1000
0010
0100
0001
0001
,  // measure 40
1000
0000
0010
0000
1010
0000
1000
0000
1001
0000
0000
0000
0001
0000
0100
0010
,  // measure 41
0100
0000
0001
0000
1000
0000
0100
1000
0100
0000
1000
0000
0001
0000
0100
0001
,  // measure 42
0100
0000
0001
0000
0100
0000
0001
1000
0001
0000
1000
0000
0100
0000
0100
0000
,  // measure 43
0010
0001
0100
0100
1000
0100
0001
0001
,  // measure 44
1000
0000
0100
0000
1000
0001
1000
0001
1000
0001
1000
0001
0100
0000
0001
0100
,  // measure 45
0001
0000
0100
0000
0010
0000
1000
0100
1000
0000
0001
0000
0100
0000
0010
0100
,  // measure 46
0010
0000
1000
0000
0100
0000
1000
0001
1000
0000
0001
0000
1000
0000
1000
0000
,  // measure 47
0100
0001
0100
0100
0010
0001
0100
0100
,  // measure 48
0001
0000
1000
0000
0010
0100
0010
0100
0010
0100
0010
0100
0000
0000
0000
0000
;

//---------------dance-single - ----------------
#NOTES:
     dance-single:
     :
     Medium:
     6:
     0.291690,0.350414,0.072065,0.104093,0.000000,255.000000,246.000000,9.000000,13.000000,0.000000,0.000000,0.291690,0.350414,0.072065,0.104093,0.000000,255.000000,246.000000,9.000000,13.000000,0.000000,0.000000:
0000
0000
0000
0000
,
0000
0000
0000
0000
,
0000
0000
0000
0000
,
0000
0000
0000
0000
,
0000
0000
0000
1000
,
0001
0000
1000
0000
0001
0000
0100
0010
,
0000
0010
0100
0100
0002
0000
1003
0100
,
0001
0000
0001
0100
1000
0000
1000
0010
,
0001
0000
0001
0010
1000
0100
0010
0000
,
0010
0000
0001
0000
0001
0000
1000
0001
,
0000
0001
0100
0100
0010
0000
1000
0100
,
0001
0000
0001
0100
1000
0000
1000
0010
,
0001
0000
0001
0010
1000
0100
0020
0000
,
0000
0000
0000
0032
,
0000
0000
0000
0203
,
0000
0000
0000
0000
0000
0000
0310
1000
,
0100
0010
0001
0001
0001
1001
0001
0100
,
0010
1000
0100
0001
0100
1000
0010
0100
,
0001
0010
1000
0010
0001
0100
0010
1000
,
0100
1000
0100
1000
0001
0100
0001
0100
,
0001
1000
1001
0000
1001
0000
1000
0100
,
1000
0010
1000
0100
0010
0001
0100
0001
,
0010
0001
0100
1000
0100
0001
0010
0100
,
0010
0001
0100
0010
1000
0100
1000
0001
,
0100
0001
0101
0000
0101
0000
2000
0000
,
0000
0000
3000
0002
,
0000
0000
0003
0200
,
0000
0000
0300
0020
,
1030
2000
0000
3002
0000
0000
0203
0000
,
0000
0000
0000
0302
,
0000
0000
0000
2003
,
0000
0000
0000
3100
,
0100
0000
0010
0001
0100
0010
1000
0100
,
0001
0100
1000
0010
0001
0010
1000
0001
,
0010
0100
1000
0010
0100
0001
1000
0100
,
0010
0001
1000
0001
0100
0010
1000
1000
,
0010
0100
0101
0000
0101
0000
0001
0010
,
0001
0100
0001
0010
0100
0010
0001
0100
,
1000
0100
0001
0010
0100
0010
0001
1000
,
0100
1000
0010
0100
0001
0100
0010
1000
,
0100
0010
0011
0000
0011
0000
0001
0100
,
1000
0100
0000
0100
0001
0100
0000
0001
,
0010
0001
0000
0010
0100
0010
0100
1000
,
0100
0000
0100
1000
0010
0000
0010
0100
,
0001
0100
0010
1000
0100
0001
0100
1000
,
0010
0100
0000
0100
0001
0100
0000
0100
,
1000
0100
0000
0100
0001
0010
0000
0100
,
1000
0000
1000
0100
0010
0000
0010
0001
,
0100
0010
1000
1000
0001
0001
0000
0000
;

//---------------dance-single - ----------------
#NOTES:
     dance-single:
     :
     Easy:
     4:
     0.205899,0.272544,0.128115,0.160143,0.000000,180.000000,164.000000,16.000000,20.000000,0.000000,0.000000,0.205899,0.272544,0.128115,0.160143,0.000000,180.000000,164.000000,16.000000,20.000000,0.000000,0.000000:
0000
0000
0000
0000
,
0000
0000
0000
0000
,
0000
0000
0000
0000
,
0000
0000
0000
0000
,
0000
0000
0000
1000
,
1000
1000
1000
0001
,
0001
0001
0001
0100
,
0100
0010
0010
0100
,
0001
0100
1000
0100
,
0100
0100
0100
0010
,
0010
0010
0010
1000
,
1000
0001
0001
0010
,
1000
0010
0001
0100
,
0000
0000
0000
0100
,
0000
0000
0000
0100
,
0000
0000
0000
0100
,
0100
0000
0101
0000
1100
0000
0100
0001
,
0010
0000
0100
1000
0100
0000
0010
0001
,
1000
0000
0001
0001
0100
0000
0001
0000
,
0001
0100
0100
0010
,
0010
0000
1001
0000
1001
0000
1000
0100
,
0001
0000
0100
1000
0100
0000
0010
0001
,
0100
0000
0010
1000
0010
0000
0100
0000
,
0100
0001
0001
1000
,
1000
1100
0011
0202
,
0000
0000
0000
0303
0000
0000
2020
0000
,
0000
0000
0000
3030
0000
0000
2200
0000
,
0000
0000
0000
3300
0000
0000
0000
0000
,
0000
0000
0000
0022
,
0000
0000
0000
0033
0000
0000
0202
0000
,
0000
0000
0000
0303
0000
0000
2020
0000
,
0000
0000
0000
3030
0000
0000
0000
0000
,
0000
0000
1000
0001
1000
0001
1000
0100
,
0001
0000
0001
0100
1000
0000
1000
0010
,
0100
0000
0001
0001
0100
0000
0010
0000
,
0010
1000
1000
0100
,
0100
0000
0011
0000
0011
0000
0001
0100
,
1000
0000
1000
0100
0001
0000
0001
0010
,
0100
0000
0010
0001
1000
0000
0001
0000
,
0001
1000
1000
0010
,
0010
0110
1001
2000
,
3100
0002
0103
2000
,
3010
0000
0200
0000
0301
0000
0100
0100
,
0010
1000
1000
0001
,
0001
0100
0001
0020
,
0130
0200
1300
2000
,
3010
0020
0130
0001
,
0001
1000
1000
0100
,
0100
0000
1000
0100
0010
0001
0000
0000
;

//---------------dance-single - ----------------
#NOTES:
     dance-single:
     :
     Beginner:
     1:
     0.114388,0.174757,0.000000,0.032029,0.000000,100.000000,100.000000,0.000000,4.000000,0.000000,0.000000,0.114388,0.174757,0.000000,0.032029,0.000000,100.000000,100.000000,0.000000,4.000000,0.000000,0.000000:
0000
0000
0000
0000
,
0000
0000
0000
0000
,
0000
0000
0000
0000
,
0000
0000
0000
0000
,
0000
0000
0000
1000
,
0000
0001
0000
0010
,
0000
0100
0100
0000
,
1000
0000
0001
0000
,
0100
0000
0010
0000
,
0100
0000
0001
0000
,
1000
0100
0100
0000
,
0010
0000
0100
0000
,
0010
0000
0001
2000
,
0000
3000
0000
0002
,
0000
0003
0000
0200
,
0000
0300
0000
0020
,
0000
0030
0000
1000
,
1000
1000
0000
0001
,
0001
0001
0000
0100
,
0000
0100
0000
0010
,
0000
0010
0010
1000
,
1000
1000
0000
0100
,
0100
0100
0000
0010
,
0000
0010
0000
0001
,
0000
1000
1000
0001
,
0000
0000
0000
1000
,
0000
0000
0000
0001
,
0000
0000
0000
1000
,
0000
0000
0000
0100
,
0000
0000
0000
0010
,
0000
0000
0000
0001
,
0000
0000
0000
1000
,
0000
1000
1000
0001
,
0001
0001
0000
0100
,
0100
0100
0000
0010
,
0000
0010
0000
1000
,
0000
0001
0001
1000
,
1000
1000
0000
0100
,
0100
0100
0000
0010
,
0000
0010
0000
0001
,
0000
0001
0001
0100
,
0000
0010
0000
0100
,
0000
0010
0000
0100
,
0100
0100
0001
0001
,
0001
1000
1000
1000
,
0000
1000
0000
0010
,
0000
0100
0000
0001
,
0001
0001
0100
0100
,
0100
0010
0010
0000
;
