#TITLE:Instruction;
#SUBTITLE:feat. Demi Lovato;
#ARTIST:Jax Jones;
#TITLETRANSLIT:;
#SUBTITLETRANSLIT:;
#ARTISTTRANSLIT:;
#GENRE:;
#CREDIT:;
#BANNER:;
#BACKGROUND:;
#LYRICSPATH:;
#CDTITLE:;
#MUSIC:Instruction (feat. Demi Lovato).ogg;
#OFFSET:-0.544598;
#SAMPLESTART:56.079926;
#SAMPLELENGTH:12.000000;
#SELECTABLE:YES;
#BPMS:0.000000=121.000000
;
#STOPS:
;
#BGCHANGES:;
#KEYSOUNDS:;
#ATTACKS:;

//---------------dance-single - ----------------
#NOTES:
     dance-single:
     :
     Beginner:
     2:
     0.109514,0.121697,0.000000,0.000000,0.000000,100.000000,100.000000,0.000000,0.000000,0.000000,0.000000,0.109514,0.121697,0.000000,0.000000,0.000000,100.000000,100.000000,0.000000,0.000000,0.000000,0.000000:
0000
0000
0000
0000
,
0000
0000
0000
0000
,
0000
0000
0000
0000
,
0000
0000
0000
0000
,
1000
0000
0000
0000
,
0001
0000
0000
0000
,
0100
0000
0000
0000
,
0010
0000
0000
0000
,
1000
0000
0001
0000
,
0100
0000
0010
0000
,
0100
0000
0000
0000
,
0001
0000
0000
0000
,
1000
0000
0001
0000
,
0100
0000
0010
0000
,
1000
0000
0000
0000
,
0001
0000
0000
0000
,
1000
0000
1000
0000
,
1000
0000
0000
0000
,
0100
0000
0100
0000
,
0100
0000
0000
0000
,
0010
0000
0010
0000
,
0010
0000
0000
0000
,
0001
0000
0001
0000
,
0001
0000
0000
0000
,
1000
0000
0000
0000
,
0010
0000
0000
0000
,
0100
0000
0100
0000
,
0001
0000
0001
0000
,
1000
0000
0001
0000
,
0100
0000
0010
0000
,
0000
0001
0000
0001
,
0000
1000
0000
1000
,
1000
0000
0001
0000
,
0100
0000
0010
0000
,
0000
0001
0000
0001
,
0000
1000
0000
1000
,
0000
0100
0000
0100
,
0100
0000
0100
0000
,
0000
0010
0000
0010
,
0010
0000
0010
0000
,
0000
0001
0000
0001
,
0001
0000
0001
0000
,
0000
1000
0000
1000
,
1000
0000
1000
0000
,
0010
0000
0000
0000
,
0100
0000
0000
0000
,
0001
0000
0001
0000
,
1000
0000
1000
0000
,
1000
0000
0001
0000
,
0100
0000
0010
0000
,
0000
0001
0000
0001
,
0000
1000
0000
1000
,
1000
0000
0001
0000
,
0100
0000
0010
0000
,
0000
0001
0000
0001
,
0000
1000
0000
1000
,
1000
0000
0000
0000
,
0100
0000
0000
0000
,
0010
0000
0000
0000
,
0001
0000
0000
0000
,
0100
0000
0100
0000
,
0010
0000
0010
0000
,
1000
0000
1000
0000
,
0001
0000
0001
0000
;

//---------------dance-single - ----------------
#NOTES:
     dance-single:
     :
     Easy:
     4:
     0.219027,0.342764,0.122655,0.000000,0.000000,200.000000,184.000000,16.000000,0.000000,0.000000,0.000000,0.219027,0.342764,0.122655,0.000000,0.000000,200.000000,184.000000,16.000000,0.000000,0.000000,0.000000:
0000
0000
0000
0000
,
0000
0000
0000
0000
,
0000
0000
0000
0000
,
0000
0000
0000
0000
,
1000
1000
0001
0001
,
0100
0100
0000
0000
,
0001
0001
1000
1000
,
0100
0100
0100
0000
,
1000
1000
0001
0001
,
0100
0100
0010
0010
,
0000
1000
0001
1000
,
0000
0001
1000
0001
,
1000
1000
0001
0001
,
0100
0100
0010
0010
,
0000
1000
0001
1000
,
0000
0001
1000
0001
,
1000
0000
1000
0100
,
0010
0000
0100
0000
,
1000
0000
0001
0100
,
0010
0000
0100
0000
,
0001
0000
1000
0001
,
0010
0000
0001
0000
,
1000
0000
0001
1000
,
0010
0000
1000
0000
,
0001
0100
0101
0000
,
1000
0100
1100
0000
,
1001
0100
1001
0010
,
1001
0110
1001
0000
,
1000
1000
0001
0001
,
0100
0100
0010
0010
,
0000
1000
0100
0010
,
0000
0001
0100
0010
,
1000
1000
0001
0001
,
0100
0100
0010
0010
,
0000
1000
0100
1000
,
0000
0001
0100
0001
,
1000
0000
0001
0010
,
0001
0000
0100
0000
,
0010
0000
1000
0100
,
1000
0000
0010
0000
,
0100
0000
0001
1000
,
0100
0000
1000
0000
,
0001
0000
1000
0001
,
0010
0000
0001
0000
,
1001
0100
1001
0000
,
1001
0010
1001
0000
,
1100
0010
0101
0010
,
1001
0110
1001
0000
,
1000
1000
0001
0001
,
0100
0100
0010
0010
,
0000
1000
0100
1000
,
0000
0001
0100
0001
,
1000
1000
0001
0001
,
0100
0100
0010
0010
,
0000
1000
0010
1000
,
0000
0001
0010
0001
,
1000
0000
1000
0000
,
0001
0000
0001
0000
,
0000
1000
0100
0010
,
0000
0001
0100
0010
,
1000
0000
1000
0000
,
0001
0000
0001
0000
,
0000
1000
0010
0100
,
0000
0000
0001
0000
0010
0000
0100
0100
;

//---------------dance-single - ----------------
#NOTES:
     dance-single:
     :
     Medium:
     6:
     0.296782,0.318281,0.000000,0.000000,0.000000,271.000000,271.000000,0.000000,0.000000,0.000000,0.000000,0.296782,0.318281,0.000000,0.000000,0.000000,271.000000,271.000000,0.000000,0.000000,0.000000,0.000000:
0000
0000
0000
0000
,
0000
0000
0000
0000
,
0000
0000
0000
0000
,
0000
0000
0000
0000
,
1000
0001
1000
0001
,
0100
0010
0000
0010
,
1000
0100
1000
0100
,
0010
0001
0000
0001
,
1000
1000
1000
0000
0001
0001
0001
0000
,
0100
0100
0100
0000
0010
0010
0010
0000
,
0000
1000
0000
1000
,
0000
0001
0000
0001
,
1000
1000
1000
0000
0001
0001
0001
0000
,
0100
0100
0100
0000
0010
0010
0010
0000
,
0000
0100
0000
0100
,
0000
0001
0000
0001
,
1000
0000
0100
0000
1000
0000
0100
0010
,
0001
0000
0001
0000
,
0001
0000
0100
0000
0001
0000
0100
0010
,
1000
0000
1000
0000
,
0001
0000
0010
0000
0001
0000
0010
0100
,
1000
0000
1000
0000
,
1000
0000
0010
0000
1000
0000
0010
0100
,
0001
0000
0000
0000
0001
0000
1000
0100
,
1000
0000
1000
0000
1000
0000
0001
0100
,
0001
0000
0001
0000
0001
0000
1000
0010
,
1000
0000
0001
0010
0001
0000
0100
0010
,
0100
0010
0010
0010
,
1000
1000
1000
0000
0001
0001
0001
0000
,
0100
0100
0100
0000
0010
0010
0010
0000
,
0000
1000
0100
0010
0100
0000
0100
0000
,
0000
1000
0010
0100
0010
0000
0010
0000
,
1000
1000
1000
0000
0001
0001
0001
0000
,
0100
0100
0100
0000
0010
0010
0010
0000
,
0000
1000
0010
0100
0001
0000
0001
0000
,
0000
0001
0010
0100
1000
0000
1000
0000
,
0001
0000
1000
0010
0100
0000
0010
0000
,
1000
0000
1000
0000
,
0001
0000
1000
0100
0010
0000
0100
0000
,
1000
0000
1000
0000
,
0001
0000
0100
0010
0100
0000
0001
0000
,
1000
0000
1000
0000
,
0001
0000
0010
0100
0010
0000
0001
0000
,
1000
0000
0000
0000
1000
0000
0001
1000
,
0010
0000
0010
0000
0010
0000
1000
0001
,
0010
0000
0010
0000
0010
0000
0001
1000
,
0100
0000
1000
0001
0100
0000
0001
1000
,
0100
1000
1000
0001
,
1000
1000
1000
0000
0001
0001
0001
0000
,
0100
0100
0100
0000
0010
0010
0010
0000
,
1000
0100
0010
0001
,
1000
0010
0100
0001
,
1000
1000
1000
0000
0001
0001
0001
0000
,
0100
0100
0100
0000
0010
0010
0010
0000
,
1000
0100
0010
0001
,
1000
0010
0100
0001
,
1000
0000
0100
0000
0010
0100
0010
0000
,
0001
0000
0100
0000
0010
0100
0010
0000
,
1000
0000
0100
0000
0010
0010
0010
0000
,
0001
0000
0100
0000
0010
0010
0010
0000
,
1000
0000
0010
0000
0100
0010
0100
0000
,
0001
0000
0010
0000
0100
0010
0100
0000
,
1000
0000
0001
0000
0100
0100
0100
0000
,
0001
0000
1000
0000
0010
0010
0010
0010
;

//---------------dance-single - ----------------
#NOTES:
     dance-single:
     :
     Hard:
     8:
     0.441340,0.538629,0.145653,0.000000,0.295139,403.000000,384.000000,19.000000,0.000000,0.000000,0.000000,0.441340,0.538629,0.145653,0.000000,0.295139,403.000000,384.000000,19.000000,0.000000,0.000000,0.000000:
0000
0000
0000
0000
,
0000
0000
0000
0000
,
0000
0000
0000
0000
,
0000
0000
0000
0000
,
1000
0000
0000
1000
0100
0000
0100
0000
0010
0000
0000
0010
0001
0000
0001
0000
,
0100
0000
0000
0100
0010
0000
0010
0000
0000
0000
0000
0000
0000
0000
0000
0000
,
1000
0000
0000
1000
0010
0000
0010
0000
0100
0000
0000
0100
0001
0000
0001
0000
,
0010
0000
0000
0010
0000
0000
0100
0000
1001
0000
0000
0000
0000
0000
0000
0000
,
1000
0100
1000
0000
0001
0100
0001
0000
,
0100
0000
0100
0000
0100
0000
0001
0000
0010
0000
0010
0000
0000
0010
0000
0000
,
0001
0000
0000
1000
0000
0000
0100
0000
1000
0000
0000
0001
0000
0000
0100
0000
,
0001
0000
0000
1000
0000
0010
0000
1000
0000
1000
0000
0001
0000
0000
0010
0000
,
0001
0000
0010
0000
0000
1000
0000
0000
1000
0000
0010
0000
0001
0000
0000
0000
,
0001
0000
1000
0000
0100
0000
0000
0000
0100
0000
1000
0000
0000
0010
0000
0000
,
1000
0000
0000
0010
0000
0000
0100
0000
0001
0000
0000
0010
0000
0000
0100
0000
,
1000
0000
0000
0100
0000
1000
0000
0001
0000
0001
0000
0100
0000
0000
0001
0000
,
1000
0000
0000
0100
0010
0000
0010
0000
0001
0000
0001
0000
0100
0000
0100
0000
,
0010
0000
0100
0001
1000
0000
1000
0000
,
0001
0000
0000
0010
0100
0000
0100
0000
1000
0000
1000
0000
0010
0000
0010
0000
,
0100
0000
0010
1000
0001
0000
0001
0000
,
1000
0000
0000
0001
0100
0000
0001
0000
1000
0000
0010
0000
1000
0000
0001
0000
,
0010
0000
0001
0100
0010
0000
1000
0000
,
0001
0000
0000
0010
0001
0000
1000
0000
0001
0000
0100
0000
0001
0000
1000
0000
,
0010
0000
1000
0100
0010
0000
0100
0010
,
1001
0000
0000
0000
0000
0000
0000
0110
,
0110
0000
0000
0000
0000
0000
0000
1001
,
1001
0000
0000
1010
1010
0000
0000
0101
,
0101
0000
0000
0000
0001
0010
0100
1000
,
0001
1000
0100
0000
1000
0001
0100
0000
,
0001
0000
1000
0000
0100
0000
0000
0000
0100
0000
1000
0000
0000
0010
0000
0000
,
1000
0010
0001
0010
1000
0100
0001
0000
,
0001
0100
1000
0010
0001
0010
1000
0000
,
0001
0000
1000
0000
0000
0100
0000
0000
1000
0000
0001
0000
0100
0000
0000
0000
,
0001
0000
0010
0000
0100
0000
0000
0000
1000
0000
0100
0000
0000
0010
0000
0000
,
0001
0100
1000
0100
0001
0010
1000
0000
,
1000
0010
0001
0100
1000
0100
0001
0000
,
1000
0000
0001
0010
0100
0010
0001
0100
,
0010
0000
0100
0001
0010
0000
0100
0000
,
1000
0000
1000
0010
0100
0010
1000
0100
,
0010
0000
0100
1000
0010
0000
0100
0000
,
0001
0000
1000
0100
0001
0100
0010
0001
,
1000
0000
0001
0100
1000
0000
0100
0000
,
0010
0000
1000
0010
0001
0010
1000
0100
,
0010
0000
1000
0010
0001
0000
1000
0001
,
0101
0000
0001
0000
1000
0000
0001
1000
,
1100
1000
0001
1000
,
0011
0000
0000
0001
0000
0000
1000
0000
1010
0000
0000
1000
0000
0000
0001
0000
,
0110
0000
0000
0000
0000
0000
1000
0010
0100
0001
0010
0100
,
1000
0100
1000
0000
0001
0100
0001
0000
,
1000
0000
0100
0000
0100
0000
0000
0000
1000
0000
0010
0000
0000
0010
0000
0000
,
1000
0010
0100
0001
0010
0100
1000
0000
,
0001
0010
0100
1000
0010
0100
0001
0000
,
1000
0000
0010
0000
0000
1000
0000
0000
0001
0000
0010
0000
0001
0000
0000
0000
,
1000
0000
0100
0000
1000
0000
0000
0000
0001
0000
0010
0000
0000
0010
0000
0000
,
0001
0000
0000
0100
0000
0000
0001
0000
0000
0000
0000
1000
0000
0000
0100
0000
,
1001
0000
0000
1010
0000
0000
1001
0000
0100
0010
0000
0100
0000
0000
1001
0000
,
0001
0000
0000
0000
0000
0000
0000
0000
0000
0100
0000
0000
0001
0000
0000
0000
0000
0000
0001
0000
0000
0000
0000
0000
1000
0000
0000
0000
0100
0000
0000
0000
0010
0000
0000
0000
0001
0000
0000
0000
0100
0000
0000
0000
0010
0000
0000
0000
,
1000
0000
0000
0000
0000
0000
0000
0000
0000
0100
0000
0000
1000
0000
0000
0000
0000
0000
1000
0000
0000
0000
0000
0000
0001
0000
0000
0000
0010
0000
0000
0000
0100
0000
0000
0000
1000
0000
0000
0000
0010
0000
0000
0000
0100
0000
0000
0000
,
0001
0000
0000
0100
0000
0000
0001
0000
1000
0000
0000
0100
0000
0000
1000
0000
,
0001
0000
0000
0010
0000
0000
0001
0000
1000
0000
0000
0010
0000
0000
1000
0000
,
0001
0000
0000
0000
0000
0000
0000
0000
0000
0100
0000
0000
0010
0000
0000
0000
0000
0000
0010
0000
0000
0000
0000
0000
1000
0000
0000
0000
0100
0000
0000
0000
0010
0000
0000
0000
0001
0000
0000
0000
0100
0000
0000
0000
0010
0000
0000
0000
,
1000
0000
0000
0000
0000
0000
0000
0000
0000
0010
0000
0000
0100
0000
0000
0000
0000
0000
0100
0000
0000
0000
0000
0000
0001
0000
0000
0000
0010
0000
0000
0000
0100
0000
0000
0000
1000
0000
0000
0000
0010
0000
0000
0000
0100
0000
0000
0000
,
0001
0000
1000
0000
0100
1000
0000
0001
0000
0100
0000
0001
1000
0000
1000
0000
,
0001
0000
1000
0010
0000
1000
0000
0001
0000
0010
0000
0001
0100
0000
0010
0000
;

//---------------dance-single - ----------------
#NOTES:
     dance-single:
     :
     Challenge:
     10:
     0.586993,0.612078,0.000000,0.000000,0.831755,536.000000,536.000000,0.000000,0.000000,0.000000,0.000000,0.586993,0.612078,0.000000,0.000000,0.831755,536.000000,536.000000,0.000000,0.000000,0.000000,0.000000:
// measure 0
0000
0000
0000
0000
,  // measure 1
0000
0000
0000
0000
,  // measure 2
0000
0000
0000
0000
,  // measure 3
0000
0000
0000
0000
,  // measure 4
1000
0001
0000
1000
0001
0000
0100
0000
0001
1000
0000
0001
1000
0000
0100
0000
,  // measure 5
1000
0001
0000
1000
0001
0000
0010
0000
0000
0000
0000
0000
0000
0000
0000
0000
,  // measure 6
0001
1000
0000
0001
1000
0000
0010
0000
1000
0001
0000
1000
0001
0000
0010
0000
,  // measure 7
0001
0000
0000
0001
0000
0000
0100
0000
0010
0000
0000
0000
0000
0000
0000
0000
,  // measure 8
1000
0000
1000
0100
1000
0000
0000
0000
0001
0000
0001
0100
0001
0000
0000
0000
,  // measure 9
0100
0001
1000
0000
0100
0000
0100
0000
1000
0001
0010
0000
0000
0010
0000
0000
,  // measure 10
0001
0000
0010
0000
0100
0010
0000
0001
0000
0100
0000
0010
0100
0000
0001
0000
,  // measure 11
1000
0000
0100
0010
0000
0100
0000
1000
0000
0010
0000
0100
0010
0000
1000
0000
,  // measure 12
0001
0000
1000
0100
0000
1000
0000
0000
1000
0000
0001
0100
0001
0000
0000
0000
,  // measure 13
1000
0001
0100
0000
0100
0000
0100
0000
0001
1000
0010
0000
0000
0010
0000
0000
,  // measure 14
1000
0000
0100
0000
0010
0001
0000
0100
0000
0010
0000
0001
0010
0000
1000
0000
,  // measure 15
0001
0000
0010
0100
0000
1000
0000
0010
0000
0001
0000
0010
0100
0000
0001
0000
,  // measure 16
1000
0000
0000
0100
0010
0000
0100
1000
0001
0000
0100
0010
0100
0000
0001
0000
,  // measure 17
1000
0000
0100
1000
0010
0000
0100
0000
,  // measure 18
0001
0000
0000
0000
0010
0100
0010
0000
0001
0000
1000
0000
0010
0000
0100
0010
,  // measure 19
0100
0000
0001
1000
0100
0000
1000
0000
,  // measure 20
0001
0000
0000
0000
1000
0010
1000
0000
0010
0000
0100
0000
0001
0000
0100
0000
,  // measure 21
0001
0000
1000
0100
0010
0000
0100
0000
,  // measure 22
1000
0000
0000
0001
0010
0000
0001
0000
0010
0000
0100
0000
1000
0000
0100
1000
,  // measure 23
0010
0000
0000
0000
0000
0000
0100
0000
0000
0001
0000
0000
1000
0000
0000
0000
0000
0000
0001
0000
0010
0000
0100
0000
,  // measure 24
1000
0000
0000
0010
0000
0000
0000
0000
0000
0100
0000
0000
0001
0000
0000
0000
0010
0000
0000
0000
0100
0000
0000
0000
1000
0000
0000
0000
0000
0000
0000
0000
0000
0000
0000
0000
1000
0000
0000
0000
0100
0000
0000
0000
0010
0000
0000
0000
,  // measure 25
0001
0000
0000
0100
0000
0000
0000
0000
0000
0010
0000
0000
1000
0000
0000
0000
0100
0000
0000
0000
0010
0000
0000
0000
0001
0000
0000
0000
0000
0000
0000
0000
0000
0000
0000
0000
1000
0000
0000
0000
0001
0000
0000
0000
0100
0000
0000
0000
,  // measure 26
0001
0000
0000
1000
0000
0000
0000
0000
0000
1000
0000
0000
0001
0000
0000
0000
0010
0000
0000
0000
0001
0000
0000
0000
1000
0000
0000
0001
0000
0000
0000
0000
0000
0001
0000
0000
1000
0000
0000
0000
0100
0000
0000
0000
1000
0000
0000
0000
,  // measure 27
0001
0000
0000
0100
0000
0000
0000
0000
0000
0001
0000
0000
1000
0000
0000
0000
0010
0000
0000
0000
1000
0000
0000
0000
0001
0000
0000
0010
0000
0000
0000
0000
0000
0010
0000
0000
0100
0000
0000
0000
0000
0000
1000
0000
0000
0000
0000
0000
,  // measure 28
0001
0000
1000
0100
1000
0000
0010
0000
0100
0000
0001
0010
0001
0000
0100
0000
,  // measure 29
0010
1000
0100
0000
0010
0000
0100
0000
0010
0001
0100
0000
0100
0010
0000
0000
,  // measure 30
1000
0000
0100
0000
0001
0100
0000
1000
0000
0010
0000
0001
0010
0000
1000
0000
,  // measure 31
0001
0000
0010
1000
0000
0010
0000
0001
0000
0100
0000
1000
0100
0000
0001
0000
,  // measure 32
1000
0000
0100
0010
0100
1000
0000
0000
0001
0000
0100
0010
0100
0000
0001
0000
,  // measure 33
1000
0001
0100
0000
0001
0000
1000
0000
0001
1000
0010
0000
1000
0001
0000
0000
,  // measure 34
1000
0000
0010
0000
0100
0001
0000
1000
0000
0100
0000
0010
0001
0000
1000
0000
,  // measure 35
0001
0000
0010
0100
0000
1000
0000
0010
0000
0100
0000
0001
1000
0000
0001
0000
,  // measure 36
1000
0000
0000
1000
0100
0000
0010
0000
0001
0000
0000
0001
0100
0000
0010
0000
,  // measure 37
1000
0000
0000
1000
0010
0000
0100
0000
0001
0000
0000
0001
0010
0000
0100
0000
,  // measure 38
1000
0000
0000
1000
0001
0000
0100
0000
0001
0000
0000
0001
1000
0000
0100
0000
,  // measure 39
1000
0000
0000
1000
0001
0000
0010
0000
0001
0000
0000
0001
1000
0000
0010
0000
,  // measure 40
1000
0000
0000
0001
0100
0000
0100
0000
0001
0000
0000
1000
0100
0000
0100
0000
,  // measure 41
1000
0000
0000
0001
0010
0000
0010
0000
0001
0000
0000
1000
0010
0000
0010
0000
,  // measure 42
1000
0000
0000
0010
0100
0000
0001
0000
1000
0000
0000
0100
0010
0000
0001
0000
,  // measure 43
1000
0000
0000
0000
0000
0000
0000
0000
0000
0001
0000
0000
0100
0000
0000
0000
0000
0000
0010
0000
0000
0000
0000
0000
1000
0000
0000
0010
0000
0000
0000
0000
0000
0010
0000
0000
1000
0000
0000
0000
0100
0000
0000
0000
0010
0000
0000
0000
,  // measure 44
0001
0000
0000
1000
0000
0000
0000
0000
0000
0001
0000
0000
1000
0000
0000
0000
0100
0000
0000
0000
0010
0000
0000
0000
0001
0000
0000
0000
0000
0000
0000
0000
0000
0000
0000
0000
0001
0000
0000
0000
0010
0000
0000
0000
0100
0000
0000
0000
,  // measure 45
1000
0000
0000
0001
0000
0000
0000
0000
0000
1000
0000
0000
0001
0000
0000
0000
0010
0000
0000
0000
0100
0000
0000
0000
1000
0000
0000
0000
0000
0000
0000
0000
0000
0000
0000
0000
1000
0000
0000
0000
0010
0000
0000
0000
0100
0000
0000
0000
,  // measure 46
0001
0000
0000
1000
0000
0000
0000
0000
0000
1000
0000
0000
0001
0000
0000
0000
0100
0000
0000
0000
0010
0000
0000
0000
1000
0000
0000
0001
0000
0000
0000
0000
0000
0001
0000
0000
1000
0000
0000
0000
0010
0000
0000
0000
0100
0000
0000
0000
,  // measure 47
0001
0000
0000
0010
0000
0000
0000
0000
0000
0100
0000
0000
1000
0000
0000
0000
0010
0000
0000
0000
0100
0000
0000
0000
0001
0000
0000
0000
0001
0000
0000
0000
0001
0000
0000
0000
1000
0000
0000
0000
1000
0000
0000
0000
1000
0000
0000
0000
,  // measure 48
0100
0000
1000
0010
1000
0000
0100
0000
1000
0000
0001
0100
0001
0000
0010
0000
,  // measure 49
0001
0100
0010
0000
0100
0000
0100
0000
0001
1000
0010
0000
1000
0001
0000
0000
,  // measure 50
1000
0000
0100
0000
0010
0001
0000
0100
0000
0001
0000
0010
0100
0000
1000
0000
,  // measure 51
0001
0000
0100
0010
0000
1000
0000
0100
0000
0010
0000
0100
1000
0000
0001
0000
,  // measure 52
1000
0000
0001
1000
0100
1000
0000
0000
1000
0000
0001
0100
0001
0000
1000
0000
,  // measure 53
0001
1000
0010
0000
0100
0000
0100
0000
0001
1000
0100
0000
0100
0010
0000
0000
,  // measure 54
0001
0000
0010
0000
0100
1000
0000
0010
0000
0100
0000
0001
1000
0000
0001
0000
,  // measure 55
1000
0000
0000
0001
0000
0000
0100
0000
0010
0100
0000
0100
0000
0000
0001
0000
,  // measure 56
1000
0000
0000
0000
0000
0000
0000
0000
0000
0100
0000
0000
1000
0000
0000
0000
0000
0000
1000
0000
0000
0000
0000
0000
0001
0000
0000
0000
0010
0000
0000
0000
0001
0000
0000
0000
0010
0000
0000
0000
0001
0000
0000
0000
0010
0000
0000
0000
,  // measure 57
0001
0000
0000
0000
0000
0000
0000
0000
0000
0100
0000
0000
0001
0000
0000
0000
0000
0000
0001
0000
0000
0000
0000
0000
1000
0000
0000
0000
0010
0000
0000
0000
1000
0000
0000
0000
0010
0000
0000
0000
1000
0000
0000
0000
0010
0000
0000
0000
,  // measure 58
1000
0000
0100
0000
0001
0100
0000
1000
0000
0010
0000
0001
0010
0000
1000
0000
,  // measure 59
0001
0000
0010
1000
0000
0010
0000
0001
0000
0100
0000
1000
0100
0000
0001
0000
,  // measure 60
1000
0000
0000
0000
0000
0000
0000
0000
0000
0010
0000
0000
0100
0000
0000
0000
0000
0000
0001
0000
0000
0000
0000
0000
1000
0000
0000
0000
0001
0000
0000
0000
1000
0000
0000
0000
0001
0000
0000
0000
1000
0000
0000
0000
0001
0000
0000
0000
,  // measure 61
1000
0000
0000
0000
0000
0000
0000
0000
0000
0100
0000
0000
0010
0000
0000
0000
0000
0000
0001
0000
0000
0000
0000
0000
1000
0000
0000
0000
0001
0000
0000
0000
1000
0000
0000
0000
0001
0000
0000
0000
1000
0000
0000
0000
0001
0000
0000
0000
,  // measure 62
1000
0000
0010
0000
0100
0001
0000
0010
0000
0100
0000
1000
0001
0000
1000
0000
,  // measure 63
0001
0000
0010
0100
0000
1000
0000
0010
0000
0100
0000
0001
1000
0000
0001
0000
;
