#TITLE:HAVOX;
#SUBTITLE:;
#ARTIST:BlackY vs. Yooh;
#TITLETRANSLIT:;
#SUBTITLETRANSLIT:;
#ARTISTTRANSLIT:;
#GENRE:;
#CREDIT:;
#BANNER:Havox.png;
#BACKGROUND:Havox - bg.png;
#LYRICSPATH:;
#CDTITLE:cd-rikame.png;
#MUSIC:HAVOX.ogg;
#OFFSET:-1.234;
#SAMPLESTART:69.801;
#SAMPLELENGTH:9.140;
#SELECTABLE:YES;
#DISPLAYBPM:210.000;
#BPMS:0.000=210.000,236.000=1680.000,244.000=140.000,246.000=210.000;
#STOPS:;
#BGCHANGES:;
#KEYSOUNDS:;

//---------------dance-single - rikame----------------
#NOTES:
     dance-single:
     rikame:
     Challenge:
     13:
     0.981,1.000,0.749,0.363,0.930:
0000
0000
0000
0000
,
0000
0000
0000
0000
,
0000
0000
0000
0000
,
0000
0000
0000
0000
,
0000
0000
0000
0000
,
0000
0000
0000
0000
,
0000
0000
0000
0000
,
0000
0000
0000
0000
,
1001
0000
1000
0000
0010
0100
0010
1000
,
0001
0000
0001
0010
0100
0000
0100
1000
,
0002
0000
0103
0000
0010
1000
0001
1000
,
0100
0000
0000
0000
1000
0000
0001
0000
0010
0000
0010
0100
1000
0000
0001
0000
,
0200
0000
0310
0000
0100
0001
0010
0001
,
1000
0000
1000
0010
0100
0000
0100
0001
,
1000
0000
0100
1000
0100
0000
0010
0000
0001
0010
0001
1000
0001
1000
0010
0100
,
0002
1003
1100
0000
0100
0010
0100
1000
,
0001
0000
0101
0100
0010
0000
1100
0100
,
2000
3001
0101
0000
0100
0001
0100
0010
,
1000
0000
0000
0000
1010
0000
1000
0000
0001
0000
0000
0000
0011
0000
0010
0100
,
2000
3001
0101
0000
0100
0010
0100
0001
,
1000
0000
0011
0010
0100
0000
1010
1000
,
0011
0000
0001
0010
0100
0000
0100
1000
0001
0100
0001
0100
0010
0000
0010
1000
,
0001
0000
0010
0000
0100
0000
0001
0000
0100
0000
1000
0001
0100
0001
0100
0010
,
1000
0001
0200
0000
0320
0000
1030
0100
,
0000
0000
0100
0000
1000
0000
0000
0000
0202
00M0
M000
00M0
M303
0000
0M00
0000
,
0001
0100
0010
0000
2100
0000
3001
0100
,
000M
0100
0010
0M00
4100
0000
0000
0000
,
3001
0010
0100
0000
0012
0000
1003
0010
,
0000
0000
0010
0000
0100
0000
0000
0000
0022
0M00
M000
0M00
M033
0000
000M
0000
,
1000
0010
0100
0000
1020
0000
0130
0001
,
0M00
0001
1000
000M
1001
0000
0110
0000
,
1000
0000
0001
0000
0101
0000
1000
0100
0010
0000
0001
0000
0101
0000
2000
0000
,
0000
0000
0000
0000
0000
0000
3100
0000
0000
0010
0000
0000
0001
0000
0000
0000
0000
0000
0100
0000
0000
0000
0000
0000
0010
0000
0000
0000
0000
0000
0010
0000
0000
0000
0000
0000
1000
0000
0000
0000
0001
0000
0000
0000
0010
0000
0000
0000
,
0100
0000
1000
0000
1010
0000
0001
0010
0100
0000
1000
0000
0010
0100
0001
0100
,
0001
0000
0000
1000
0000
0000
1010
0000
0000
0001
0000
0000
0010
0000
0100
0000
0010
0000
0001
0000
0100
0000
0010
0000
,
1000
0000
0001
0000
0011
0000
0010
0000
0100
1000
0001
1000
0001
0000
0100
0000
,
0101
0000
0010
0000
1100
0000
0001
0000
1000
0010
1000
0010
0100
0000
0001
0000
,
1000
0100
0010
0100
1000
0001
0100
0010
0100
0001
1000
0010
0100
0010
1000
0001
,
0010
0100
0010
0001
1000
0001
0100
0010
2000
0000
0000
0000
3002
0000
0000
0000
,
0103
0000
0040
0000
,
0000
0000
0000
0000
0000
0000
1030
0001
,
1000
0000
0000
0000
0000
0000
1000
0000
0000
0100
0000
0000
0010
0000
0000
0000
0001
0000
0000
0000
0100
0000
0000
0000
0010
0000
0000
1000
0000
0000
0001
0000
0000
1000
0000
0000
0100
0000
0000
0010
0000
0000
0100
0000
0000
1000
0000
0000
,
0001
0100
0010
0100
0001
0010
0001
1000
0010
1000
0100
0010
0001
1000
0100
1000
,
0001
0100
0010
0100
0001
0100
0010
0100
0001
1000
0010
0100
0010
1000
0010
0100
,
0001
1000
0100
1000
0010
0100
0001
0010
0100
1000
0001
1000
,
0010
0000
1000
0001
1000
0100
0010
0000
0001
0100
0010
1000
0001
1000
0100
0010
,
0001
1000
0001
0000
0100
0000
0100
0000
0001
0010
0001
0100
0001
1000
0100
1000
,
0020
0000
0000
0000
1030
0000
0001
0010
0001
1000
0010
1000
0100
0010
0001
1000
,
0010
1100
0101
1010
,
1200
0000
0000
0310
0000
0000
0001
0000
0201
0000
0000
0310
0000
0000
1000
0000
,
0102
0000
0000
0013
0000
0000
0100
0000
0000
0000
0100
0000
1000
0000
0001
0000
,
0101
0000
0000
0000
1010
0000
0000
0000
0001
0100
0001
1000
0010
1000
0100
1000
,
0001
0010
0001
0100
0010
0000
1000
0000
0100
0000
1000
0000
0001
0010
0100
1000
,
0001
0000
0100
0000
0110
0000
0010
0000
1000
0000
0100
0000
0110
0000
0010
0001
,
1000
0000
0010
0000
0110
0000
0100
0000
0001
0000
0010
0000
0110
0000
0100
1000
,
0002
0000
0013
0000
0200
0000
0310
0000
0002
0000
0103
0000
0020
0000
1030
0001
,
2000
0000
3100
0000
0020
0000
0031
0000
0200
0000
0310
0000
1000
0001
1000
0000
,
0001
0010
0001
0100
0001
0100
0010
1000
0001
0100
0001
0010
0001
0010
0100
1000
,
0001
0100
0001
0100
0010
1000
0010
1000
0001
0010
0001
0010
0100
1000
0100
1000
,
0001
0000
0000
0000
,
0000
0000
0000
0000
,
0000
0000
0M00
00M0
1000
0001
1010
0000
,
1100
1010
0101
0011
,
0101
0000
0000
0000
0000
0000
0100
0000
0010
0000
1000
0000
0200
0000
0000
0300
0000
0000
0011
0000
0000
0000
0000
0000
,
1010
0000
0011
0000
2100
3000
0101
0000
,
0100
0000
0000
0000
0010
0000
0000
0000
1000
0000
0000
0000
2200
0000
0000
3300
0000
0000
0101
0000
0000
0000
0000
0000
,
1100
0000
0101
0000
0012
0003
1010
0000
,
0011
0000
0000
0000
0000
0000
1010
0000
0000
0000
0000
0000
2200
0000
0000
3300
0000
0000
0100
0000
0000
0000
0100
0000
,
0010
0000
0000
0001
0000
0001
0100
0000
0000
0010
0000
0010
,
1000
0000
0000
0000
0100
0000
0000
0000
0010
0000
0000
0000
0102
0000
0000
0003
0000
0000
1010
0000
0000
0000
0000
0000
,
0011
1100
0011
0101
,
1010
0000
0000
0000
0000
0000
1000
0000
0000
0000
1000
0000
0200
0000
0000
0300
0000
0000
0011
0000
0000
0000
0001
0000
,
0100
1010
1100
0011
,
0001
1000
0001
0100
0010
1000
0001
0010
0001
1000
0010
1000
,
0001
0100
0001
1000
0100
1000
0010
0100
0001
0010
0100
1000
,
0001
0100
0010
1000
0100
0010
0001
0000
0000
0101
0000
0100
,
0010
0000
0010
0000
1000
0000
0001
0100
0001
0010
0100
1000
,
0001
0100
0001
0100
0010
1000
0002
0003
0000
0011
0000
0000
,
0110
1100
1001
0101
,
0110
0000
0000
0000
0000
0000
0010
0000
0000
0010
0000
0000
2000
0000
0000
3000
0000
0000
1100
0000
0000
0000
0100
0000
,
0010
0001
1000
0001
0100
0010
1000
0000
0000
1100
0000
0000
,
0011
0000
0000
0000
0000
0000
0101
0000
0000
0000
0100
0000
0020
0000
0000
0030
0000
0000
1010
0000
0000
0000
0000
0000
,
1100
0110
0011
0101
,
0110
0000
0000
0000
0010
0000
1000
0000
0100
0000
0010
0000
0002
0000
0000
0003
0000
0000
1100
0000
0000
0000
0000
0000
,
1000
0000
0010
0000
0100
0000
0001
0000
0010
0000
0100
0000
1000
0000
0000
0001
0000
0000
0100
0000
0000
0010
0000
0000
,
0100
0000
0001
0000
1000
0000
0100
0000
0000
0110
0000
0000
,
0011
0000
0000
0101
0000
0000
0110
0000
0000
0010
0000
0010
,
1000
0000
0000
0100
0010
0001
0100
0000
0000
1010
0000
0010
,
0100
0101
0010
1100
,
1000
0010
0100
0001
0010
0100
1000
0001
0010
0001
0100
0001
,
1000
0100
1000
0010
1000
0001
0010
0100
1000
0100
0010
0001
,
1000
0010
0100
0001
0100
0010
1000
0000
0000
0100
0000
0000
,
0010
0000
0000
0001
0000
0000
0100
0000
0000
0010
1000
0100
,
0040
0000
0000
0000
0000
0000
0000
0000
0000
0000
0030
0000
2002
0000
0000
3003
0000
0000
0110
0000
0000
0000
0000
0000
,
1001
0000
0000
0001
0010
0100
1000
0000
0001
0000
0100
0000
,
0010
0000
0010
1000
0000
1000
0100
0000
0100
0010
0001
0010
,
0001
0000
1000
0000
0010
0000
0100
0000
0100
0001
0000
0001
,
0010
0000
0010
0100
1000
0100
1000
0000
0010
0000
0100
0000
,
0001
0100
0010
0100
0010
1000
0001
0010
0100
0010
0100
1000
,
0001
0000
0000
0000
0000
0000
0000
0000
0100
0000
0000
0000
0000
0000
0000
0000
0010
0000
0000
0000
0000
0000
0000
0000
20M0
0000
0000
0000
0000
0000
0000
0000
0000
0000
0000
0000
3001
0000
0000
0010
0000
0000
0001
0000
0000
0010
0000
0000
,
0001
0100
0010
0100
0001
1000
0001
0100
,
0M20
0000
0000
0000
1030
0100
1000
0100
1000
0000
0010
0000
0100
0000
0001
0000
,
1000
0000
0001
0000
0010
0000
0001
0000
020M
0000
0000
0000
0310
1000
0010
1000
,
0010
1000
0100
0010
0001
0010
0100
1000
,
0010
0010
0400
0000
0302
0000
0000
0000
,
0003
0000
0000
0000
;

//---------------dance-single - rikame----------------
#NOTES:
     dance-single:
     rikame:
     Hard:
     10:
     0.909,1.000,0.718,0.386,0.679:
0000
0000
0000
0000
,
0000
0000
0000
0000
,
0000
0000
0000
0000
,
0000
0000
0000
0000
,
0000
0000
0000
0000
,
0000
0000
0000
0000
,
0000
0000
0000
0000
,
0000
0000
0000
0000
,
1001
0000
1000
0000
0100
0010
0100
1000
,
0001
0000
0001
0100
0010
0000
0010
1000
,
0002
0000
0013
0000
0100
1000
0001
1000
,
0010
0000
0000
0000
1000
0000
0001
0000
0100
0000
0100
0010
1000
0000
0001
0000
,
0020
0000
0130
0000
0010
0001
0100
0001
,
1000
0000
1000
0100
0010
0000
0010
0001
,
1000
0000
0010
1000
0010
0000
0100
0000
0001
0100
0001
0000
1000
0100
1000
0000
,
0200
0310
0011
0000
1000
0010
0100
0010
,
1000
0000
0011
0010
0100
0000
1010
0010
,
2000
3001
0011
0000
0010
0001
0010
0100
,
1000
0000
1100
1000
0001
0000
0101
0100
,
0020
1030
1001
0000
0001
0100
0001
1000
,
0100
0000
0110
0010
0001
0000
1010
1000
,
0001
0000
0001
0100
0010
0000
0010
1000
0001
0000
0001
0010
0100
0000
0100
1000
,
0001
0000
0100
0000
0010
0000
0001
0000
0010
0000
0100
0000
0001
0000
1000
0001
,
1000
0100
0020
0000
0230
0000
1300
0010
,
0000
0000
0010
0000
1000
0000
0000
0000
0022
0M00
M000
0M00
M033
0000
00M0
0000
,
0001
0010
0100
0000
2010
0000
3001
0010
,
000M
0010
0100
00M0
4100
0000
0000
0000
,
3001
0100
0010
0000
0102
0000
1003
0100
,
0000
0000
0100
0000
0010
0000
0000
0000
0202
00M0
M000
00M0
M303
0000
000M
0000
,
1000
0100
0010
0000
1200
0000
0310
0001
,
00M0
0001
1000
0M00
1001
0000
0110
0000
,
1000
0000
0001
0000
0011
0000
1000
0010
1000
0000
0001
0000
0010
0000
0200
0000
,
0000
0000
0000
0000
0000
0000
1300
0000
0000
0001
0000
0000
1000
0000
0000
0000
0000
0000
0010
0000
0000
0000
0000
0000
0100
0000
0000
0000
0000
0000
0100
0000
0000
0000
0000
0000
0001
0000
0000
0000
1000
0000
0000
0000
0001
0000
0000
0000
,
0010
0000
0100
0000
1100
0000
1000
0001
1000
0000
0010
0000
1000
0001
1000
0001
,
0010
0000
0000
0100
0000
0000
1100
0000
0000
1000
0000
0000
0001
0000
0100
0000
0001
0000
0010
0000
0100
0000
1000
0000
,
0001
0000
1000
0000
1010
0000
0010
0000
0100
0001
1000
0001
1000
0000
0100
0000
,
0010
0000
0001
0000
0100
0000
0001
0000
1000
0100
1000
0100
0010
0000
0001
0000
,
1000
0010
1000
0100
0010
0001
0100
0001
,
1000
0100
1000
0010
0002
0000
0023
0000
,
0130
0000
0004
0000
,
0000
0000
0000
0000
0000
0000
1003
0100
,
0010
1000
0010
0001
0100
0010
0001
0010
,
1000
0100
0010
1000
0010
0001
0100
0010
,
0001
0010
1000
0001
0010
1000
0001
0100
,
1000
0001
0100
0001
1000
0100
1000
0010
0100
0001
0010
0100
,
1000
0010
1000
1000
0001
0100
0001
0010
,
0100
0100
1000
0010
1000
1000
0001
0010
,
0200
0000
1300
0010
0001
1000
0100
0001
,
1000
1100
0110
0011
,
1020
0000
0000
0130
0000
0000
0001
0000
0021
0000
0000
0130
0000
0000
1000
0000
,
0012
0000
0000
0103
0000
0000
0010
0000
0000
0000
0010
0000
1000
0000
0001
0000
,
0011
0000
1100
0000
0001
1000
0010
1000
,
0100
0010
0001
1000
,
0001
0100
0110
0010
1000
0100
0110
0100
,
1000
0010
0110
0100
0001
0010
0110
0010
,
0002
0000
0103
0000
0020
0000
0130
0000
0002
0000
0013
0000
0200
0000
1300
0001
,
2000
0000
3010
0000
0200
0000
0301
0000
0020
0000
0130
0000
1000
0001
1000
0000
,
0001
0010
0001
0000
0010
0100
0010
0000
0100
1000
0100
0000
1000
0001
1000
0000
,
0010
0100
0010
0000
1000
0100
1000
0000
0001
0100
0001
0000
1000
0001
1000
0000
,
0M00
0000
0000
0000
,
0000
0000
0000
0000
,
0000
0000
0000
0000
0020
0000
0000
0000
0230
0000
0000
0000
13M0
0000
0000
0001
0000
0000
1100
0000
0000
0000
0000
0000
,
1010
1100
0011
0101
,
0011
0000
0000
0000
0000
0000
0010
0000
0100
0000
1000
0000
0020
0000
0000
0030
0000
0000
0101
0000
0000
0000
0000
0000
,
1100
0000
0101
0000
2010
3000
0011
0000
,
0010
0000
0000
0000
0100
0000
0000
0000
1000
0000
0000
0000
2020
0000
0000
3030
0000
0000
0011
0000
0000
0000
0000
0000
,
1010
0000
0011
0000
0102
0003
1100
0000
,
0101
0000
0000
0000
0000
0000
1100
0000
0000
0000
0000
0000
2020
0000
0000
3030
0000
0000
0010
0000
0000
0000
0010
0000
,
0100
0000
0000
0001
0000
0001
0010
0000
0000
0100
0000
0100
,
1000
0000
0000
0000
0010
0000
0000
0000
0100
0000
0000
0000
0012
0000
0000
0003
0000
0000
1100
0000
0000
0000
0000
0000
,
0101
1010
0101
0011
,
1100
0000
0000
0000
0000
0000
1000
0000
0000
0000
1000
0000
0020
0000
0000
0030
0000
0000
0101
0000
0000
0000
0001
0000
,
0010
1100
1010
0101
,
0001
1000
0001
0010
0100
1000
0001
0100
0001
1000
0100
1000
,
0001
0010
0001
1000
0010
1000
0100
0010
0001
0100
0010
1000
,
0001
0010
0100
1000
0010
0100
0001
0000
0000
0011
0000
0010
,
0100
0000
0100
0000
1000
0000
0001
0010
0001
0100
0010
1000
,
0001
0010
0001
0010
0100
1000
0002
0003
0000
0101
0000
0000
,
0110
1010
1001
0011
,
0110
0000
0000
0000
0000
0000
0100
0000
0000
0100
0000
0000
2000
0000
0000
3000
0000
0000
1010
0000
0000
0000
0010
0000
,
0100
0001
1000
0001
0010
0100
1000
0000
0000
1010
0000
0000
,
0101
0000
0000
0000
0000
0000
0011
0000
0000
0000
0010
0000
0200
0000
0000
0300
0000
0000
1100
0000
0000
0000
0000
0000
,
1010
0110
0101
0011
,
0110
0000
0000
0000
0100
0000
1000
0000
0010
0000
0100
0000
0002
0000
0000
0003
0000
0000
1010
0000
0000
0000
0000
0000
,
1000
0000
0100
0000
0010
0000
0001
0000
0100
0000
0010
0000
1000
0000
0000
0001
0000
0000
0010
0000
0000
0100
0000
0000
,
0010
0000
0001
0000
1000
0000
0010
0000
0000
0110
0000
0000
,
0101
0000
0000
0011
0000
0000
0110
0000
0000
0100
0000
0100
,
1000
0000
0000
0010
0100
0001
0010
0000
0000
1100
0000
0100
,
0010
0011
0100
1010
,
1000
0100
0010
0001
0100
0010
1000
0001
0100
0001
0010
0001
,
1000
0010
1000
0100
1000
0001
0100
0010
1000
0010
0100
0001
,
1000
0000
0000
0000
0100
0000
0000
0000
0010
0000
0000
0000
0001
0000
0000
0000
0010
0000
0000
0000
0100
0000
0000
0000
1000
0000
0000
0010
0000
0000
1000
0000
0000
0100
0000
0000
1000
0000
0000
0100
0000
0000
0010
0000
0000
0001
0000
0000
,
0100
0000
0000
0001
0000
0000
1000
0000
0000
0001
0000
0000
1000
0000
0000
0100
0000
0000
1000
0000
0000
0010
0000
0000
0200
0000
0000
0000
0000
0000
0000
0000
0000
0000
0000
0000
0310
0000
0000
0000
1000
0000
0000
0000
0100
0000
0000
0000
,
0040
0000
0000
0000
0000
0000
0000
0000
0000
0000
0030
0000
2002
0000
0000
3003
0000
0000
0110
0000
0000
0000
0000
0000
,
1001
0000
0000
0001
0100
0010
1000
0000
0001
0000
0010
0000
,
0100
0000
0100
1000
0000
1000
0010
0000
0010
0100
0001
0100
,
0001
0000
1000
0000
0100
0000
0010
0000
0010
0001
0000
0001
,
0100
0000
0100
0010
1000
0010
1000
0000
0100
0000
0010
0000
,
0001
0010
0100
0010
0100
1000
0001
0100
0010
0100
0010
1000
,
0001
0000
0000
0000
0000
0000
0000
0000
0010
0000
0000
0000
0000
0000
0000
0000
0100
0000
0000
0000
0000
0000
0000
0000
2M00
0000
0000
0000
0000
0000
0000
0000
0000
0000
0000
0000
3001
0000
0000
0100
0000
0000
0010
0000
0000
1000
0000
0000
,
0001
0010
0100
0010
0001
1000
0001
0010
,
02M0
0000
0000
0000
1300
0010
0100
0001
0010
0000
0100
0000
1000
0000
0010
0000
,
1000
0000
0001
0000
0100
0000
0001
0000
002M
0000
0000
0000
0130
1000
0001
0010
,
0100
1000
0100
0010
0001
0100
0010
1000
,
0100
0100
0040
0000
0032
0000
0003
0000
;

//---------------dance-single - rikame----------------
#NOTES:
     dance-single:
     rikame:
     Beginner:
     1:
     0.104,0.161,0.085,0.000,0.000:
0000
0000
0000
0000
,
0000
0000
0000
0000
,
0000
0000
0000
0000
,
0000
0000
0000
0000
,
0000
0000
0000
0000
,
0000
0000
0000
0000
,
0010
0000
0000
0000
,
0000
0000
0000
0000
,
1000
0000
0000
0000
,
0000
0000
0000
0000
,
1000
0000
0000
0000
,
0000
0000
0000
0000
,
1000
0000
0000
0000
,
0000
0000
0000
0000
,
0001
0000
0000
0000
,
0100
0000
0000
0000
,
0000
0000
0000
0000
,
0010
0000
0000
0000
,
0000
0000
0000
0000
,
1000
0000
0000
0000
,
0000
0000
0000
0000
,
0001
0000
0000
0000
,
0001
0000
0000
0000
,
1000
0000
0000
0000
,
0000
0000
0010
0000
,
0010
0000
0000
0000
,
0100
0000
0100
0000
,
0100
0000
0000
0000
,
0000
0000
0001
0000
,
0001
0000
0000
0000
,
0000
0000
1000
1000
,
1000
0000
0000
0000
,
0010
0000
0000
0000
,
0100
0000
0000
0000
,
0001
0000
0000
0000
,
0010
0000
0000
0000
,
0001
0000
0000
0000
,
1000
0000
0000
0000
,
0000
0000
0000
0000
,
0010
0000
0000
0000
,
0000
0000
0000
0000
,
0100
0000
0000
0000
,
0100
0000
0000
0000
,
0001
0000
0000
0000
,
0001
0000
0000
0000
,
1000
0000
0000
0000
,
1000
0000
0000
0000
,
0010
0000
0000
0000
,
0100
0000
0000
0000
,
0001
0000
0000
0000
,
1000
0000
0000
0000
,
0100
0000
0000
0000
,
0000
0000
0000
0000
,
0010
0000
0000
0000
,
0010
0000
0000
0000
,
0010
0000
0000
0000
,
0010
0000
0000
0000
,
0010
0000
0000
0000
,
0010
0000
0000
0000
,
0000
0000
0000
0000
,
0000
0000
0000
0000
,
0000
0000
1001
0000
,
0000
0000
0000
0000
,
0000
0000
0110
0000
,
0000
0000
0000
0000
,
0000
0000
1001
0000
,
0000
0000
0000
0000
,
0000
0000
0110
0000
,
0000
0000
0000
0000
,
0000
0000
1010
0000
,
0000
0000
0000
0000
,
0000
0000
0101
0000
,
0000
0000
0011
0000
,
0000
0000
1000
0000
,
0000
0000
1000
0000
,
0000
0000
0001
0000
,
0001
0000
0001
0000
,
0000
0000
1000
0000
,
0000
0000
0010
0000
,
0000
0000
0100
0000
,
0000
0000
0001
0000
,
0000
0000
0010
0000
,
0000
0000
0100
0000
,
0000
0000
1000
0000
,
0000
0000
0000
0000
,
0000
0000
0001
0000
,
0000
0000
0100
0000
,
0000
0000
0100
0000
,
0000
0000
0010
0000
,
0000
0000
1000
0000
,
1000
0000
0001
0000
,
0001
0000
1000
0000
,
1000
0000
0001
0000
,
0000
0000
0110
0000
,
0000
0000
0000
0000
,
1001
0000
0000
0000
,
0000
0000
0110
0000
,
0000
0000
0000
0000
,
1001
0000
0000
0000
,
0000
0000
1000
0000
,
0000
0000
0000
0000
,
0100
0000
0000
0000
,
0000
0000
0010
0000
,
0000
0000
0000
0000
,
0000
0000
0001
0000
;

//---------------dance-single - rikame----------------
#NOTES:
     dance-single:
     rikame:
     Easy:
     6:
     0.245,0.323,0.031,0.023,0.000:
0000
0000
0000
0000
,
0000
0000
0000
0000
,
0000
0000
0000
0000
,
0000
0000
0000
0000
,
0000
0000
0000
0000
,
0000
0000
0000
0000
,
0001
0000
1000
0000
,
0010
0000
0100
0000
,
0110
0000
1000
0000
,
0001
0001
0001
0000
,
0100
0000
0010
0000
,
1000
0001
1000
0001
,
1000
0000
0010
0000
,
0100
0100
0100
0000
,
0001
0000
0010
0000
,
0001
1000
0001
0000
,
0100
0000
0010
0000
,
1000
0100
1000
0000
,
0001
0000
0010
0000
,
0001
0100
0001
0000
,
1000
0000
0100
0000
,
1000
0100
0010
0001
,
1000
0000
0000
0000
,
0001
0000
0100
0000
,
0010
0000
0010
0000
,
1000
0000
0100
0000
,
0010
0000
0010
0000
,
0001
0000
1000
0000
,
0010
0000
0010
0000
,
0100
0000
0001
0000
,
1000
0001
1000
0001
,
1000
0000
0010
0000
,
0100
0000
0100
0000
,
0001
0000
0010
0000
,
0100
0000
0100
0000
,
1000
0000
0001
0000
,
0100
0000
0100
0000
,
0010
0000
1000
0000
,
0001
1000
0100
0010
,
0001
0000
2000
0000
,
0000
0000
0000
0000
,
3001
0000
0001
0000
,
0001
0000
0100
0000
,
0100
0000
0010
0000
,
1000
0000
0001
0000
,
0010
0000
0001
0000
,
1000
0000
0010
0000
,
0200
0000
0000
0000
,
0301
0000
0001
0000
,
0001
0000
0000
0000
,
1000
0000
1000
0000
,
1000
0000
0020
0000
,
0000
0000
0130
0000
,
0001
0000
0001
0000
,
1000
0000
1000
0000
,
0010
0000
0100
0000
,
0010
0000
0100
0000
,
0001
0000
0010
0000
,
1000
0000
0010
0000
,
0000
0000
0000
0000
,
0000
0000
0000
0000
,
0000
0000
0001
0000
,
0010
0000
0100
0000
,
0010
0000
0001
0000
,
1000
0000
0010
0000
,
0100
0000
0001
0000
,
1000
0000
0100
0000
,
1000
0000
0010
0000
,
0100
0000
0001
0000
,
0010
0000
0001
0000
,
0001
0000
1000
0000
,
1000
0000
0010
0000
,
0010
0000
0100
0000
,
0100
0000
0001
0010
,
0100
1000
0100
0010
,
0001
0000
1000
0010
,
0100
0001
0100
0010
,
1000
0000
0001
0000
,
1000
0000
0100
0000
,
0010
0000
0001
0000
,
0100
0000
0010
0000
,
0000
0000
1000
0000
,
0100
0000
1000
0000
,
0001
0000
0100
0000
,
0010
0000
1000
0000
,
0000
0000
0001
0000
,
0010
0000
0001
0000
,
0100
0000
0010
0000
,
1000
0000
0001
0000
,
0000
0000
1000
1000
,
0100
0100
0010
0010
,
0001
0001
1000
1000
,
0001
0001
1000
0000
,
0000
0000
0010
0000
,
0010
0000
0010
0000
,
0100
0000
0100
0000
,
0100
0000
0001
0000
,
0001
0000
0001
0000
,
0010
0000
0010
0000
,
0010
0000
0110
0000
,
1000
0100
1000
0100
,
0110
0000
0001
0100
,
0001
0100
0110
0000
,
1000
0010
1000
0010
,
0100
0001
1000
0000
;

//---------------dance-single - rikame----------------
#NOTES:
     dance-single:
     rikame:
     Medium:
     8:
     0.693,0.645,0.702,0.247,0.243:
0000
0000
0000
0000
,
0000
0000
0000
0000
,
0000
0000
0000
0000
,
0000
0000
0000
0000
,
0000
0000
0000
0000
,
0000
0000
0000
0000
,
0000
0000
0000
0000
,
0000
0000
0000
0000
,
1000
0000
0100
0000
1000
0001
1000
0001
,
0100
0000
0010
1000
0010
0000
1000
0001
,
0010
0000
0100
0000
1000
0010
1000
0010
,
0100
0000
0001
0010
0001
0000
0100
0010
,
1000
0000
0001
0000
1000
0100
1000
0100
,
0010
0000
0001
1000
0001
0000
0010
0001
,
1000
0010
0100
0001
,
1000
0100
1000
0000
0001
0100
0001
0100
,
0010
0000
1000
0001
0010
0000
0010
0001
,
1000
1000
0010
0000
1000
0100
1000
0100
,
0010
0000
0001
0010
0100
0000
1000
0010
,
1000
1000
0001
0000
0010
0001
0010
0001
,
1000
0000
0010
1000
0100
0000
0100
0010
,
0001
0100
1000
0100
,
0001
0010
0100
1000
0001
0100
0010
1000
,
0001
0010
0002
0000
2000
0003
3010
0100
,
0000
0100
0001
0000
1200
0000
0000
0000
,
1300
0010
2000
0000
0002
3000
0013
0100
,
0000
0100
1000
0000
0102
0000
0000
0000
,
1003
0100
2000
0000
0002
3000
0103
0010
,
0000
0010
1000
0000
0021
0000
0000
0000
,
0031
0100
0002
0000
2000
0003
3100
0010
,
0000
0010
0001
0000
1010
0000
0101
0000
,
1000
0000
0100
0000
1000
0000
0001
0100
,
0000
0100
0010
0000
1000
0100
1000
0001
,
0100
0000
0010
0000
1000
0000
0100
0010
,
0000
0000
0000
0010
0000
0000
0001
0000
0000
1000
0000
0000
0010
0000
0000
0000
0100
0000
0000
0000
0001
0000
0000
0000
,
1000
0000
0100
0000
0010
0000
0001
1000
,
0000
1000
0010
0000
0100
0001
0010
0100
,
1000
0001
0100
0001
0010
0001
1000
0100
,
1000
0010
0100
0001
0020
0000
0032
0000
,
1003
0000
0020
0000
,
0000
0000
0000
0000
0000
0000
0130
0001
,
1000
0010
0001
0010
,
1000
0100
0001
0100
,
1000
0010
1000
0001
0010
0001
0100
0010
,
1000
0000
1000
0100
0000
1000
0001
0000
0001
0100
0000
0010
,
1000
0000
0000
0001
0000
0000
0010
0000
0000
0100
0000
0000
1000
0000
0000
0000
0010
0000
0100
0000
0000
0000
0100
0000
,
0001
0000
0000
0000
0010
0000
0001
0000
0000
0000
0001
0000
1000
0000
0000
0010
0000
0000
0100
0000
0000
0001
0000
0000
,
0020
0000
0000
0031
1000
0100
1000
0010
,
0100
0101
0011
1100
,
0001
0000
0000
0100
0000
0000
0010
0000
1000
0000
0000
0100
0000
0000
0010
0000
,
0001
0000
0000
0010
0000
0000
0100
0000
0000
0000
1000
0000
0001
0000
0100
0000
,
0010
0000
2000
0000
,
0000
3010
0100
0001
,
1001
0110
1001
0110
,
0110
1001
0110
1001
,
0101
1010
0101
1010
,
1100
0011
1100
0011
,
2000
3002
0203
0320
,
2030
3002
0023
0230
,
0300
0000
0000
0000
,
0000
0000
0000
0000
,
0000
0000
0000
0000
1000
0100
0010
0000
,
0011
0101
1010
1100
,
1001
0000
0000
0001
0000
0001
0010
0000
0000
1001
0000
0000
,
1010
1100
0101
0011
,
1100
0000
0001
0000
1000
0000
0101
0000
0000
1010
0000
0000
,
1100
0110
0011
1001
,
1010
0000
0000
0001
0000
0001
0010
0000
0000
0001
0000
0001
,
1000
0000
0000
0100
0000
0100
1000
0000
1000
0001
0000
0001
,
0100
0000
0010
0000
1000
0000
1001
0000
0000
0011
0000
0000
,
0110
1010
1001
0101
,
0110
0000
0000
0010
0000
0010
1000
0000
0000
0001
0000
0001
,
0010
0000
0000
0001
0000
0001
1000
0000
0000
1010
0000
0000
,
0101
0001
2000
3200
,
0320
0000
2030
0000
3010
0001
1000
0001
,
0100
0000
0010
0000
0100
0000
0010
0000
0000
1000
0000
1000
,
0100
0000
1000
0000
0001
0000
0100
0000
0010
1000
0000
1000
,
0001
1000
0001
1000
0001
1000
0001
0000
0000
0101
0000
0000
,
0110
1010
1100
0110
,
0011
0000
1000
0001
0100
0000
0101
0000
,
1000
0000
1000
0010
0000
0010
0100
0000
0000
0101
0000
0000
,
0001
0000
1000
0100
0010
0000
0011
0000
,
1001
1010
1100
1001
,
0101
0000
0100
0010
0000
0010
1000
0000
0000
1100
0000
0000
,
0001
0000
0001
0010
0000
0010
0100
0000
0000
1100
0000
0000
,
1000
0000
0010
0000
0100
0000
0001
0000
0000
0011
0000
0000
,
1010
1100
1001
0101
,
1010
0000
1000
0100
0000
0100
0010
0000
0000
0011
0000
0000
,
0100
1010
0001
1100
,
0001
0000
0001
1000
0000
1000
0100
0000
0000
1100
0000
0000
,
0110
0000
0000
0011
0000
0000
1000
0000
0001
0100
0000
0100
,
0010
0000
0010
1000
0000
1000
0100
0000
0000
1010
0000
0000
,
0101
0000
0000
0011
0000
0000
1000
0000
1000
0001
0000
0001
,
2000
0000
3010
0110
,
0100
0000
0000
0110
0000
0000
0001
0000
0100
0000
0010
0000
,
1000
1010
0010
1010
,
0001
0000
1000
0000
0100
0000
0010
0000
0000
0011
0000
0000
,
0001
0000
0000
0011
0000
0000
1000
0000
0001
0000
0100
0000
,
0010
0110
1000
0110
,
0001
0000
0000
0000
0010
0000
0000
0000
0100
0000
0000
0000
2000
0000
0000
0000
0000
0000
3001
0000
0000
0100
0000
0000
,
0001
0010
0100
1000
0010
0100
0010
1000
,
0002
0000
1003
0100
0010
0001
1000
0001
,
0100
0010
1000
0001
0020
0000
0031
1000
,
0100
0010
0100
1000
0001
0100
0010
1000
,
0100
0100
1000
0001
0101
0000
0000
0000
;
