#TITLE:Guilty Destruction;
#SUBTITLE:;
#ARTIST:DUALELLE (Akhuta & DJ TOTTO);
#TITLETRANSLIT:;
#SUBTITLETRANSLIT:;
#ARTISTTRANSLIT:;
#CREDIT:;
#BANNER:;
#BACKGROUND:;
#LYRICSPATH:;
#CDTITLE:;
#MUSIC:Guilty Destruction.mp3;
#OFFSET:-7.300;
#SAMPLESTART:74.140;
#SAMPLELENGTH:13.710;
#SELECTABLE:YES;
#BPMS:0.000=280.000,208.000=140.000,240.000=70.000,246.000=140.000,254.000=280.000,318.000=140.000,334.000=210.000;
#STOPS:;
#BGCHANGES:;

//---------------dance-single - ----------------
#NOTES:
     dance-single:
     :
     Hard:
     10:
     0.757,1.000,0.481,0.397,0.137: // measure 1
1001
0000
0000
0001
0000
0000
0100
0000
,  // measure 2
0000
0010
0000
0000
1000
0000
0100
0000
,  // measure 3
0011
0000
0000
1000
0000
0000
0010
0000
,  // measure 4
0000
0100
0000
0000
0001
0000
1000
0000
,  // measure 5
1100
0000
0000
0010
0000
0000
0101
0000
,  // measure 6
0000
0010
0000
0000
1000
0000
0001
0000
,  // measure 7
2001
0000
0000
0000
,  // measure 8
0002
0000
0000
0000
,  // measure 9
0000
0000
0000
0000
,  // measure 10
3003
0000
0000
0000
,  // measure 11
1000
0000
0100
1000
0000
1000
0001
0000
,  // measure 12
0001
0100
0000
0100
0010
1000
0001
0000
,  // measure 13
1000
0000
0001
0010
0000
0100
1000
0000
,  // measure 14
0010
1000
0000
0001
0100
0010
0100
0000
,  // measure 15
0001
0000
0010
0001
0000
1000
0100
0000
,  // measure 16
1000
0001
0000
0100
0010
1000
0001
0000
,  // measure 17
1000
0000
0000
0100
0000
0000
0001
0000
,  // measure 18
0000
0100
0000
0000
1001
0000
0000
0000
,  // measure 19
1000
0000
0010
1000
0000
1000
0100
0000
,  // measure 20
0010
0001
0000
0001
0100
0010
1000
0000
,  // measure 21
1010
0000
0000
0101
0000
0000
2002
0000
,  // measure 22
0000
0000
3003
0000
1100
0000
0000
0011
,  // measure 23
0000
2002
0000
3003
,  // measure 24
0001
0000
1000
0100
0010
0001
1000
0010
,  // measure 25
0100
0000
0000
0010
0000
0000
1010
0000
,  // measure 26
0000
1000
0000
0000
1100
0000
0000
0010
,  // measure 27
0000
0000
0011
0000
0000
0001
0000
0000
,  // measure 28
1000
0001
1000
0001
0100
0010
1000
0100
,  // measure 29
2000
3100
0010
0001
,  // measure 30
0200
0310
0100
0001
,  // measure 31
2000
3100
0010
0100
,  // measure 32
0020
0031
0100
0001
,  // measure 33
0101
0100
0010
1000
,  // measure 34
1100
0100
1000
0001
,  // measure 35
1000
0001
1000
0001
0100
0001
0100
0010
,  // measure 36
1000
0100
0010
0001
0200
0000
0300
0000
,  // measure 37
0101
0101
1001
1001
,  // measure 38
1000
0100
2002
3003
,  // measure 39
1100
1100
1001
1001
,  // measure 40
0001
0010
2002
3003
,  // measure 41
1000
0100
1000
0001
1000
0000
0001
0100
,  // measure 42
0001
1000
0001
0000
1000
0000
0100
0000
,  // measure 43
0010
0001
0100
0010
0100
0001
1000
0000
,  // measure 44
0001
0100
0010
1000
0100
0010
0001
0000
,  // measure 45
0011
0011
1100
1100
,  // measure 46
1010
0101
2002
3003
,  // measure 47
1010
1010
0101
0101
,  // measure 48
1001
0110
2002
3003
,  // measure 49
1000
0100
0010
0001
0100
0000
0001
0100
,  // measure 50
0010
1000
0100
0000
2002
0000
3003
0000
,  // measure 51
1000
0100
0010
0001
0100
0001
0010
0001
,  // measure 52
1000
0100
0010
0100
1000
0010
0100
0001
,  // measure 53
2000
0000
3100
0010
0001
0100
0010
1000
,  // measure 54
0001
0000
1000
0100
0010
0001
0100
0010
1000
0000
0010
0000
1000
0000
0100
0000
,  // measure 55
0020
0000
0000
0000
0000
0000
0000
0000
0000
0000
0000
0000
0030
0000
0001
0100
,  // measure 56
0020
0000
0000
0030
,  // measure 57
1000
0000
1000
0100
0010
0000
0100
0010
0001
0000
1000
0000
0001
0000
0100
0000
,  // measure 58
0001
1000
0001
1000
0100
0010
0100
0010
0001
1000
0001
1000
0010
1000
0001
0100
,  // measure 59
0002
0000
0000
0003
,  // measure 60
2002
3000
0200
0303
,  // measure 61
0110
0010
1010
1000
1100
0100
0110
0011
,  // measure 62
1001
0000
0010
0100
2001
0000
0000
0000
,  // measure 63
3200
0000
0320
0000
,  // measure 64
0032
0000
0000
0000
1003
0100
1000
0100
,  // measure 65
1000
0001
0100
0001
0100
0000
0010
0000
,  // measure 66
1000
0001
1000
0000
0001
0010
0001
1000
,  // measure 67
0100
1000
0001
0100
0010
1000
0001
1000
,  // measure 68
0001
0000
1000
0100
0010
0100
0010
0001
,  // measure 69
1000
0010
1000
0001
0010
0100
0010
0001
,  // measure 70
1000
0001
1000
0010
0100
0001
0100
0010
,  // measure 71
1000
0100
0010
0002
1000
0000
0000
1000
,  // measure 72
0000
0000
1003
0000
0001
0100
0010
0100
,  // measure 73
0001
1000
0100
0010
0001
0000
1000
0000
,  // measure 74
0001
1000
0001
0000
1000
0100
1000
0001
,  // measure 75
0100
0001
0010
0001
0100
0010
1000
0100
,  // measure 76
0010
0000
0001
0100
0010
1000
0001
0010
,  // measure 77
0001
1000
0100
0010
0100
1000
0001
0100
,  // measure 78
0010
1000
0010
1000
0001
1000
0001
1000
,  // measure 79
0010
0100
0010
0100
0020
0000
0000
0000
,  // measure 80
0030
0000
1002
0000
,  // measure 81
0203
0000
0320
0000
,  // measure 82
2030
0000
3002
0000
,  // measure 83
2003
0000
3200
0000
,  // measure 84
0320
0000
0000
0000
0130
0000
0010
0001
,  // measure 85
1000
0000
0001
0000
0100
0000
0010
0000
1000
0000
0000
0000
0001
0100
0001
0100
,  // measure 86
0001
0000
1000
0100
0010
0001
1000
0010
,  // measure 87
1000
0000
0000
0000
0001
1000
0001
1000
0001
0000
0000
0000
1000
0000
0001
0000
,  // measure 88
0100
0000
0010
0000
1000
0000
0100
0000
1000
0000
0001
0000
0010
0001
0010
0001
,  // measure 89
0010
0000
0001
0000
0100
0000
0001
0000
0100
0000
0010
1000
0010
0000
0100
0000
,  // measure 90
0001
0000
1000
0000
0100
0010
0100
0010
0001
0000
1000
0001
1000
0000
0010
0100
,  // measure 91
0010
0000
1000
0001
1000
0001
1000
0001
1000
0000
0010
0100
0010
0000
0100
0000
;

//---------------dance-single - ----------------
#NOTES:
     dance-single:
     :
     Challenge:
     11:
     0.912,1.000,0.548,0.425,0.274: // measure 1
1000
0100
1000
0100
1000
0000
0001
0100
,  // measure 2
0001
0100
0001
0000
1000
0001
1000
0000
,  // measure 3
0010
0100
0010
0100
0001
0000
0010
0100
,  // measure 4
0010
0100
1000
0000
0001
1000
0001
1000
,  // measure 5
0001
0010
0001
0100
0010
0100
0010
1000
,  // measure 6
0100
1000
0001
0010
0100
0010
0001
1000
,  // measure 7
2002
0000
3003
0000
,  // measure 8
0020
0000
0000
0000
,  // measure 9
0030
0000
1000
0001
1000
0000
1000
0000
,  // measure 10
2000
0000
0000
3001
0000
0000
0000
0000
,  // measure 11
0001
0100
0001
0100
0010
0000
1000
0100
,  // measure 12
1000
0100
0010
0001
0100
0010
1000
0010
,  // measure 13
1000
0000
0100
0010
0000
0010
0001
0000
,  // measure 14
1000
0010
0000
0100
0001
1000
0100
1000
,  // measure 15
0001
0100
0010
1000
0100
0000
0010
0001
,  // measure 16
0100
0001
1000
0100
0010
0100
1000
0001
,  // measure 17
0101
0000
0000
1010
0000
0000
1100
0000
,  // measure 18
0000
0011
0000
0000
2002
0000
3003
0000
,  // measure 19
0001
0100
0010
0100
0001
1000
0100
0010
,  // measure 20
0100
1000
0001
0100
0001
0100
0010
1000
,  // measure 21
0100
0000
1000
0001
0000
0001
0100
0000
,  // measure 22
0010
1000
0100
0010
0100
0000
0010
0001
,  // measure 23
0000
0001
1000
0000
0010
1000
0100
1000
,  // measure 24
0001
0010
0100
0010
0001
1000
0100
1000
,  // measure 25
1001
0000
0000
0101
0000
0000
1001
0000
,  // measure 26
0000
1100
0000
0000
1010
0000
0000
0101
,  // measure 27
0000
0000
0011
0000
0000
1100
0000
0000
,  // measure 28
1000
0100
0010
0100
0001
0100
1000
0001
,  // measure 29
0201
0000
0310
0000
0100
0000
0010
1000
,  // measure 30
0002
1003
0100
0010
,  // measure 31
0200
0000
0310
0000
0001
0000
1000
0001
,  // measure 32
0200
0000
0310
0100
0001
0000
1000
0000
,  // measure 33
0200
1300
0100
0010
,  // measure 34
0002
0103
0001
1000
,  // measure 35
0001
0100
0001
0100
0010
1000
0010
1000
,  // measure 36
0100
0010
0001
1000
2002
0000
3003
0000
,  // measure 37
0011
1100
1010
0101
,  // measure 38
0110
1001
0220
0330
,  // measure 39
0011
0101
1010
1100
,  // measure 40
1001
0110
2002
3003
,  // measure 41
1000
0100
0010
0100
1000
0000
0001
0100
,  // measure 42
0010
0100
0001
0000
1000
0000
0100
0000
,  // measure 43
1000
0100
1000
0010
1000
0001
1000
0000
,  // measure 44
0001
0010
0001
0010
0002
1003
0200
0300
,  // measure 45
1100
0011
1100
0011
,  // measure 46
0110
1001
0220
0330
,  // measure 47
0101
1010
0101
1010
,  // measure 48
0110
1001
0220
0330
,  // measure 49
0001
1000
0100
0010
0001
0100
0010
1000
,  // measure 50
0100
1000
0001
0100
0010
0000
1000
0000
,  // measure 51
0001
0100
0010
1000
0100
0001
0100
1000
,  // measure 52
0001
0010
0100
0010
0001
0100
0010
1000
,  // measure 53
0002
0000
1003
0100
0001
0100
0010
0001
1000
0000
0001
0000
1000
0000
0001
0000
,  // measure 54
0100
0010
1000
0100
0010
0100
0010
0001
0100
0010
0001
0010
0100
0010
1000
0001
,  // measure 55
2000
0000
0000
0000
0000
0000
0000
0000
0000
0000
0000
0000
3000
0000
0001
0010
,  // measure 56
0200
0000
0000
0300
,  // measure 57
0100
1000
0001
0100
0010
0100
0001
0010
0100
0000
0010
0000
0001
1000
0001
0000
,  // measure 58
1000
0100
1000
0001
0100
0001
0010
0100
0001
0100
1000
0001
0100
0010
1000
0001
,  // measure 59
0200
0000
0000
0000
0000
0000
0000
0000
0000
0000
0000
0000
0300
0000
0001
0100
,  // measure 60
0020
0000
0200
0330
,  // measure 61
0101
0001
1010
1000
0011
0001
1100
0001
,  // measure 62
1001
0000
0101
0010
2001
0000
0000
0000
,  // measure 63
3200
0000
0320
0000
,  // measure 64
0002
0000
0033
0000
1000
0100
1000
0001
,  // measure 65
0100
0010
1000
0001
0100
0001
0100
0001
,  // measure 66
0100
1000
0100
1000
0100
0001
1000
0100
,  // measure 67
0010
0100
1000
0001
0100
0010
0001
0010
,  // measure 68
1000
0001
1000
0100
0001
0100
0001
0100
,  // measure 69
0010
0100
0010
0100
1000
0100
1000
0100
,  // measure 70
1000
0100
0010
0001
1000
0001
0100
0010
,  // measure 71
1000
0000
0000
0100
0000
0000
0010
0000
0001
0000
0010
0000
0001
0000
0000
0000
0000
0000
0000
0000
0000
0110
0000
0000
,  // measure 72
0000
0000
1001
0000
1000
0010
0100
0001
,  // measure 73
0100
0001
0010
0100
0001
0100
1000
0100
,  // measure 74
0010
0001
0100
0001
1000
0010
1000
0100
,  // measure 75
1000
0000
0000
0001
0000
0000
0100
0000
0000
0010
0000
0000
1000
0000
0001
0000
1000
0000
0001
0000
0000
1000
0000
0000
,  // measure 76
0100
0000
0000
0010
0000
0000
0001
0000
1000
0000
0001
0000
1000
0000
0000
0010
0000
0000
1000
0000
0000
0100
0000
0000
,  // measure 77
0010
0000
0000
0001
0000
0000
0100
0000
0001
0000
0100
0000
0001
0000
0000
0100
0000
0000
0010
0000
0000
1000
0000
0000
,  // measure 78
0100
0000
0000
0010
0000
0000
0001
0000
0100
0000
0001
0000
0100
0000
0000
0010
0000
0000
1000
0000
0000
0100
0000
0000
,  // measure 79
0010
0001
1000
0001
0200
0000
0000
0000
,  // measure 80
0300
0000
0220
0330
,  // measure 81
2000
0000
0000
0000
3000
0000
0000
0000
0200
0000
0000
0000
0300
0000
0010
0001
,  // measure 82
0020
0030
2002
3003
,  // measure 83
0002
0000
0000
0000
0003
0000
0000
0000
0200
0000
0000
0000
0300
0000
0010
1000
,  // measure 84
0020
0000
0030
0000
1100
1000
0001
0100
,  // measure 85
0010
0000
1000
0000
1001
0000
0001
0000
0010
0000
0100
0000
0010
0001
0010
0001
,  // measure 86
1000
0000
0010
0000
0100
0000
0001
0000
0100
0010
1000
0010
0100
0000
0001
0000
,  // measure 87
1000
0000
0100
0000
0010
0001
1000
0100
1000
0000
0100
0000
0010
0000
0001
0010
,  // measure 88
0100
0000
0010
0001
1000
0000
0001
0000
0100
0000
0010
0000
1000
0010
1000
0010
,  // measure 89
0100
0000
0010
0000
0100
0000
0001
0000
1000
0000
0100
0010
0001
0000
0010
0000
,  // measure 90
0001
0000
0100
0000
0010
1000
0010
1000
0100
0000
0010
0001
0100
0000
0010
1000
,  // measure 91
0100
0000
0010
0001
1000
0010
0100
0001
1000
0001
1000
0100
0010
0000
1001
0000
;

//---------------dance-single - ----------------
#NOTES:
     dance-single:
     :
     Medium:
     9:
     0.585,0.815,0.274,0.321,0.014: // measure 1
1100
0000
0000
1000
0000
0000
0001
0000
,  // measure 2
0000
0100
0000
0000
0001
0000
1000
0000
,  // measure 3
0001
0000
0000
0010
0000
0000
0001
0000
,  // measure 4
0000
0100
0000
0000
0010
0000
1000
0000
,  // measure 5
0010
0000
0000
0100
0000
0000
0001
0000
,  // measure 6
0000
1000
0000
0000
0100
0000
0010
0000
,  // measure 7
0210
0000
0000
0000
,  // measure 8
0020
0000
0000
0000
,  // measure 9
0000
0000
0000
0000
,  // measure 10
0330
0000
0000
0000
,  // measure 11
0010
0001
1000
0100
,  // measure 12
1000
0001
0100
0010
,  // measure 13
1000
0000
0000
0100
0000
0000
1000
0000
,  // measure 14
0000
0001
0000
0000
0100
0000
0001
0000
,  // measure 15
1000
0100
1000
0001
,  // measure 16
0100
0010
1000
0001
,  // measure 17
1000
0000
0000
0001
0000
0000
1000
0000
,  // measure 18
0000
0010
0000
0000
0110
0000
0000
0000
,  // measure 19
0010
1000
0001
0100
,  // measure 20
0001
0010
0100
0010
,  // measure 21
0011
0000
0000
1100
0000
0000
2002
0000
,  // measure 22
0000
0000
3003
0000
0101
0000
0000
1010
,  // measure 23
0000
2002
0000
3003
,  // measure 24
0001
0000
1000
0001
1000
0000
0001
0000
,  // measure 25
0101
0000
0000
1001
0000
0000
0101
0000
,  // measure 26
0000
1000
0000
0000
1100
0000
0000
1001
,  // measure 27
0000
0000
1100
0000
0000
0001
0000
0000
,  // measure 28
1000
0010
1000
0000
0001
0000
0100
0000
,  // measure 29
0102
0000
0010
0000
,  // measure 30
2003
0000
0010
0000
,  // measure 31
3200
0000
0010
0000
,  // measure 32
2300
0000
0010
0000
,  // measure 33
3100
0010
0001
0100
,  // measure 34
0010
0100
0001
0010
,  // measure 35
0100
0010
0001
1000
,  // measure 36
0001
1000
0001
1000
0002
0000
0000
0000
,  // measure 37
1003
0100
0010
0001
,  // measure 38
0100
0010
0220
0330
,  // measure 39
0001
0100
0010
1000
,  // measure 40
0100
0010
0220
0330
,  // measure 41
0010
0000
0000
0001
0000
0000
1000
0000
,  // measure 42
0000
0001
0000
0000
0100
0000
0010
0000
,  // measure 43
1000
0010
0001
0010
,  // measure 44
1000
0001
1000
0001
1000
0000
0100
0000
,  // measure 45
0010
0001
0100
0001
,  // measure 46
0100
0010
0110
0000
,  // measure 47
1000
0100
0001
0100
,  // measure 48
0010
0100
0110
0000
,  // measure 49
0010
0001
0010
0001
1000
0000
0001
0000
,  // measure 50
0100
0010
0100
0001
,  // measure 51
1000
0100
1000
0100
0010
0000
0001
0000
,  // measure 52
1000
0001
1000
0001
0100
0010
0100
0010
,  // measure 53
2000
0000
3001
0100
0001
1000
0100
0010
,  // measure 54
0001
0000
1000
0100
1000
0001
0010
0100
,  // measure 55
0020
0000
0000
0000
0000
0000
0000
0000
0000
0000
0000
0000
0030
0000
0001
1000
,  // measure 56
0002
0000
0000
0003
,  // measure 57
1000
0010
1000
0100
0010
0100
0001
0100
,  // measure 58
0010
0000
0001
0000
1000
0000
0001
0000
1000
0010
1000
0000
0001
0100
0001
0000
,  // measure 59
2000
0000
0000
3000
,  // measure 60
2002
3003
0220
0330
,  // measure 61
1001
1000
0100
0001
0100
1000
0001
0100
,  // measure 62
0110
0000
0010
1000
2002
0000
3003
0000
,  // measure 63
0200
0300
2002
3003
,  // measure 64
0200
0000
0300
0000
0001
1000
0001
1000
,  // measure 65
0001
1000
0100
0010
,  // measure 66
0001
0000
0100
0000
0010
1000
0010
1000
,  // measure 67
0010
0000
0100
0001
0100
0000
0001
0000
,  // measure 68
1000
0000
0100
0000
0010
0001
0100
0000
,  // measure 69
0010
0000
1000
0000
0010
1000
0100
0000
,  // measure 70
1000
0000
0100
0000
0010
0001
1000
0000
,  // measure 71
0001
1000
0001
1000
0001
0000
0000
1000
,  // measure 72
0000
0000
0001
0000
0100
0010
0100
0010
,  // measure 73
0100
0001
1000
0100
,  // measure 74
0010
0000
0001
0000
1000
0001
1000
0001
,  // measure 75
1000
0000
0001
0000
0100
0010
0100
0010
,  // measure 76
1000
0000
0100
0000
0010
0001
0010
0000
,  // measure 77
0100
1000
0100
0000
0010
0001
1000
0000
,  // measure 78
0001
0100
0010
0000
1000
0010
0100
0000
,  // measure 79
0010
0100
0001
0100
0020
0000
0000
0000
,  // measure 80
0030
0000
1002
0000
,  // measure 81
0010
0000
0203
0000
,  // measure 82
0310
0000
2001
0000
,  // measure 83
0010
0000
3200
0000
,  // measure 84
0310
0000
0000
0000
1001
0000
0001
0100
,  // measure 85
0001
1000
0100
0010
0100
0000
0010
0001
,  // measure 86
0100
0000
0010
1000
0100
1000
0001
0010
,  // measure 87
0100
0000
0010
0001
0100
0000
0010
1000
,  // measure 88
0001
0010
0100
0010
0001
0000
1000
0100
,  // measure 89
1000
0010
1000
0010
1000
0001
0100
0001
,  // measure 90
0010
0001
1000
0100
0001
0100
1000
0001
,  // measure 91
0010
0100
0010
0001
1000
0010
0100
0100
;

//---------------dance-single - ----------------
#NOTES:
     dance-single:
     :
     Easy:
     6:
     0.345,0.600,0.255,0.160,0.000: // measure 1
1000
0000
0000
0100
0000
0000
1000
0000
,  // measure 2
0000
0100
0000
0000
1000
0000
0001
0000
,  // measure 3
0100
0000
0000
0001
0000
0000
0100
0000
,  // measure 4
0000
0001
0000
0000
0100
0000
0010
0000
,  // measure 5
0100
0000
0000
0010
0000
0000
0100
0000
,  // measure 6
0000
0010
0000
0000
1000
0000
0001
0000
,  // measure 7
2002
0000
3003
0000
,  // measure 8
0200
0000
0000
0000
,  // measure 9
0000
0000
0000
0000
,  // measure 10
0300
0000
0000
0000
,  // measure 11
0001
0000
0000
1000
,  // measure 12
0000
0000
0001
0000
,  // measure 13
1000
0000
0000
0100
0000
0000
0010
0000
,  // measure 14
0000
0001
0000
0000
1000
0000
0000
0000
,  // measure 15
0001
0000
0000
0100
,  // measure 16
0000
0000
0001
0000
,  // measure 17
1000
0000
0000
0001
0000
0000
1000
0000
,  // measure 18
0000
0001
0000
0000
0100
0000
0000
0000
,  // measure 19
0010
0000
0000
0100
,  // measure 20
0000
0000
0010
0000
,  // measure 21
1001
0000
0000
1001
,  // measure 22
0000
0000
0110
0000
,  // measure 23
0000
0110
0000
0000
,  // measure 24
0010
1000
0010
1000
,  // measure 25
1001
0000
0000
1001
,  // measure 26
0000
0000
0110
0000
,  // measure 27
0000
0110
0000
0000
,  // measure 28
1000
0001
1000
0001
,  // measure 29
0100
0000
0001
0000
,  // measure 30
0100
0000
0001
0000
,  // measure 31
1000
0000
0100
0000
,  // measure 32
1000
0000
0100
0000
,  // measure 33
1000
0000
0100
0000
,  // measure 34
0010
0000
0001
0000
,  // measure 35
1000
0001
1000
0001
,  // measure 36
0100
0010
0100
0000
,  // measure 37
0010
0000
1000
0000
,  // measure 38
0001
0100
0001
0000
,  // measure 39
1000
0000
0100
0000
,  // measure 40
0010
0001
0010
0000
,  // measure 41
1000
0000
0100
0000
,  // measure 42
0010
0000
0001
0000
,  // measure 43
1000
0000
0001
0000
,  // measure 44
0100
0010
0100
0000
,  // measure 45
0001
0000
0100
0000
,  // measure 46
0010
1000
0100
0000
,  // measure 47
0010
0000
0001
0000
,  // measure 48
1000
0100
0010
0000
,  // measure 49
0100
0000
1000
0000
,  // measure 50
0001
0100
0001
0000
,  // measure 51
1000
0100
0010
0000
,  // measure 52
0100
0010
0001
1000
,  // measure 53
0002
0000
0000
0000
,  // measure 54
0203
0000
0000
0000
,  // measure 55
0320
0000
0000
0000
,  // measure 56
2030
0000
0000
0000
,  // measure 57
3002
0000
0010
1000
,  // measure 58
0203
0000
0010
0001
,  // measure 59
0020
0000
0000
0330
,  // measure 60
2000
0000
0002
0000
,  // measure 61
3003
0000
0000
0000
,  // measure 62
0000
0000
2002
0000
,  // measure 63
3003
0000
0220
0000
,  // measure 64
0330
0000
1000
0000
,  // measure 65
0010
0000
1000
0001
,  // measure 66
1000
0000
0001
0000
,  // measure 67
0010
0000
0001
1000
,  // measure 68
0001
0000
1000
0100
,  // measure 69
0010
0000
1000
0001
,  // measure 70
0100
0000
0001
0100
,  // measure 71
0010
0000
0100
0000
0001
0000
0000
0001
,  // measure 72
0000
0001
1000
0000
,  // measure 73
0100
0000
1000
0001
,  // measure 74
0100
0000
0010
0000
,  // measure 75
0100
0000
0010
1000
,  // measure 76
0001
0000
1000
0100
,  // measure 77
1000
0000
0001
0010
,  // measure 78
0001
0000
1000
0001
,  // measure 79
1000
0001
0200
0000
,  // measure 80
0300
0000
0110
0000
,  // measure 81
0010
0000
1000
0000
,  // measure 82
0001
0000
1001
0000
,  // measure 83
1000
0000
0100
0000
,  // measure 84
0010
0000
1001
0001
,  // measure 85
0100
0110
0010
1000
,  // measure 86
1001
1000
0100
0110
,  // measure 87
0010
0001
1001
1000
,  // measure 88
0010
0110
0100
0001
,  // measure 89
1001
0100
0110
0110
,  // measure 90
0010
1001
1001
1000
,  // measure 91
0100
0110
1001
0110
;

//---------------dance-single - ----------------
#NOTES:
     dance-single:
     :
     Beginner:
     3:
     0.166,0.257,0.236,0.000,0.000: // measure 1
1001
0000
0000
0000
,  // measure 2
0000
0000
0000
0000
,  // measure 3
0110
0000
0000
0000
,  // measure 4
0000
0000
0000
0000
,  // measure 5
1001
0000
0000
0000
,  // measure 6
0000
0000
0000
0000
,  // measure 7
0110
0000
0000
0000
,  // measure 8
0000
0000
0000
0000
,  // measure 9
0000
0000
0000
0000
,  // measure 10
0000
0000
0000
0000
,  // measure 11
0100
0000
0000
0000
,  // measure 12
0000
0000
0000
0000
,  // measure 13
1000
0000
0000
0000
,  // measure 14
0000
0000
0000
0000
,  // measure 15
0001
0000
0000
0000
,  // measure 16
0000
0000
0000
0000
,  // measure 17
1000
0000
0000
0000
,  // measure 18
0001
0000
0000
0000
,  // measure 19
1001
0000
0000
0000
,  // measure 20
0000
0000
0000
0000
,  // measure 21
1001
0000
0000
1001
,  // measure 22
0000
0000
0110
0000
,  // measure 23
0000
0110
0000
0000
,  // measure 24
1001
0000
0000
0000
,  // measure 25
1001
0000
0000
1001
,  // measure 26
0000
0000
0110
0000
,  // measure 27
0000
0110
0000
0000
,  // measure 28
1000
0000
1000
0000
,  // measure 29
1000
0000
0000
0000
,  // measure 30
0001
0000
0000
0000
,  // measure 31
0100
0000
0000
0000
,  // measure 32
0001
0000
0000
0000
,  // measure 33
1001
0000
0000
0000
,  // measure 34
1000
0000
0000
0000
,  // measure 35
0001
0000
0000
0000
,  // measure 36
0010
0000
0000
0000
,  // measure 37
0100
0000
0100
0000
,  // measure 38
0100
0000
0000
0000
,  // measure 39
0010
0000
0010
0000
,  // measure 40
0010
0000
0000
0000
,  // measure 41
0001
0000
0000
0000
,  // measure 42
1000
0000
0000
0000
,  // measure 43
0001
0000
0000
0000
,  // measure 44
1000
0000
0000
0000
,  // measure 45
0010
0000
0010
0000
,  // measure 46
0010
0000
0000
0000
,  // measure 47
0100
0000
0100
0000
,  // measure 48
0100
0000
0000
0000
,  // measure 49
0001
0000
0000
0000
,  // measure 50
1000
0000
0000
0000
,  // measure 51
0100
0000
0000
0000
,  // measure 52
0010
0000
0010
0000
,  // measure 53
0010
0000
0000
0000
,  // measure 54
0001
0000
1000
0000
,  // measure 55
0010
0000
0000
0000
,  // measure 56
0100
0000
0000
0000
,  // measure 57
0010
0000
0000
0000
,  // measure 58
1000
0000
0001
0000
,  // measure 59
0010
0000
0000
0000
,  // measure 60
0100
0000
0010
0000
,  // measure 61
0100
0000
0000
0000
,  // measure 62
0000
0000
1001
0000
,  // measure 63
0000
0000
0100
0000
,  // measure 64
0000
0000
1000
0000
,  // measure 65
1000
0000
1000
0000
,  // measure 66
0000
0000
0001
0000
,  // measure 67
0001
0000
0001
0000
,  // measure 68
0000
0000
0100
0000
,  // measure 69
0000
0000
0010
0000
,  // measure 70
0000
0000
0100
0000
,  // measure 71
0100
0000
0100
0000
,  // measure 72
0000
0000
1001
0000
,  // measure 73
0000
0000
0001
0000
,  // measure 74
0000
0000
1000
0000
,  // measure 75
1000
0000
1000
0000
,  // measure 76
0000
0000
0001
0000
,  // measure 77
0000
0000
0100
0000
,  // measure 78
0000
0000
0010
0000
,  // measure 79
0010
0000
0010
0000
,  // measure 80
0000
0000
1001
0000
,  // measure 81
0000
0000
0000
0000
,  // measure 82
0000
0000
0110
0000
,  // measure 83
0000
0000
0000
0000
,  // measure 84
0000
0000
1001
0000
,  // measure 85
0000
0001
0000
0000
,  // measure 86
0100
0000
0000
0010
,  // measure 87
0000
0000
1000
0000
,  // measure 88
0000
0001
0000
0000
,  // measure 89
1001
0000
0000
0110
,  // measure 90
0000
0000
1001
0000
,  // measure 91
0000
0110
0000
0110
;
