#TITLE:Grandolin;
#SUBTITLE:;
#ARTIST:Zerofuser;
#TITLETRANSLIT:;
#SUBTITLETRANSLIT:;
#ARTISTTRANSLIT:;
#GENRE:;
#CREDIT:;
#BANNER:;
#BACKGROUND:;
#LYRICSPATH:;
#CDTITLE:;
#MUSIC:Grandolin.mp3;
#OFFSET:-0.047;
#SAMPLESTART:42.020;
#SAMPLELENGTH:14.900;
#SELECTABLE:YES;
#DISPLAYBPM:160.000;
#BPMS:0.000=160.000;
#STOPS:;
#TIMESIGNATURES:0.000=4=4
;
#BGCHANGES:;
#KEYSOUNDS:;

//---------------dance-single - ----------------
#NOTES:
     dance-single:
     :
     Challenge:
     11:
     0.803,0.859,0.000,1.000,0.928,500.000,0.000,124.000,0.000,0.000,0.000,0.803,0.859,0.000,1.000,0.928,500.000,0.000,124.000,0.000,0.000,0.000:
0000
0000
0000
0000
,
0000
0000
0000
0000
,
0000
0000
0000
0000
,
0000
0000
0000
0000
,
2000
0000
0000
0000
3001
0010
0002
0000
0000
0000
0000
0000
0203
0000
0000
0000
,
0000
0000
0320
0000
0000
0000
2030
0000
3100
1000
0100
0000
0020
0000
0000
0000
,
0031
0000
1000
0000
0001
0010
0001
0000
1000
0000
0010
0000
0100
0000
0010
0000
,
1000
0000
0100
0000
0010
0000
0001
0000
1000
0000
0010
0000
1000
0100
0010
0100
,
2000
0000
0000
0000
3001
0100
0002
0000
0000
0000
0000
0000
2003
0000
0000
0000
,
3001
0100
0010
0100
0001
0100
0010
0100
0001
1000
0100
0010
0001
1000
0010
0100
,
0010
2000
0000
0000
0000
0000
0000
0000
0000
0000
0000
0000
0000
0000
0000
3200
0000
0000
0000
0000
0000
0320
0000
0000
,
0000
0032
0000
0100
0100
0203
0000
0000
,
0000
0320
0000
0000
0000
2030
0000
3002
,
0000
0023
0000
0230
0000
2300
3200
0320
,
0032
0000
0000
0000
0000
0203
0000
0320
,
0000
2030
0000
0001
0001
3002
0000
0000
,
0000
2003
0000
3020
0000
2030
0000
3200
,
0000
0320
0000
0032
0000
0203
0320
2030
,
3002
0000
0000
0000
0000
2003
0000
3200
,
0000
0320
0000
0100
0100
0230
0000
0000
,
0000
2300
0000
0000
0000
3002
0000
0203
,
0000
0302
0000
0023
0000
0230
0320
0032
,
2003
0000
0000
0000
0000
3020
0000
0230
,
0000
0302
0000
1000
1000
2003
0000
0000
,
0000
3020
0000
2030
0000
3200
0000
2300
,
0000
0000
3002
0000
0000
0000
0203
0000
0000
0000
0302
0000
0103
0000
0001
1000
,
0200
0000
0000
0000
1300
0100
2000
0000
0000
0000
0000
0000
3002
0000
0000
0000
,
0103
0010
1000
0010
0100
0010
1000
0001
1000
0100
0010
0100
1000
0001
0100
0010
,
1000
0000
0100
0010
0001
0010
0200
0000
0000
1300
0001
0100
0001
0000
2000
0000
,
0000
3100
0000
0010
0000
0001
0000
1000
0001
0100
0010
1000
0001
0100
0010
0100
,
0001
0000
1000
0010
0000
0100
0000
0100
0000
0001
0000
1000
0100
0000
0020
0000
,
0000
0000
0000
0000
0000
0000
0032
0000
0000
1003
0000
0010
1000
0001
0010
0100
,
2000
0000
0000
0000
0000
0000
3002
0000
0000
0103
0000
0001
0000
1000
0000
0100
,
0020
0000
0000
0000
0000
0000
0032
0000
0000
1003
0000
0001
1000
0010
0100
0001
,
0020
0000
0000
0000
0000
0000
0000
0000
0000
0031
0000
1000
0000
0010
0000
1000
,
0000
0100
0000
0000
0100
0000
0000
1000
0000
0001
0000
0010
0001
1000
0010
0100
,
0001
0000
0010
0100
1000
0100
0020
0000
0000
0031
1000
0010
1000
0000
0002
0000
,
0000
0013
0000
0100
0000
1000
0000
0001
1000
0010
0100
0001
1000
0010
0100
0010
,
1000
0000
0001
0100
0000
0010
0000
0010
0000
1000
0000
0001
0010
0000
0200
0000
,
0000
0000
0000
0000
0000
0000
2300
0000
0000
3001
0000
0100
0001
1000
0100
0010
,
0002
0000
0000
0000
0000
0000
2003
0000
0000
3010
0000
1000
0000
0001
0000
0010
,
0200
0000
0000
0000
0000
0000
2300
0000
0000
3001
0000
1000
0001
0100
0010
1000
,
0200
0000
0000
0000
0000
0000
0000
0000
0000
1300
0000
0001
0000
0100
0000
0001
,
0000
0010
0000
0000
0010
0000
0000
0001
0000
1000
0000
0100
1000
0001
0100
0010
,
2000
0000
0000
0000
0000
0000
0000
0000
0000
0000
0000
0000
0000
3010
1000
0001
,
1000
0100
0010
0100
1000
0001
0010
0100
1000
0010
0100
0010
1000
0001
0100
0001
,
2000
0000
0000
0000
0000
3100
0000
0100
0000
0010
0000
0010
0001
1000
0010
0100
,
0001
0000
0001
0000
1000
0100
0000
0010
0000
0001
0000
0000
0002
0000
0000
0000
,
0000
0100
0000
0000
0103
0000
0010
0000
0100
0000
0001
1000
0000
0100
0000
0010
,
0000
0100
0000
1000
0001
0100
0010
1000
0000
0100
0010
0001
1000
0010
0100
0001
,
1000
0010
0100
0010
1000
0010
0100
0010
1000
0001
0010
0000
0001
1000
0010
0000
,
1000
0100
0010
0000
0001
0010
0100
0000
1000
0100
0010
0001
0000
0100
0000
0010
,
1000
0000
0001
1000
0000
0100
0010
0001
0010
0100
1000
0001
0100
0001
1000
0100
,
0010
0100
0000
1000
0000
0001
0100
0001
0000
1000
0000
0100
0020
0000
0000
0000
,
0032
0000
0000
0000
0000
0000
0000
0000
0000
0103
0010
1000
0001
1000
0100
0010
,
0100
1000
0000
1000
0000
0001
0000
0001
0000
0100
0010
0000
2000
0000
0000
0000
,
0000
3100
0010
0001
1000
0001
0100
0010
0000
1000
0000
0010
0000
1000
0001
1000
,
0100
0010
0001
0100
0000
0010
0000
0100
0000
0001
1000
0000
0100
0010
0002
0000
,
0000
0000
1003
0010
0000
0100
0000
0001
1000
0100
0010
0100
1000
0001
0100
0010
,
1000
0000
0000
0000
0000
0000
0000
0000
0020
0000
0000
0000
0000
0000
0000
0000
0000
0000
0000
0000
0000
0000
0000
0000
0000
0000
0000
0000
0000
0000
0000
0000
0000
0000
0000
0000
0000
0000
0000
0000
0000
0000
0000
0000
0000
0000
0000
0000
0000
0000
0000
0000
0000
0000
0000
0000
0000
0000
0000
0000
0000
0000
0000
0000
0000
0000
0000
0000
0000
0000
0000
0000
0000
0000
0000
0000
0000
0000
0000
0000
0000
0000
0000
0000
0000
0000
0000
0000
0000
0000
0000
0000
0000
0000
0000
0000
0000
0000
0000
0000
0000
0000
0000
0000
0000
0000
0000
0000
0000
0000
0000
0000
0000
0000
0000
0000
0000
0000
0000
0000
1030
0000
0000
0000
0000
0000
0000
0000
0000
0000
0000
0000
0000
0000
0000
0000
0000
0000
0000
0000
0000
0000
0000
0000
0000
0000
0000
0000
0000
0000
0000
0000
0000
0000
0000
0000
0010
0000
0000
0000
0000
0000
1000
0000
0000
0000
0000
0000
0000
0000
0000
0000
0000
0000
0000
0000
0000
0000
0000
0000
0000
0000
0000
0000
0000
0000
0000
0000
0000
0000
0000
0000
,
0010
0100
0000
0000
0001
0000
0000
1000
0000
0000
0100
0000
0010
0000
0002
0000
,
0000
1003
0010
1000
0001
1000
0100
0010
0001
0100
0010
1000
0001
0100
0010
1000
,
0001
0200
0000
0000
0000
0000
0000
0000
0000
0000
0000
0000
0000
0000
0000
0320
0000
0000
0000
0000
0000
0230
0000
0000
,
0000
0302
0000
0010
0010
0023
0000
0000
,
0000
0230
0000
0000
0000
2300
0000
3002
,
0000
0203
0000
0320
0000
2030
3020
0230
,
0302
0000
0000
0000
0000
0023
0000
0230
,
0000
2300
0000
0001
0001
3002
0000
0000
,
0000
2003
0000
3200
0000
2300
0000
3020
,
0000
0000
0230
0000
0000
0000
0302
0000
0000
0000
0203
0000
0301
1000
0100
0010
,
0002
0000
0000
0000
0000
0000
0000
0000
0000
0000
0000
0000
1003
0000
0001
0100
,
0020
0000
0000
2030
0000
0000
3200
0000
,
0010
0320
0000
0032
0000
0000
2003
0000
,
0002
0000
0000
3003
0000
0000
0000
0000
;
