#TITLE:Go Beyond!! -Jazzy Mix-;
#SUBTITLE:;
#ARTIST:xi;
#TITLETRANSLIT:;
#SUBTITLETRANSLIT:;
#ARTISTTRANSLIT:;
#GENRE:Progressive Jazz;
#CREDIT:CuzcoBlocko;
#BANNER:[Simfile Buffet] - Go Beyond!! -Jazzy Mix-.png;
#BACKGROUND:[Simfile Buffet] - Go Beyond!! -Jazzy Mix--bg.png;
#LYRICSPATH:;
#CDTITLE:;
#MUSIC:[Simfile Buffet] - Go Beyond!! -Jazzy Mix-.ogg;
#OFFSET:-1.026170;
#SAMPLESTART:24.440805;
#SAMPLELENGTH:11.707321;
#SELECTABLE:YES;
#BPMS:0.000000=164.000000,
128.000000=82.000000,
144.000000=164.000000;
#STOPS:;
#BGCHANGES:;
#KEYSOUNDS:;
#ATTACKS:;

//---------------dance-single - Holy shit that ending wow----------------
#NOTES:
     dance-single:
     C 12 X 17:
     Challenge:
     12:
     0.909862,1.070159,0.030768,0.384604,1.307652,828.000000,824.000000,4.000000,50.000000,33.000000,0.000000,0.909862,1.070159,0.030768,0.384604,1.307652,828.000000,824.000000,4.000000,50.000000,33.000000,0.000000:
// measure 0
0000
0000
0000
0000
,  // measure 1
0000
0000
0000
0000
,  // measure 2
0000
0000
0000
0000
,  // measure 3
0000
0000
0000
0000
0000
0000
0000
0000
0000
0000
0000
0000
0000
0000
1000
0001
,  // measure 4
2000
0000
0010
0000
0010
0000
0000
0001
0000
0000
0100
0000
0000
0000
3100
1000
,  // measure 5
0002
0000
0000
0000
0010
0000
0000
1003
0001
1000
0100
1000
0001
1000
0100
1000
,  // measure 6
0002
0000
0000
0000
0010
0000
1003
0001
0100
0010
0100
0001
1000
0100
0010
0100
,  // measure 7
2000
0000
3100
0000
0001
0000
0100
0010
0100
1000
0001
0100
0010
0100
0001
1000
,  // measure 8
0200
0000
0310
0000
0001
0000
0001
0100
0010
0000
0100
0001
0000
1000
0100
0000
,  // measure 9
0010
0000
0001
0000
1000
0000
1000
0010
0000
0100
0001
0000
0010
0100
2000
3001
,  // measure 10
0200
0310
0000
1000
0100
0000
0010
0001
0000
0001
0010
0100
1000
0001
0200
0310
,  // measure 11
0100
0000
0010
0000
1000
0000
1000
0001
0000
0001
0010
0100
1000
0001
1000
0000
,  // measure 12
0020
0000
0130
0000
1000
0000
0100
0010
0000
1000
0001
1000
0100
0010
0002
1003
,  // measure 13
0100
0000
0000
0000
0000
0000
0010
0000
0000
0000
0000
0000
1000
0000
0000
0000
0000
0000
0010
0000
0000
0001
0000
0000
0000
0000
0000
0001
0000
0000
1000
0000
0010
0000
1000
0000
0010
0000
0000
0100
0000
0000
0001
0000
0000
1000
0000
0000
,  // measure 14
0002
0010
0023
0001
,  // measure 15
0230
00M0
0001
000M
1000
M000
0310
0MM0
,  // measure 16
1002
0000
0010
0000
0013
0000
0100
0000
0010
0000
0001
1000
0000
1000
0010
0000
,  // measure 17
0100
0000
0001
0000
0001
0000
0100
0000
1000
0000
0100
0010
1000
0000
0010
0100
,  // measure 18
0001
0000
0100
0001
1000
0100
1000
0001
0100
0001
1000
0010
0100
0001
1000
0010
,  // measure 19
0000
0100
0001
0000
0001
0000
0100
0010
1000
0000
0001
0000
0400
0001
0000
0310
,  // measure 20
1000
0000
0001
0000
0001
0000
0100
0001
0000
0100
0001
1000
0100
0000
0001
0000
,  // measure 21
0100
0000
0100
0000
0010
0000
0001
1000
0010
0000
0100
0001
1000
0000
0100
0000
,  // measure 22
0100
0010
1000
0010
0100
1000
0010
0100
,  // measure 23
0001
0000
0000
0100
0000
0000
0010
0000
0000
1000
0000
0000
0010
0000
0000
0000
0000
0000
0100
0000
0000
0001
0000
0000
0010
0000
0000
0000
0000
0000
0001
0000
0000
0000
0000
0000
1000
0000
0010
0000
1000
0000
0001
0000
0000
0000
0000
0000
,  // measure 24
0200
0000
0310
0000
0010
0000
1000
0001
0010
0000
1000
0010
0000
0010
0001
0000
,  // measure 25
0100
0000
0001
0000
4000
0000
0000
0000
3100
0010
0001
1000
0010
0000
0001
0000
,  // measure 26
0010
1000
0010
0100
0001
1000
0100
0010
0100
1000
0001
0010
0100
1000
0010
0100
,  // measure 27
0004
0100
0000
1003
0010
0000
1000
0001
0010
0100
1000
0010
0000
0001
0000
0010
,  // measure 28
0100
0000
0001
1000
0000
0010
0000
0010
0100
0001
1000
0010
0100
0000
0001
0010
,  // measure 29
0100
0001
0000
0100
0010
0001
0000
0100
0010
1000
0001
1000
0100
0010
0001
1000
,  // measure 30
0004
0000
0000
0000
,  // measure 31
0043
0000
0000
0000
,  // measure 32
0032
0000
0000
0000
0000
0000
0000
0000
0000
0103
0000
0000
0001
0000
0000
1000
0000
0000
0010
0000
0001
0000
0010
0000
2000
0000
0000
0000
0000
0000
3100
0000
0000
0000
0000
0000
1000
0000
0001
0000
1000
0000
0010
0000
0100
0000
0010
0000
,  // measure 33
2000
0000
0000
0000
0000
0000
0000
0000
0000
0000
0000
0000
0000
0000
0000
0000
0000
0000
0000
0000
0000
0000
0000
0000
3100
0000
0000
0000
0000
0000
0000
0000
0000
0000
0000
0000
0100
0000
0000
0000
0000
0000
0000
0000
0000
0000
0000
0000
0010
0000
0000
0000
0000
0000
0000
0000
0000
0000
0000
0000
0000
0000
0000
0000
0001
0000
0000
0000
0000
0000
0000
0000
1000
0000
0000
0000
0000
0000
0000
0000
0010
0000
0000
0000
0000
0000
0000
0000
0000
0000
0000
0000
0000
0000
0000
0000
0002
0000
0000
0000
0000
0000
0000
0000
0000
0000
0000
0000
0000
0000
0000
0000
0000
0000
0000
0000
0000
0000
0000
0000
0013
0000
0000
0000
0000
0000
0000
0000
0000
0000
0000
0000
1000
0000
0000
0000
0000
0000
0001
0000
0000
0000
0000
0000
1000
0000
0000
0000
0000
0000
0000
0000
0000
0000
0000
0000
0000
0000
0000
0000
0000
0000
0000
0000
0000
0000
0000
0000
0100
0000
0000
0000
0000
0000
0000
0000
0000
0000
0000
0000
0000
0000
0000
0000
0000
0000
0000
0000
0000
0000
0000
0000
,  // measure 34
0020
0000
0000
0000
0000
0000
0000
0000
0000
0000
0000
0000
0100
0000
0000
0000
0000
0000
0000
0000
0000
0000
0000
0000
0130
0000
0000
0000
0000
0000
0000
0000
0000
0000
0000
0000
1000
0000
0000
0000
0000
0000
0001
0000
0000
0000
0000
0000
1000
0000
0000
0000
0000
0000
0000
0000
0000
0000
0000
0000
0000
0000
0000
0000
0010
0000
0000
0000
0000
0000
0000
0000
0000
0000
0000
0000
0000
0000
0000
0000
0100
0000
0000
0000
0000
0000
0000
0000
0000
0000
0000
0000
0000
0000
0000
0000
0004
0000
0000
0000
0000
0000
0000
0000
0000
0000
0000
0000
0000
0000
0000
0000
0000
0000
0000
0000
0000
0000
0000
0000
0403
0000
0000
0000
0000
0000
0000
0000
0000
0000
0000
0000
0000
0000
0000
0000
0000
0000
0000
0000
0000
0000
0000
0000
0340
0000
0000
0000
0000
0000
0000
0000
0000
0000
0000
0000
0000
0000
0000
0000
0000
0000
0000
0000
0000
0000
0000
0000
1030
0000
0000
0000
0000
0000
0000
0000
0001
0000
0000
0000
0000
0000
0000
0000
1000
0000
0000
0000
0000
0000
0000
0000
,  // measure 35
0200
0000
0310
0001
0010
0000
0001
1000
0001
0010
0100
1000
0001
0010
0100
1000
0020
0000
0M00
0000
0001
0000
000M
0000
1000
0000
M000
0000
0130
0000
0MM0
0000
,  // measure 36
1002
0000
0000
0103
0000
0000
0001
0100
0010
0100
0001
0100
0010
1000
0001
0010
,  // measure 37
0100
0000
0010
0001
0000
0001
0010
0000
0001
0000
0001
0000
1000
0010
0000
0200
,  // measure 38
0000
0000
0301
1000
0100
0000
0001
0000
0100
0000
0010
0000
0001
0000
0100
0000
,  // measure 39
0010
0000
0000
1000
0000
1000
0001
0000
0010
0100
1000
0000
0001
1000
0001
1000
,  // measure 40
0020
0000
0130
0001
1000
0000
0100
0000
0010
0000
1000
0000
0010
0000
0100
0000
,  // measure 41
1000
0000
0000
0010
0100
0010
1000
0001
1000
0000
0100
0000
0100
0010
0001
0010
,  // measure 42
0200
0000
0000
0000
1300
0001
0100
0001
1000
0010
0000
1000
0001
0000
0001
0000
,  // measure 43
0010
0100
0010
0001
1000
0001
0010
0100
1000
0100
0010
0100
1000
0001
0100
0010
,  // measure 44
2000
0000
3001
0000
0100
0000
0010
1000
0001
0010
0100
1000
0001
0100
0001
1000
,  // measure 45
0010
0100
0001
1000
0100
0010
0001
1000
0010
0100
0010
1000
0010
0100
0001
1000
,  // measure 46
0100
0000
0000
0001
0100
0000
1000
0000
0000
0001
1000
0001
1000
0001
0200
0000
,  // measure 47
0000
0000
0000
0000
0000
0000
0000
0310
0000
0000
0000
0000
1000
0000
0000
0000
0000
0100
0000
0000
0000
0000
0010
0000
0000
0000
0000
0001
0000
0000
0000
0000
0100
0000
0000
0000
0000
0000
0000
0000
0010
0000
0000
0000
0000
0000
0000
0000
0100
0000
0000
0000
0001
0000
0000
0000
1000
0000
0000
0000
0100
0000
0000
0000
,  // measure 48
0020
0031
1000
0100
0010
0001
1000
0010
0000
0000
0001
0010
0000
0010
1000
0001
,  // measure 49
0010
0100
1000
0001
0100
0010
1000
0001
0100
0000
0100
0000
0010
0100
0010
0000
,  // measure 50
0200
0000
0001
0000
0302
1000
2003
0100
,  // measure 51
3200
M000
0010
00M0
0001
000M
1300
0M00
,  // measure 52
0010
0000
0000
0000
0000
MMMM
0000
0000
1002
0000
0000
0000
1003
0000
0001
0000
0100
0000
0000
0000
0100
0000
0001
0000
1000
0000
0010
0000
2000
0000
3001
0000
,  // measure 53
0010
0000
0100
0010
0100
1000
0001
0010
0001
0000
0100
1000
0000
0100
0001
0000
,  // measure 54
0020
0000
0000
0000
0000
0000
0001
0000
0000
0000
0000
0000
0031
0000
0000
1000
0000
0000
0001
0000
0000
0100
0000
0000
0010
0000
0000
0000
0000
0000
0000
0000
0001
0000
0000
0000
0000
0000
0000
0000
0010
0000
0000
0000
0000
0000
0000
0000
,  // measure 55
1000
0000
0100
0000
0010
0001
1000
0100
0020
0000
4000
0000
0000
0000
3000
0000
,  // measure 56
0130
0000
0000
0000
1000
0000
0001
0010
0100
1000
0001
0010
0100
0010
0002
0103
,  // measure 57
0010
0000
0000
0000
0000
0000
1000
0000
0000
0000
0000
0000
1000
0000
0000
0001
0000
0000
0010
0000
0000
0100
0000
0000
0010
0000
0000
0000
0000
0000
0000
0000
1000
0000
0000
0000
0000
0000
0000
0000
0001
0000
0000
0000
0000
0000
0000
0000
,  // measure 58
0100
0000
1000
0001
0010
0000
0001
1000
0000
1000
0001
0100
0001
1000
0010
0100
,  // measure 59
0001
0000
0010
0000
1000
0000
0010
0001
0000
1000
0010
0000
1000
0100
0000
0010
,  // measure 60
0002
0000
0000
0000
1003
0000
0001
0100
0001
0000
1000
0100
0010
0100
0002
0000
,  // measure 61
0103
0000
1000
0001
0100
0010
1000
0001
0100
0000
0010
0001
0010
0100
0001
0000
,  // measure 62
0200
0000
0000
0000
0000
0000
0310
0000
0000
0000
0000
0000
0100
0000
0000
0001
0000
0000
1000
0000
0000
0100
0000
0000
0010
0000
0000
0000
0000
0000
0000
0000
1000
0000
0000
0000
0000
0000
0000
0000
0010
0000
0000
0000
0000
0000
0000
0000
,  // measure 63
0001
0000
1000
0001
0010
0100
0010
0001
0200
0000
4000
0000
0000
0000
3000
0000
,  // measure 64
0310
0000
0000
0000
1000
0000
0010
1000
0010
0100
0001
1000
0010
1000
0002
0013
,  // measure 65
0100
0000
0000
0000
0000
0000
0010
0000
0000
0000
0000
0000
0100
0000
0000
1000
0000
0000
0001
0000
0000
0100
0000
0000
0010
0000
0000
0000
0000
0000
0000
0000
0001
0000
0000
0000
0000
0000
0000
0000
1000
0000
0000
0000
0000
0000
0000
0000
,  // measure 66
0100
0000
0010
0100
0010
0000
1000
0001
1000
0100
0010
0100
1000
0001
0010
0100
,  // measure 67
1000
1000
0001
0001
0010
4000
0000
0000
,  // measure 68
3020
0000
0031
0000
0001
0000
1000
0001
0100
0000
0010
1000
0000
0000
1000
0100
,  // measure 69
0010
0000
1000
0000
000M
0000
0010
0000
0001
0000
0000
0000
01M0
0000
1000
0000
0000
0000
0100
0000
M001
0000
1000
0000
0100
0000
0010
0000
0000
0MM0
0000
0000
,  // measure 70
2001
0000
3010
0000
1000
0010
0000
MM10
0001
1000
0100
0010
0001
1000
0001
0100
,  // measure 71
0010
1000
0001
0000
1000
0000
0001
0000
0010
0000
0100
0000
0010
0001
0100
0020
,  // measure 72
0000
0000
1030
0001
1000
0100
0010
0100
1000
0010
0100
0010
1000
0001
0100
0001
,  // measure 73
1000
0000
0000
0100
0000
0000
0000
0000
0000
M1M0
0000
0000
0001
0000
0000
0000
0000
0000
0010
0000
0000
0000
0000
0000
0100
0000
0000
1000
0000
0000
0001
0000
0000
0100
0000
0000
0010
0000
0000
1000
0000
0000
0001
0000
0100
0000
0010
0000
,  // measure 74
2000
3010
0000
1000
0001
0010
0000
0M1M
1000
0001
1000
0100
0010
0001
1000
0100
,  // measure 75
0010
0001
1000
0000
0001
0000
1000
0000
0010
0000
0100
0000
0001
1000
0001
0020
,  // measure 76
0000
0000
0001
0000
0130
1000
0100
0010
0001
0100
0010
0100
0001
0010
0100
0010
,  // measure 77
0001
0100
0000
01MM
1000
0000
0010
0000
0001
0000
0MM4
0100
0000
1000
0000
0103
,  // measure 78
0010
0100
0010
0100
0001
1000
0001
0010
0100
0010
0001
1000
0001
0100
0010
0100
,  // measure 79
0001
0100
0000
0200
2000
0000
0000
0000
3300
0000
0000
0000
0000
0000
0000
0000
;
