#VERSION:0.83;
#TITLE:Desert Technology;
#SUBTITLE:;
#ARTIST:vgmBor;
#TITLETRANSLIT:;
#SUBTITLETRANSLIT:;
#ARTISTTRANSLIT:;
#GENRE:;
#ORIGIN:;
#CREDIT:;
#BANNER:[Simfile Buffet] - Desert Technology.png;
#BACKGROUND:[Simfile Buffet] - Desert Technology-bg.png;
#PREVIEWVID:;
#JACKET:[Simfile Buffet] - Desert Technology-jacket.png;
#CDIMAGE:;
#DISCIMAGE:;
#LYRICSPATH:;
#CDTITLE:;
#MUSIC:[Simfile Buffet] - Desert Technology.ogg;
#OFFSET:0.000000;
#SAMPLESTART:28.799999;
#SAMPLELENGTH:14.400000;
#SELECTABLE:YES;
#BPMS:0.000=100.000,
64.000=200.000,
126.000=50.000,
130.000=100.000,
184.000=66.667,
186.000=200.000,
219.000=100.000,
222.000=200.000;
#STOPS:78.000=0.300,
109.000=0.300,
150.000=0.300,
150.500=0.300,
177.000=0.300,
177.500=0.300,
202.000=0.300;
#DELAYS:;
#WARPS:;
#TIMESIGNATURES:0.000=4=4;
#TICKCOUNTS:0.000=4;
#COMBOS:0.000=1;
#SPEEDS:0.000=1.000=0.000=0;
#SCROLLS:0.000=1.000;
#FAKES:;
#LABELS:0.000=Song Start;
#LASTSECONDHINT:112.500000;
#BGCHANGES:;
#KEYSOUNDS:;
#ATTACKS:
;

//---------------dance-single - ----------------
#NOTEDATA:;
#CHARTNAME:;
#STEPSTYPE:dance-single;
#DESCRIPTION:;
#CHARTSTYLE:;
#DIFFICULTY:Hard;
#METER:10;
#RADARVALUES:0.681358,0.813830,0.044326,0.044326,0.718085,538.000000,533.000000,5.000000,5.000000,0.000000,0.000000,0.000000,0.000000,0.000000,0.681358,0.813830,0.044326,0.044326,0.718085,538.000000,533.000000,5.000000,5.000000,0.000000,0.000000,0.000000,0.000000,0.000000;
#CREDIT:;
#NOTES:
0000
0000
0000
0000
,
0000
0000
0000
0000
,
0100
0001
1000
0010
0000
0001
0010
0000
1000
0010
0000
0100
0001
0000
1000
0000
,
0100
1000
0001
0010
0000
1000
0010
0000
0001
0010
0000
0010
0100
1000
0001
0100
,
0001
0001
0000
1000
0001
0010
0100
0100
0000
0100
1000
0001
0010
0001
1000
0010
,
1000
1000
0000
0001
1000
0010
0100
0100
0000
0100
0001
1000
0010
0001
0010
0000
,
1000
0100
0000
0100
0010
0001
1000
0010
0000
0010
0100
0001
1000
0100
1000
0001
,
0010
0010
0000
0001
0001
0000
0100
0100
0000
0010
0010
1000
0001
1000
0100
0000
,
1000
0000
0000
0001
0010
0000
0000
0010
0001
0000
0100
0000
0010
0000
0000
0010
,
1000
0000
0100
0000
0010
0000
0000
0010
0001
0000
1000
0000
0010
0000
0010
0100
,
0001
0001
0000
1000
0010
0000
0000
0010
1000
0000
0100
0000
0010
0000
0000
0010
,
0001
0000
0100
0000
0010
0000
0000
0010
1000
0000
0010
1000
0001
0010
0100
0010
,
0001
1000
0000
1000
0100
0000
0000
0010
0100
0000
1000
0000
0010
0000
0000
0010
,
0100
0000
0001
0000
1000
0000
0000
1000
0001
0000
0100
0000
0001
0000
0001
0000
,
1000
0001
0000
0001
0100
0000
0000
0010
0100
0000
0001
0000
0010
0000
0000
0010
,
0100
0000
1000
0000
0001
0000
0000
0001
0100
0010
0100
0010
1000
0001
1000
0001
,
1000
0100
0010
0100
1000
0100
0010
0100
,
1000
0001
0010
0001
0100
0001
0010
0000
,
0001
0100
0010
0100
0001
0100
0010
1000
,
0001
0010
0100
0000
1001
0000
0001
0010
,
0100
0010
0001
0010
0100
0010
0001
1000
,
0100
1000
0010
1000
0100
0000
1000
0010
,
0100
0010
1000
0010
0100
0001
1000
0100
,
0010
0000
0000
0001
0010
0000
0100
1000
0001
1000
0001
1000
0001
0000
0100
0000
,
0010
0100
1000
0100
0010
0100
0001
0010
,
0100
1000
0001
0100
0000
0001
1000
0100
,
0010
0100
0001
0100
0010
0001
1000
0100
,
0010
0000
0110
0000
0010
0100
1000
0100
,
0001
0100
1000
0010
0001
0010
0100
0001
,
1000
0100
0010
0000
0100
0000
1000
0010
,
0000
0000
0100
0000
0001
0000
0010
0000
0001
0000
0001
0000
0001
0000
0000
1000
,
0100
0000
0010
0001
1000
0001
1000
0000
0020
0000
0000
0000
0000
0000
0000
0000
,
0030
0000
0000
0000
0000
0000
0000
0000
1000
0000
0100
0100
1000
0010
0000
0000
,
0100
0000
0001
0001
0100
0010
0000
0000
0100
0000
0000
0001
0010
0000
0100
0010
,
0000
0010
0000
0001
0100
0000
0000
0100
0001
0000
0010
0010
0001
0100
0000
0000
,
0010
0000
1000
1000
0010
0100
0000
0000
0001
0000
0000
0010
1000
0000
0010
0001
,
0000
0100
0000
0100
0010
0100
0010
0100
0001
0000
1000
1000
0100
1000
0000
0000
,
0010
0000
0100
0100
0001
1000
0010
0000
2000
0000
3002
0000
1003
0000
0100
0100
,
0010
0001
1000
0100
1000
0000
0010
0010
0100
0001
0100
0000
0001
0000
0010
0100
,
1000
0100
1000
0000
0001
0100
0001
0100
0010
0100
1000
0100
0010
1000
0010
1000
,
0001
1000
0100
1000
0001
0010
0001
0010
0100
1000
0100
1000
0001
0100
0001
0100
,
0010
0000
0000
0010
1000
0100
1000
0100
0010
0100
0001
0100
0010
0001
0010
0001
,
1000
0001
0100
0001
1000
0100
0000
0100
0010
0001
1000
0001
0000
0100
0010
1000
,
0000
0010
0100
0000
0001
0010
0001
0010
0001
1000
0001
0100
0010
1000
0010
0100
,
0010
0000
1000
0000
0002
0000
2003
0000
3001
0000
0001
0010
0100
1000
0010
0100
,
0001
0100
0001
0100
1000
0100
1000
0100
0010
1000
0001
0010
0100
1000
0001
0000
,
1001
0000
0000
0000
0000
0000
0000
0000
0001
1000
0001
1000
0001
1000
0001
1000
,
0001
0010
0001
0010
0100
1000
0100
1000
,
0001
0100
0010
1000
1000
0010
0100
0001
,
1000
0100
1000
0100
0010
0001
0010
0001
,
1000
0010
0100
0001
1001
0000
1000
0010
,
1000
0010
0100
0001
0100
0001
1000
0100
,
0010
0001
0001
0010
0100
1000
0001
0100
,
0001
0100
0010
1000
0010
1000
0001
0001
,
0001
0000
0000
1000
0010
0000
0100
0001
0010
0100
1000
0000
1001
0000
0000
0000
,
0000
0000
0000
0000
0000
0000
0000
0000
0001
1000
0001
1000
0001
1000
0001
1000
,
0001
0010
0100
0100
1000
0001
0001
0100
,
0010
0010
1000
0100
0000
0000
0000
0000
;

//---------------dance-single - ----------------
#NOTEDATA:;
#CHARTNAME:;
#STEPSTYPE:dance-single;
#DESCRIPTION:;
#CHARTSTYLE:;
#DIFFICULTY:Easy;
#METER:5;
#RADARVALUES:0.286221,0.381483,0.186170,0.292553,0.000000,226.000000,205.000000,21.000000,33.000000,0.000000,0.000000,0.000000,0.000000,0.000000,0.286221,0.381483,0.186170,0.292553,0.000000,226.000000,205.000000,21.000000,33.000000,0.000000,0.000000,0.000000,0.000000,0.000000;
#CREDIT:;
#NOTES:
// measure 0
0000
0000
0000
0000
,  // measure 1
0000
0000
0000
0000
,  // measure 2
0001
0000
0000
0100
0000
0100
0000
0000
,  // measure 3
1000
0000
0000
0100
0000
0100
0001
0010
,  // measure 4
0100
1000
0100
0100
,  // measure 5
0010
0001
0010
0010
,  // measure 6
0001
0100
0001
0001
,  // measure 7
1000
1000
0001
1001
,  // measure 8
1200
0310
0020
0031
,  // measure 9
0002
0103
2000
3100
,  // measure 10
0201
0310
0020
1030
,  // measure 11
2000
3001
0002
0013
,  // measure 12
0100
1000
2000
3001
,  // measure 13
0002
0103
0200
0320
,  // measure 14
0030
0100
0002
1003
,  // measure 15
2000
3001
0010
0100
,  // measure 16
1000
0000
0000
0100
0000
0000
1000
0000
,  // measure 17
0000
0010
0000
0000
0100
0000
0000
0000
,  // measure 18
0001
0000
0000
0100
0000
0000
0001
0000
,  // measure 19
0010
0010
0110
0100
,  // measure 20
0000
0010
0000
0000
0001
0000
0000
0100
,  // measure 21
0000
0010
0000
0010
,  // measure 22
0000
1000
0000
0000
0100
0000
0010
0000
,  // measure 23
0100
0010
0000
0001
,  // measure 24
0000
0100
0000
0000
0001
0000
0000
0010
,  // measure 25
0000
0001
0000
1000
,  // measure 26
0000
0010
0000
0000
1000
0000
0100
0000
,  // measure 27
0100
0000
0110
0000
0010
0000
0000
0001
,  // measure 28
0000
0000
1000
0000
0000
0010
0000
0000
,  // measure 29
0100
0000
0100
0001
,  // measure 30
1000
0100
0020
0000
,  // measure 31
0000
0030
2002
0000
,  // measure 32
3003
0000
0000
0000
0002
0000
0000
1003
,  // measure 33
0010
0100
0001
0000
2000
0000
3200
0000
,  // measure 34
0320
0000
0031
0000
2000
0000
0000
3010
,  // measure 35
0100
0001
1000
0000
0200
0000
0320
0000
,  // measure 36
0032
0000
1003
0000
0020
0000
0000
1030
,  // measure 37
0001
0100
0010
0000
1010
0101
1001
0000
,  // measure 38
0001
0000
0200
0000
0000
0301
0010
0100
,  // measure 39
1000
0000
0001
0001
0001
0000
0010
0000
,  // measure 40
0100
0000
1000
1000
1000
0000
0010
0000
,  // measure 41
0100
0000
0010
0010
0010
0000
1000
0000
,  // measure 42
0001
0000
0100
0100
0100
0000
0010
0000
,  // measure 43
1001
0000
1000
1000
1000
0000
0100
0000
,  // measure 44
0010
0000
0011
1100
1001
0000
1000
0000
,  // measure 45
0010
0010
0010
0000
1000
0000
0001
0000
,  // measure 46
0020
0030
2002
3003
,  // measure 47
0001
0001
0100
0100
,  // measure 48
0001
0010
0100
1100
,  // measure 49
1000
1000
0100
0100
,  // measure 50
0010
0001
1001
1000
,  // measure 51
1000
0010
0010
0001
,  // measure 52
0010
1000
0101
0001
,  // measure 53
0001
0010
0010
1000
,  // measure 54
0010
0002
0003
2002
,  // measure 55
0000
3003
0110
1001
,  // measure 56
1000
0000
0000
0100
0000
0000
0010
0000
,  // measure 57
0000
0001
0000
1001
0000
0000
0000
0000
;
