#TITLE:CODE\:2;
#SUBTITLE:;
#ARTIST:HEXA;
#TITLETRANSLIT:CODE 2;
#SUBTITLETRANSLIT:;
#ARTISTTRANSLIT:;
#GENRE:;
#CREDIT:mf32892;
#BANNER:;
#BACKGROUND:;
#LYRICSPATH:;
#CDTITLE:;
#MUSIC:[Simfile Buffet] - CODE2.ogg;
#OFFSET:1.521162;
#SAMPLESTART:80.543358;
#SAMPLELENGTH:15.000000;
#LASTBEATHINT:1.313726;
#SELECTABLE:YES;
#BPMS:0.000000=155.000000
;
#STOPS:
;
#BGCHANGES:;
#KEYSOUNDS:;
#ATTACKS:;

//---------------dance-single - ----------------
#NOTES:
     dance-single:
     :
     Hard:
     8:
     0.514305,0.563181,0.097521,0.040634,0.288498,443.000000,431.000000,12.000000,5.000000,0.000000,0.000000,0.514305,0.563181,0.097521,0.040634,0.288498,443.000000,431.000000,12.000000,5.000000,0.000000,0.000000:
0000
0000
0000
0000
,
0000
0000
0000
0000
,
0000
0000
0000
0000
,
0000
0000
0000
0000
,
0000
0000
0000
0000
,
1000
0010
0100
0001
,
0010
0100
1000
0001
,
1000
0010
0100
0001
,
1000
0000
0000
0000
0001
0000
0000
0000
0010
0000
0001
1000
0001
1000
0000
0000
,
0010
1000
0100
1000
,
0001
0010
0100
0001
,
0100
1000
0010
0100
,
0001
0000
1000
0000
,
0001
0100
1000
0100
,
0001
0010
0100
1000
,
0010
0100
0001
1000
,
0100
0000
0010
0000
0001
0000
1000
1000
,
1000
0100
1000
0010
,
0100
0001
0010
0100
,
1100
0000
0001
0000
1000
0100
0010
0001
,
1000
0000
0000
0000
,
0001
0000
0000
0001
0000
0000
1000
0000
0000
1000
0000
0000
0001
0000
0000
0001
,
0000
0000
0010
0000
0000
0010
0000
0000
0100
0000
0000
0000
0000
0000
0000
0000
,
1000
0000
0000
1000
0000
0000
0010
0000
0000
0010
0000
0000
0100
0000
0000
0100
,
0000
0000
0001
0000
0000
0001
0000
0000
1000
0000
0100
0000
1000
0000
0001
0000
,
1000
0000
0000
1000
0000
0000
0010
0000
0000
0010
0000
0000
0100
0000
0000
0100
,
0000
0000
0010
0000
0000
0010
0000
0000
1000
0000
0000
0000
0000
0000
0001
1000
,
0001
0000
0000
0001
0000
0000
0010
0000
0000
0010
0000
0000
0100
0000
0000
0100
,
1000
0000
0000
1000
0001
0000
0000
0001
0100
0000
0010
0000
0100
0000
0010
0000
,
1000
0100
1000
0000
0001
0010
0001
0000
,
0100
0001
0100
0000
0010
0100
0010
0000
,
1000
0001
1000
0000
0001
0010
0001
0000
,
0010
0000
0100
0000
0010
0000
0000
0000
0001
0000
0000
0100
0000
0000
0001
0000
,
1000
0100
1000
0000
0001
0010
0100
0000
,
0010
0001
0010
0000
0001
0100
0010
0000
,
1000
0010
1000
0010
0100
0100
0001
0001
,
1000
0000
0100
0000
0000
0100
0000
0000
0010
0000
0000
0010
0000
0000
0001
0000
,
1000
0000
0000
1000
0000
0000
1000
0000
0010
0000
0000
1000
0000
0000
0100
0000
,
0010
0000
0000
0010
0000
0000
0010
0000
0001
0000
0000
1000
0000
0000
1010
0000
,
0001
0000
0000
0001
0000
0000
0001
0000
0010
0000
0000
0100
0000
0000
1000
0000
,
0001
0000
0000
0001
0000
0000
0001
0000
0100
0000
0000
0010
0000
0000
0101
0000
,
1000
0000
0000
1000
0000
0000
1000
0000
0100
0000
0000
0001
0000
0000
0100
0000
,
0010
0000
0000
0010
0000
0000
0010
0000
0001
0000
0000
0100
0000
0000
0101
0000
,
0010
0000
0000
0010
0000
0000
0010
0000
1000
0000
0000
0100
0000
0000
0001
0000
,
0100
0000
0000
0100
0000
0000
0100
0000
1000
0000
0000
0010
0000
0000
0100
0000
,
0001
0000
0000
0001
0010
0000
0100
0000
0010
0000
0000
0010
0001
0000
1000
0000
,
0010
0000
0000
0010
0100
0000
0010
0000
1000
0000
0000
1000
0100
0000
0020
0000
,
0130
0000
0000
0100
1000
0000
0001
0000
1000
0000
0000
1000
0010
0000
0100
0000
,
0001
0000
0000
0001
0100
0000
0001
0000
1000
0000
0000
1000
0100
0000
0020
0000
,
0130
0000
0000
1000
0100
0000
0010
0000
0001
0000
0000
1000
0001
0000
0100
0000
,
0010
0000
0000
1000
0001
0000
0010
0000
0100
0000
0000
0010
0001
0000
2000
0000
,
3010
0000
0000
0100
0010
0000
0001
0000
0010
0000
0000
0100
0010
0000
1000
0000
,
0001
0000
0010
0000
0100
0000
1000
0001
2000
0000
0000
0000
3001
0000
0000
0000
,
1000
0100
1000
0001
1000
0010
1000
0001
,
0010
0100
0010
0001
0010
1000
0010
0001
,
0100
0010
0100
0001
0100
1000
0100
0010
,
1000
0001
1000
0100
1000
0010
1000
0000
,
0001
0100
0001
1000
0001
0010
0001
0100
,
0010
1000
0010
0001
0010
0100
0010
1000
,
0100
0010
0100
1000
0100
0001
0100
1000
,
0001
0001
0010
0010
0001
0001
1000
1000
,
0010
0000
0100
0010
1000
0001
0010
0100
,
0010
0000
0001
0100
0001
1000
0010
0100
,
0001
0000
1000
0100
1000
0010
0100
0001
,
0010
0000
0100
0010
0001
0010
0001
1000
,
1010
0000
1000
0010
0100
0010
0100
0001
,
1000
0000
0001
0010
0100
0010
0100
0010
,
1001
0011
1100
0101
,
0110
0000
1001
0000
,
1000
0000
0000
1000
0000
0000
0010
0000
0000
0010
0000
0000
0100
0000
0000
0100
,
0000
0000
0001
0000
0000
0001
0000
0000
1000
0000
0000
0000
0000
0000
0000
0000
,
0001
0000
0000
0001
0000
0000
1000
0000
0000
1000
0000
0000
0001
0000
0000
0001
,
0000
0000
0010
0000
0000
0100
0000
0000
0010
0000
0010
0000
0001
0000
0001
0000
,
1000
0000
0000
0010
0000
0000
0100
0000
0000
0001
0000
0000
1000
0000
0000
0001
,
0000
0000
0010
0000
0000
0100
0000
0000
1001
0000
0000
0000
0000
0000
0001
1000
,
0001
0000
0000
0100
0000
0000
0010
0000
0000
1000
0000
0000
0001
0000
0000
0010
,
0100
0000
0100
0000
0010
0000
0010
0000
0001
0000
2000
0000
3010
0000
0100
0001
,
0100
0000
0000
0000
;

//---------------dance-single - ----------------
#NOTES:
     dance-single:
     :
     Challenge:
     10:
     0.799901,0.844772,0.723277,0.016253,0.958952,689.000000,600.000000,89.000000,2.000000,0.000000,0.000000,0.799901,0.844772,0.723277,0.016253,0.958952,689.000000,600.000000,89.000000,2.000000,0.000000,0.000000:
// measure 0
0000
0000
0000
0000
,  // measure 1
0000
0000
0000
0000
,  // measure 2
0000
0000
0000
0000
,  // measure 3
0000
0000
0000
0000
,  // measure 4
0000
0000
0000
0000
,  // measure 5
1010
0000
0000
0000
0001
0100
0000
0000
0001
0000
0000
0000
0010
0100
0000
0000
,  // measure 6
1000
0000
0000
0000
0010
0100
0000
0000
0010
0000
1000
0000
0001
0100
0000
0000
,  // measure 7
0001
0000
0000
0000
1000
0100
0000
0000
0010
0000
0000
0000
0001
1000
0000
0000
,  // measure 8
0010
0000
0000
0000
0100
0001
0000
0000
0010
0000
0100
0010
0100
0010
0000
0000
,  // measure 9
1001
0000
0000
0000
1000
0010
0000
0000
0100
0000
0000
0000
0010
1000
0000
0000
,  // measure 10
0001
0000
0000
0000
0010
0100
0000
0000
0010
0000
0001
0000
1000
0100
0000
0000
,  // measure 11
0010
0000
0000
0000
0100
1000
0000
0000
0001
0000
0100
0000
0010
1000
0000
0000
,  // measure 12
1001
0000
0001
0100
0001
0100
0000
0000
0110
0000
0001
0000
1000
0000
0000
0000
,  // measure 13
1000
0000
0001
0000
1000
0100
0000
0000
0010
0000
0100
0000
1000
0001
0000
0000
,  // measure 14
0100
0000
0010
0000
0100
0001
0000
0000
0010
0000
0100
0000
1000
0001
0000
0001
,  // measure 15
0100
0000
0010
0000
0100
0001
0000
0000
1000
0000
0001
0000
0010
0100
0000
0000
,  // measure 16
1000
0000
0010
0000
1000
0001
0000
0000
0010
0000
0100
0010
0100
1000
0100
0000
,  // measure 17
0100
0000
1000
0000
0001
1000
0000
0000
0010
0000
1000
0000
0001
1000
0000
0000
,  // measure 18
0100
0000
0010
0000
0001
1000
0000
0000
0010
0000
0100
0000
0001
1000
0000
0000
,  // measure 19
0110
0000
1001
0000
1000
0100
0010
0001
,  // measure 20
2001
0010
0000
3100
,  // measure 21
1010
0000
0000
1100
0000
0000
0101
0000
0000
1100
0000
0000
1010
0000
0000
0110
,  // measure 22
0000
0000
0101
0000
0000
1100
0000
0000
1001
0000
0000
0000
0000
0000
0000
0000
,  // measure 23
0011
0000
0000
0101
0000
0000
1100
0000
0000
0101
0000
0000
0011
0000
0000
0110
,  // measure 24
0000
0000
1100
0000
0000
0101
0000
0000
1001
0000
0001
0000
1000
0000
0010
0000
,  // measure 25
1010
0000
0000
0110
0000
0000
0101
0000
0000
1100
0000
0000
0101
0000
0000
0011
,  // measure 26
0000
0000
0110
0000
0000
1100
0000
0000
1001
0000
0000
0000
0000
0000
1000
0001
,  // measure 27
1000
0000
0000
1100
0000
0000
0101
0000
0000
0011
0000
0000
0101
0000
0000
0010
,  // measure 28
1000
0000
0000
1000
0001
0000
0000
0010
0100
0000
0010
0000
0001
0000
1000
0000
,  // measure 29
0001
0100
0010
1000
0100
0001
0100
1000
,  // measure 30
0010
0001
0010
1000
0001
0010
0100
1000
,  // measure 31
0001
0010
1000
0010
0001
0100
1000
0100
,  // measure 32
0001
0000
0010
0000
0100
0000
1000
0000
1100
0000
0000
0110
0000
0000
0011
0000
,  // measure 33
1001
0001
0100
0010
1000
0001
0010
0100
,  // measure 34
1001
1000
0010
0100
0001
1000
0100
0010
,  // measure 35
1001
0000
0001
0000
0100
0000
0100
0000
0010
1000
0010
1000
0001
0010
0100
1000
,  // measure 36
0001
0000
0011
0000
0000
1010
0000
0000
1100
0000
0000
0101
0000
0000
1001
0000
,  // measure 37
1000
0100
0000
0000
0010
0001
0000
0000
1000
0000
0000
0000
0001
0100
0000
0000
,  // measure 38
1000
0000
0000
0000
0100
0010
0000
0000
0001
0000
0010
0100
0000
0010
1000
0000
,  // measure 39
0001
0010
0000
0000
0100
1000
0000
0000
0010
0000
0000
1000
0100
0010
0000
0000
,  // measure 40
0001
0000
0000
0000
0100
1000
0000
0000
0100
0000
0001
1000
0001
1000
0000
1000
,  // measure 41
0010
0100
0000
0000
0100
0001
0000
0000
1000
0000
0000
0000
0001
0010
0000
0000
,  // measure 42
1000
0000
0000
0000
0010
0001
0000
0000
1000
0000
0001
0100
0010
1000
0000
0001
,  // measure 43
1000
0100
0000
0000
0100
0010
0000
0000
0001
0000
0000
1000
0010
0100
0000
0000
,  // measure 44
0001
0000
0000
0000
0010
0100
0000
0000
1000
0000
0001
0100
0001
1000
0000
0100
,  // measure 45
0010
0001
0000
0001
0100
0010
0000
1000
0010
0000
0000
1000
0001
0010
0000
0100
,  // measure 46
0010
0000
0000
0001
1000
0010
0000
0100
0010
0000
1000
0010
0100
0001
0000
1000
,  // measure 47
0001
0010
0000
0010
0100
1000
0000
0001
1000
0000
0000
0001
0100
0010
0000
0010
,  // measure 48
1000
0000
0000
1000
0100
0010
0000
0010
0001
0000
0100
0010
1000
0001
0000
0010
,  // measure 49
0001
0100
0000
0100
0001
1000
0000
1000
0001
0000
0000
0010
0100
0010
0000
0001
,  // measure 50
0100
0000
0000
0010
0100
0010
0000
1000
0100
0000
0010
0100
0010
0001
0000
0001
,  // measure 51
1000
0010
0000
0010
0100
0001
0000
1000
0001
0000
0000
0010
0100
1000
0000
0001
,  // measure 52
1000
0000
0100
0000
0010
0000
0001
1000
0020
0000
0000
0000
0130
0000
0000
0000
,  // measure 53
0001
0100
0000
0001
0010
0100
0000
1000
0001
0000
0010
0100
0010
0001
0000
0001
,  // measure 54
1000
0000
0010
0100
0010
1000
0000
1000
0001
0000
0010
0000
0100
1000
0000
1000
,  // measure 55
0001
0100
0000
0001
0010
0100
0000
0010
0001
0000
0010
0100
1000
0001
0000
0100
,  // measure 56
0010
0000
0100
0001
1000
0100
0000
0100
0010
0000
0010
0100
0010
0100
0000
1000
,  // measure 57
0001
0100
0000
0010
1000
0001
0000
0010
0100
0000
1000
0100
1000
0001
0000
0100
,  // measure 58
0001
0000
0001
0100
0001
1000
0000
0001
0010
0000
0100
0000
0010
0100
0000
0100
,  // measure 59
0010
0001
0000
1000
0010
0100
0000
0010
1000
0000
0001
0010
0100
1000
0000
0010
,  // measure 60
1000
1000
0001
0001
0011
0011
0110
0110
,  // measure 61
1000
0100
0000
0010
0100
1000
0000
0100
0010
0000
0001
0100
0001
1000
0000
0010
,  // measure 62
1000
0000
0001
0100
0010
1000
0000
0001
1000
0000
0100
0010
0001
1000
0010
0100
,  // measure 63
0001
0100
0000
0010
0100
0001
0000
0100
0010
0000
1000
0001
0010
0100
0000
1000
,  // measure 64
0100
0000
1000
0010
0100
0001
0000
1000
0001
0000
0010
0100
0010
0100
0000
1000
,  // measure 65
0001
0100
0000
0010
1000
0001
0000
0010
0100
0000
0010
0001
1000
0010
0000
0100
,  // measure 66
0010
0000
1000
0100
0010
0001
0000
1000
0001
0000
0100
0010
0100
0010
0000
1000
,  // measure 67
0001
1100
0101
0110
,  // measure 68
1001
0000
0001
0100
0001
0100
0000
0000
0110
0000
1000
0000
0001
0000
0000
0000
,  // measure 69
0011
0000
0000
0101
0000
0000
1100
0000
0000
0101
0000
0000
0011
0000
0000
0110
,  // measure 70
0000
0000
1100
0000
0000
0101
0000
0000
1001
0000
0000
0000
0000
0000
0000
0000
,  // measure 71
1010
0000
0000
1100
0000
0000
0101
0000
0000
1100
0000
0000
1010
0000
0000
0110
,  // measure 72
0000
0000
0101
0000
0000
1100
0000
0000
1001
0000
1000
0000
0001
0000
0010
0000
,  // measure 73
0011
0000
0000
0110
0000
0000
1100
0000
0000
0101
0000
0000
1100
0000
0000
1010
,  // measure 74
0000
0000
0110
0000
0000
0101
0000
0000
1001
0000
0000
0000
0000
0000
0001
1000
,  // measure 75
0001
0000
0000
0101
0000
0000
1100
0000
0000
1010
0000
0000
1100
0000
0000
0010
,  // measure 76
0001
0000
0000
0000
0000
0000
0001
0000
0000
0000
0000
0000
1000
0000
0000
0000
0000
0000
1000
0000
0000
0000
0000
0000
0010
0000
0000
0000
0000
0000
0100
0000
0001
0000
0100
0000
0001
0000
0000
0000
0000
0000
1000
0000
0000
0001
0000
0000
,  // measure 77
0010
0000
0000
0000
;
