#VERSION:0.83;
#TITLE:ix;
#SUBTITLE:;
#ARTIST:908;
#TITLETRANSLIT:;
#SUBTITLETRANSLIT:;
#ARTISTTRANSLIT:;
#GENRE:;
#ORIGIN:;
#CREDIT:;
#BANNER:;
#BACKGROUND:;
#PREVIEWVID:;
#JACKET:;
#CDIMAGE:;
#DISCIMAGE:;
#LYRICSPATH:;
#CDTITLE:;
#MUSIC:ix.ogg;
#OFFSET:0.000000;
#SAMPLESTART:47.000000;
#SAMPLELENGTH:12.000000;
#SELECTABLE:YES;
#BPMS:0.000=164.000;
#STOPS:;
#DELAYS:;
#WARPS:;
#TIMESIGNATURES:0.000=4=4;
#TICKCOUNTS:0.000=4;
#COMBOS:0.000=1;
#SPEEDS:0.000=1.000=0.000=0;
#SCROLLS:0.000=1.000;
#FAKES:;
#LABELS:0.000=Song Start;
#BGCHANGES:;
#KEYSOUNDS:;
#ATTACKS:
;

//---------------dance-single - ----------------
#NOTEDATA:;
#CHARTNAME:;
#STEPSTYPE:dance-single;
#DESCRIPTION:;
#CHARTSTYLE:;
#DIFFICULTY:Challenge;
#METER:12;
#RADARVALUES:0.787502,0.726274,0.010023,0.120273,1.132571,550.000000,549.000000,1.000000,12.000000,60.000000,0.000000,0.000000,0.000000,0.000000,0.787502,0.726274,0.010023,0.120273,1.132571,550.000000,549.000000,1.000000,12.000000,60.000000,0.000000,0.000000,0.000000,0.000000;
#CREDIT:;
#NOTES:
// measure 0
0000
0000
0000
0000
,  // measure 1
0000
0000
0000
0000
,  // measure 2
0000
0000
0000
0000
,  // measure 3
0000
0000
0000
0000
0000
0000
0000
0000
0000
0000
0000
0000
0001
0010
0100
0000
,  // measure 4
0010
0000
0100
0000
0001
0000
1000
0001
0000
0000
0100
0000
0001
0000
0010
0000
,  // measure 5
0001
0000
0100
0000
0010
0000
1000
0010
0000
0000
1000
0000
0001
0000
1000
0000
,  // measure 6
0001
0000
0100
0000
0010
0000
1000
0001
0000
0000
1000
0000
0001
0000
0100
0000
,  // measure 7
0002
0000
0000
0000
2003
0000
0000
0000
3020
0000
0000
0000
0130
0010
0100
0010
,  // measure 8
0100
0000
0001
0000
0100
0000
0001
0100
0001
0000
0100
0000
0001
0000
0100
0000
,  // measure 9
0010
0000
0100
0000
0010
0000
0100
0010
0100
0000
0010
0000
0100
0000
0010
0000
,  // measure 10
1000
0000
0010
0000
1000
0000
0010
1000
0010
0000
1000
0000
0010
0000
1000
0000
,  // measure 11
0001
0000
1000
0000
0001
0000
1000
0001
1000
0000
0001
0000
1000
0000
0001
0000
,  // measure 12
0010
0000
0001
0000
0010
0000
0001
0010
0001
0000
0010
0000
0001
0000
0010
0000
,  // measure 13
1000
0000
0100
0000
1000
0000
0100
1000
0100
0000
1000
0000
0100
0000
1000
0000
,  // measure 14
0001
0000
1000
0000
0001
0000
1000
0001
1000
0000
0001
0000
1000
0000
0001
0000
,  // measure 15
1000
0000
0001
0000
1000
0000
0001
1000
0001
0000
1000
0000
0001
0000
1000
0000
,  // measure 16
0001
0000
0100
0000
0001
0000
0100
0001
0100
0000
0000
0010
0000
0000
1000
0000
,  // measure 17
0001
0000
1000
0000
0010
0000
1000
0010
1000
0000
0000
0001
0000
0000
0010
0000
,  // measure 18
0100
0000
1000
0000
0100
0000
1000
0100
1000
0000
0000
0001
0000
0000
0010
0000
,  // measure 19
0100
0000
0010
0000
1000
0000
0001
1000
0001
0000
0000
0100
0000
0000
0001
0000
,  // measure 20
0000
0100
0000
0000
0100
0000
0100
0000
0100
0000
0000
0100
0000
0000
0100
0000
,  // measure 21
0000
0010
0000
0000
0010
0000
0010
0000
0010
0000
0000
0010
0000
0000
0010
0000
,  // measure 22
0000
0001
0000
0000
0001
0000
0001
0000
0001
0000
0000
0001
0000
0000
0001
0000
,  // measure 23
0000
1000
0000
0000
1000
0000
1000
0000
1000
0000
0000
1000
0000
0000
1000
0000
,  // measure 24
0001
0000
0000
000M
0000
0000
0001
0000
0000
000M
0000
0000
0001
0000
0000
0000
0001
0000
0100
0000
0000
0000
0001
0000
0000
0000
0000
0000
1000
0000
0001
0000
,  // measure 25
1000
0000
0000
M000
0000
0000
1000
0000
0000
M000
0000
0000
1000
0000
0000
0000
1000
0000
0001
0000
0000
0000
1000
0000
0000
0000
0000
0000
0001
0000
1000
0000
,  // measure 26
0010
0000
0000
00M0
0000
0000
0010
0000
0000
00M0
0000
0000
0010
0000
0000
0000
0010
0000
1000
0000
0000
0000
0010
0000
0000
0000
0000
0000
1000
0000
0010
0000
,  // measure 27
0100
0000
0000
0M00
0000
0000
0100
0000
0000
0M00
0000
0000
0100
0000
0000
0000
0100
0000
0010
0000
0000
0000
0100
0000
0000
0000
0000
0000
0100
0000
0001
0000
,  // measure 28
0100
0000
0000
0M00
0000
0000
0100
0000
0001
0M00
0000
0000
0100
0000
0000
0000
0001
0000
0100
0000
0000
0000
0001
0000
0100
0000
0000
0000
0001
0000
0100
0000
,  // measure 29
0001
0000
0000
000M
0000
0000
0001
0000
1000
000M
0000
0000
0001
0000
0000
0000
1000
0000
0001
0000
0000
0000
1000
0000
0001
0000
0000
0000
0001
0000
1000
0000
,  // measure 30
0010
0000
0000
00M0
0000
0000
0010
0000
1000
00M0
0000
0000
0010
0000
0000
0000
1000
0000
0010
0000
0000
0000
1000
0000
0010
0000
0000
0000
1000
0000
0010
0000
,  // measure 31
0100
0000
0000
0MM0
0000
0000
0001
0000
0000
M00M
0000
0000
1000
0000
0000
0000
0001
0000
1000
0000
0000
0000
0001
0000
1000
0000
0000
0000
1000
0000
0001
0000
,  // measure 32
1000
0000
0000
0001
1000
0000
0010
0000
0100
0010
0000
1000
0010
0000
0100
0001
,  // measure 33
0100
0000
0000
0001
0100
0000
0001
0000
1000
0001
0000
1000
0010
0000
1000
0010
,  // measure 34
1000
0000
0000
0001
1000
0000
0001
0000
1000
0001
0000
1000
0001
0000
1000
0100
,  // measure 35
1000
0000
0000
0100
0010
0000
0001
0000
1000
0010
0000
1000
0001
0000
0100
0001
,  // measure 36
0100
0000
0000
0001
0100
0000
0010
0000
0100
0010
0000
0100
0001
0000
1000
0001
,  // measure 37
1000
0000
0000
0001
0100
0000
0010
0000
1000
0010
0000
0100
0010
0000
1000
0001
,  // measure 38
1000
0000
0000
0001
1000
0000
0100
0000
0010
0001
0000
0001
1000
0000
0001
1000
,  // measure 39
0001
0000
0000
1000
0010
0000
0100
0000
0010
1000
0000
0001
1000
0000
0100
1000
,  // measure 40
0100
0000
0000
1000
0100
0000
1000
0000
0100
1000
0000
0100
1000
0000
0100
1000
,  // measure 41
0100
0000
0000
0010
0100
0000
0010
0000
0100
0010
0000
0100
0010
0000
0100
0010
,  // measure 42
0100
0000
0000
0001
0100
0000
0001
0000
0100
0001
0000
0100
0001
0000
0100
0001
,  // measure 43
1000
0000
0000
0001
1000
0000
0001
0000
1000
0001
0000
1000
0001
0000
1000
0001
,  // measure 44
1000
0000
0000
0001
1000
0000
0010
0000
1000
0010
0000
1000
0001
0000
1000
0001
,  // measure 45
0010
0000
0000
0001
0100
0000
0010
0000
0001
0100
0000
0010
0100
0000
0001
0100
,  // measure 46
0010
0000
0000
1000
0010
0000
0100
0000
0010
1000
0000
0010
0100
0000
0010
1000
,  // measure 47
0010
0000
0000
1000
0001
0000
0010
0000
0001
1000
0000
1000
0010
0000
0010
1000
,  // measure 48
0002
0000
M000
2003
0000
000M
3002
0000
1003
0001
0000
1000
0000
0000
0001
1000
,  // measure 49
0002
0000
0000
0000
00M0
0000
0023
0000
0000
0000
0M00
0000
0230
0000
0300
0MM0
0220
0000
0000
0000
0330
0000
0000
0000
1000
0000
0100
0000
0010
0000
0001
0000
,  // measure 50
1000
0000
0000
0001
0100
0000
0010
0000
1000
0010
0000
1000
0010
0000
0100
0010
,  // measure 51
0100
0000
0000
0001
0100
0000
0010
0000
010M
0001
0000
100M
0001
0000
100M
0001
,  // measure 52
1000
0000
0000
0010
1000
0000
0010
0000
1000
0001
0000
0001
0010
0000
0100
0010
,  // measure 53
0100
0000
0000
0000
0000
0000
0001
0000
0100
0000
0000
0000
0010
0000
0000
M000
1000
0000
0010
0000
M000
0000
1000
0000
0001
0000
M000
0000
1000
0000
0001
0000
,  // measure 54
1000
0000
0000
0100
0010
0000
0001
0000
1000
0001
0000
1000
0010
0000
0100
0010
,  // measure 55
0100
0000
0000
0000
0000
0000
0001
0000
0100
0000
0000
0000
0001
0000
0000
M000
1000
0000
0010
0000
0000
M000
1000
0000
0001
0000
0000
0M00
0100
0000
0001
0000
,  // measure 56
0100
0000
0000
0010
0100
0000
0001
0000
0100
0001
0000
1000
0001
0000
1000
0010
,  // measure 57
1000
0000
0000
0000
0000
0000
0010
0000
1000
0000
0000
0000
0001
0000
0000
0M00
0100
0000
0010
0000
0000
0M00
0100
0000
0001
0000
0000
M000
1000
0000
0001
0000
,  // measure 58
1000
0000
0000
0001
0100
0000
0001
0000
1000
0001
0000
1000
0001
0000
1000
0001
,  // measure 59
1000
0000
0000
0000
0000
0000
0010
0000
1000
0000
0000
0000
0010
0000
0000
M000
1000
0000
0010
0000
0000
M000
1000
0000
0010
0000
0000
M000
1000
0000
0010
0000
,  // measure 60
1000
0000
0000
0100
0010
0000
0100
0000
0010
0100
0000
0010
0100
0000
0010
0100
,  // measure 61
0010
0000
0000
0000
0000
0000
0001
0000
0010
0000
0000
0000
0001
0000
0000
00M0
0010
0000
0001
0000
0000
00M0
0010
0000
0001
0000
0000
00M0
0010
0000
0001
0000
,  // measure 62
0010
0000
0000
0001
0100
0000
0001
0000
0100
0001
0000
0100
0001
0000
0100
0001
,  // measure 63
0100
0000
0000
0000
0000
0000
0001
0000
0000
0000
0000
0000
1000
0000
0000
M00M
0001
0000
1000
0000
0000
M00M
0001
0000
1000
0000
0000
M00M
0001
0000
1000
0000
,  // measure 64
0002
0000
0000
0000
,  // measure 65
0003
0000
0000
0000
0000
0000
0000
0000
MMMM
0000
0000
MMMM
0000
0000
MMMM
0000
;
